#TITLE:MUTSUKI;
#SUBTITLE:;
#ARTIST:KO3;
#TITLETRANSLIT:;
#SUBTITLETRANSLIT:;
#ARTISTTRANSLIT:;
#GENRE:;
#CREDIT:;
#BANNER:MUTSUKI.png;
#BACKGROUND:MUTSUKI-bg.png;
#LYRICSPATH:;
#CDTITLE:;
#MUSIC:MUTSUKI.ogg;
#OFFSET:0.454864;
#SAMPLESTART:44.762470;
#SAMPLELENGTH:12.000000;
#SELECTABLE:YES;
#BPMS:0.000000=138.000000
;
#STOPS:
;
#BGCHANGES:;
#KEYSOUNDS:;
#ATTACKS:;

//---------------dance-single - ----------------
#NOTES:
     dance-single:
     :
     Hard:
     17:
     0.875828,1.053153,0.201560,0.151170,1.158972,730.000000,706.000000,24.000000,18.000000,0.000000,0.000000,0.875828,1.053153,0.201560,0.151170,1.158972,730.000000,706.000000,24.000000,18.000000,0.000000,0.000000:
// measure 0
0000
0000
0000
0000
,  // measure 1
0000
0000
0000
0000
,  // measure 2
0100
0000
0000
0001
0010
0100
0100
1000
,  // measure 3
0001
0000
0000
0000
0000
0000
0100
0010
0100
0000
0000
0000
0001
0000
0000
0000
,  // measure 4
1100
0000
0000
0000
0000
0100
0000
0010
,  // measure 5
0100
0000
0000
0100
0000
0000
1000
0000
0010
0000
0000
0010
0000
0000
0100
0000
,  // measure 6
0101
0000
0000
1000
0100
0010
0010
0001
,  // measure 7
0100
0000
0000
0000
0000
0000
0100
0010
0100
0000
0000
0000
0001
0000
0000
0000
,  // measure 8
1100
0000
0000
0000
0000
0020
0000
0031
,  // measure 9
1001
0000
0000
0000
0000
0000
0000
0000
0000
0000
0000
0000
1000
0000
0100
0000
0010
0000
0001
0000
0000
0100
0000
0000
,  // measure 10
0001
0000
1000
0010
1000
0000
0100
0000
0010
0000
0001
0100
0001
0000
1000
0000
,  // measure 11
0010
0000
0100
0001
0100
0000
0010
1000
0010
0000
0100
0000
0000
0001
0000
0000
,  // measure 12
1001
0000
1000
0100
1000
0000
0001
0000
0010
0000
0100
1000
0100
0000
0010
0000
,  // measure 13
0001
0000
0100
0001
0100
0000
0010
0000
1000
0000
0000
0001
0000
0000
1001
0000
,  // measure 14
0100
0000
0010
1000
0010
0000
0100
0000
0001
0000
1000
0100
1000
0000
0001
0000
,  // measure 15
0010
0000
0100
1000
0100
0000
0010
0001
0010
0000
0100
0000
0000
1000
0000
0000
,  // measure 16
1001
0000
0001
0100
0001
0000
0010
0000
0100
0000
1000
0100
1000
0000
0001
0000
,  // measure 17
0201
0000
0310
1001
,  // measure 18
0100
0000
0000
0000
0000
0000
0010
0000
0000
1000
0000
0000
0100
0000
0000
0000
0000
0000
0010
0000
0000
0000
0000
0000
0001
0000
0000
0000
0000
0000
1000
0000
0000
0010
0000
0000
1000
0000
0000
0000
0000
0000
0001
0000
0010
0000
0100
0000
,  // measure 19
1000
0000
0000
0000
0000
0000
0001
0000
0000
0010
0000
0000
0001
0000
0000
0000
0000
0000
0100
0000
0000
0000
0000
0000
0010
0000
0000
0000
0000
0000
1000
0000
0000
0001
0000
0000
0000
0000
0000
1000
0000
0000
0100
0000
0010
0000
0001
0000
,  // measure 20
1000
0000
0000
0000
0000
0000
0010
0000
0000
1000
0000
0000
0100
0000
0000
0000
0000
0000
0010
0000
0000
0000
0000
0000
0001
0000
0000
0000
0000
0000
1000
0000
0000
0010
0000
0000
1000
0000
0000
0000
0000
0000
0001
0000
0010
0000
0100
0000
,  // measure 21
1000
0000
0000
0000
0000
0000
0001
0000
0000
0010
0000
0000
0001
0000
0000
0000
0000
0000
0100
0000
0000
0000
0000
0000
0010
0000
0000
0000
0000
0000
1000
0000
0000
0001
0000
0000
0000
0000
0000
1000
0000
0000
0100
0000
0010
0000
0001
0000
,  // measure 22
1000
0010
1000
0010
0100
0010
0100
0010
0001
0010
0001
0010
1000
0000
1001
0000
,  // measure 23
0001
0010
0001
0010
0100
0010
0100
0010
1000
0010
1000
0010
0001
0000
0000
0000
,  // measure 24
1000
0010
1000
0010
1000
0010
0100
0001
0100
0001
0100
0001
1000
0010
1000
0010
1000
0010
0100
0001
0100
0001
0100
0001
,  // measure 25
1000
0100
0001
1000
0010
0001
0100
0000
0000
1001
0000
0000
,  // measure 26
0020
0000
0000
0000
1030
0000
0001
0000
0100
0000
1000
0100
0001
0000
0010
0000
,  // measure 27
0100
0000
0001
0100
1000
0000
0010
0000
0100
0000
1000
0100
0001
0000
0010
0100
,  // measure 28
0020
0000
0000
0000
0031
0000
1000
0000
0100
0000
0001
0100
1000
0000
0001
0000
,  // measure 29
0100
0000
1000
0100
0001
0000
1000
0000
0100
0000
0001
0000
0110
0000
0000
0000
,  // measure 30
0012
0000
0000
0000
1003
0000
0010
0100
1000
0000
0000
0100
0010
0000
1000
0100
,  // measure 31
0001
0000
0000
0000
0100
0000
0000
0000
1000
0000
0000
0000
0001
0000
0000
0000
0010
0000
0000
0000
1000
0000
0000
0000
0001
0000
0000
0000
0000
0000
0100
0000
0000
0010
0000
0000
0100
0000
0000
0000
0000
0000
1000
0000
0000
0001
0000
0000
,  // measure 32
1000
0000
0010
0000
0001
0000
0010
1000
0100
0000
0000
0001
0100
0000
0010
0000
,  // measure 33
0001
1000
0001
1000
0001
1000
0001
1000
0001
1000
0001
1000
0010
0100
0001
1000
0100
0010
0002
0000
0000
1000
0000
0000
,  // measure 34
0103
0000
0010
1000
0001
0010
0100
0010
0001
1000
0100
0010
0100
1000
0100
0010
,  // measure 35
0001
0010
0100
0010
0001
1000
0100
0010
0100
1000
0100
0010
0001
0000
0000
0000
,  // measure 36
1002
0000
0000
0000
1003
0010
0100
0010
1000
0001
0100
0010
0100
0001
0100
0010
,  // measure 37
1000
0010
0100
0010
1000
0001
0100
0010
0100
0001
0100
0010
1000
0000
0000
0000
,  // measure 38
1001
0000
0000
0000
0010
0100
0001
1000
0001
0010
0100
1000
0001
0100
0010
0100
,  // measure 39
0001
0000
0000
0000
0010
0000
0000
0000
0010
0000
0000
0000
1000
0000
0000
0000
0100
0000
0000
0000
0100
0000
0000
0000
0001
0000
0000
0000
0000
0000
0000
0000
0000
1000
0000
0000
0010
0000
0000
0000
0000
0000
0010
0000
0000
1000
0000
0000
,  // measure 40
0001
0000
0000
0000
1000
0100
0010
0100
1000
0001
0010
0100
0010
0001
1000
0100
,  // measure 41
0001
0100
1000
0010
0001
1000
0100
0000
0000
0101
0000
0000
,  // measure 42
0010
0000
1000
0001
1000
0000
0100
0001
0100
0000
0010
0000
0001
0000
0000
0000
,  // measure 43
1001
0000
0100
0010
0100
0000
0001
1000
0001
0000
0010
0000
0100
1000
0100
1000
,  // measure 44
0001
0000
1000
0010
1000
0000
0010
0001
0010
0000
0100
0000
0001
0000
0000
0000
,  // measure 45
1001
0000
0010
0100
0010
0000
1000
0001
1000
0000
0100
0000
0010
0001
0010
0001
,  // measure 46
1000
0000
0010
0100
0010
0000
0001
0010
0001
0000
0010
0000
1000
0001
1000
0001
,  // measure 47
1000
0000
0100
0010
0100
0000
0001
0100
0001
0000
0100
0000
0010
0001
1000
0001
,  // measure 48
0100
0000
0010
1000
0010
0000
0001
0010
0001
0000
0010
0000
0100
0001
0100
0001
,  // measure 49
2000
0000
0000
0000
0000
0000
3001
0000
0000
0000
0000
0000
0100
0010
0100
0010
0000
0000
1000
0000
0000
0001
0000
0000
,  // measure 50
1000
0010
0100
1000
0100
0010
1000
0010
0100
1000
0100
0010
1000
0010
0100
1000
,  // measure 51
0100
0001
1000
0001
0010
0000
0021
0000
0130
1000
0001
1000
0010
0100
0001
1000
,  // measure 52
0010
1000
0001
1000
0100
0000
1200
0000
0310
0001
1000
0001
0100
0010
1000
0001
,  // measure 53
1000
0100
0010
0100
1000
0000
2100
0000
3001
0100
0001
0100
0020
0000
1030
0000
,  // measure 54
0001
0100
0010
0001
0010
0100
0001
0100
0010
0001
0010
0100
0001
0100
0010
0001
,  // measure 55
0010
1000
0001
1000
0100
0000
1200
0000
0310
0001
1000
0010
1000
0100
0010
0001
,  // measure 56
1000
0001
0010
0001
0100
0000
0201
0000
0301
0010
0100
1000
0010
1000
0001
0010
,  // measure 57
0200
0000
0000
0000
0000
0000
0000
0000
0000
0000
0000
0000
0310
0001
1000
0010
0100
0010
2000
0000
0000
0001
0000
0000
,  // measure 58
3100
0010
0001
0100
0001
0010
0100
0010
0001
0100
0001
0010
0100
0010
0001
0100
,  // measure 59
0010
1000
0100
0010
0100
1000
0010
1000
0100
0010
0100
1000
0010
1000
0100
0010
,  // measure 60
0001
0010
0100
0001
0100
0010
0001
0010
0100
0001
0100
0010
0001
0010
0100
0001
,  // measure 61
1000
0010
0100
1000
0100
0010
1000
0010
0100
1000
0100
0010
0002
0000
0000
0000
,  // measure 62
0013
0100
1000
0010
1000
0100
0010
0100
1000
0010
1000
0100
0010
0100
1000
0010
,  // measure 63
0100
0001
0010
0100
0010
0001
0100
0001
0010
0100
0010
0001
0100
0001
0010
0100
,  // measure 64
1000
0100
0010
0001
1000
0010
0100
0001
1000
0100
0010
0100
1000
0001
0010
1000
,  // measure 65
0020
0000
0000
0030
,  // measure 66
1001
0000
0000
0000
;
