#TITLE:MUSHY SEIZE;
#SUBTITLE:;
#ARTIST:Kai Whiston;
#TITLETRANSLIT:;
#SUBTITLETRANSLIT:;
#ARTISTTRANSLIT:;
#GENRE:;
#CREDIT:;
#BANNER:MUSHY SEIZE.png;
#BACKGROUND:MUSHY SEIZE-bg.png;
#LYRICSPATH:;
#CDTITLE:;
#MUSIC:MUSHY SEIZE.ogg;
#OFFSET:-1.846000;
#SAMPLESTART:30.240000;
#SAMPLELENGTH:11.370000;
#SELECTABLE:YES;
#BPMS:0.000000=84.500000
;
#STOPS:72.000000=0.710000,
72.500000=0.355000,
73.166664=0.710000,
74.750000=0.355000,
75.375000=0.710000
;
#BGCHANGES:;
#KEYSOUNDS:;
#ATTACKS:;

//---------------dance-single - ----------------
#NOTES:
     dance-single:
     :
     Hard:
     12:
     0.534355,0.529202,0.313243,0.276391,0.681764,406.000000,372.000000,34.000000,30.000000,0.000000,0.000000,0.534355,0.529202,0.313243,0.276391,0.681764,406.000000,372.000000,34.000000,30.000000,0.000000,0.000000:
0000
0000
0000
0000
,
0000
0000
0000
0000
,
1010
0000
0000
0000
0001
0000
0010
0000
0001
0000
0000
0000
0000
0000
1000
0010
1000
0000
0001
0000
0100
0000
0010
0000
0001
0000
0100
0000
0000
0000
0000
0000
,
1010
0000
0000
0000
0001
0000
0010
0000
0001
0000
0000
0000
0000
0000
1000
0010
1000
0000
0001
0000
0100
0000
0010
0000
0001
0000
0100
0000
0000
0000
1000
0000
,
1000
0000
0000
0000
0001
0000
0100
0000
0001
0000
0000
0000
0000
0000
1000
0100
1000
0000
0001
0000
0010
0000
0100
0000
0001
0000
0010
0000
0000
0000
0000
0000
,
1100
0000
0000
0000
0001
0000
0100
0000
0001
0000
0000
0000
0000
0000
1000
0100
2000
0000
0000
0000
3020
0000
0000
0000
0230
0000
0000
0000
0300
0000
0000
0000
,
0101
0000
1010
1000
0001
0000
1000
0100
0001
0100
1000
0001
1000
0010
0000
0000
,
0101
0000
1010
1000
0001
0000
1000
0100
0001
0100
1000
0001
1000
0010
0000
0100
,
0100
0000
0011
0001
1000
0000
0001
0100
1000
0100
0001
1000
0001
0010
0000
0000
,
1100
0000
0010
0001
1000
0000
0001
0100
2000
0000
3200
0000
0302
0000
0000
0000
,
2003
0000
0010
0000
0000
3100
0010
0000
,
0002
0000
0000
0000
0010
0000
0000
0000
0000
0000
0103
0000
0010
0000
0010
1000
,
1000
0000
0000
0000
0011
0000
0000
0010
0001
0010
0100
0000
0011
0000
0000
0000
,
1100
0000
0000
0000
0011
0000
0000
0010
0002
0000
2003
0000
3020
0000
0030
0000
,
0101
0000
1010
1000
0001
0100
0010
0100
0020
0000
1030
0100
0001
0100
1000
0001
,
0011
0000
0010
1000
0001
0000
0100
0010
1000
0100
0001
0100
1000
1000
0010
0100
,
0101
0000
0011
0001
1000
0100
0010
0100
0020
0000
0031
0100
1000
0100
0001
1000
,
1100
0000
0010
0001
1000
0000
0100
0010
0001
0010
0200
0000
2300
0000
3001
0000
,
0100
0000
0000
0000
0000
0000
0000
0000
0000
0000
0000
0000
0000
0000
0000
0000
0000
0000
0000
0000
0000
0000
0000
0000
0100
0000
0000
0000
0000
0000
0000
0000
0000
0000
0000
0000
0000
0000
0000
0000
0000
0000
0000
0000
0000
0000
0000
0000
0100
0000
0000
0000
0000
0000
0000
0000
0001
0000
0000
0000
0000
0000
0000
0000
0000
0000
0000
0000
0000
0000
0000
0000
0000
0000
0000
0000
0000
0000
0000
0000
0000
0000
0000
0000
0000
0000
0000
0000
0000
0000
0000
0000
0000
0000
0000
0000
0100
0000
0000
0000
0000
0000
0000
0000
0000
0001
0000
0000
0000
0000
0000
0000
0000
0000
0100
0000
0000
0000
0000
0000
0000
0000
0000
0001
0000
0000
0000
0000
0000
0000
0000
0000
0100
0000
0000
0000
0000
0000
0000
0000
0000
0000
0000
0000
0100
0000
0000
0000
0000
0000
0000
0000
0000
0001
0000
0000
0000
0000
0000
0000
0000
0000
0100
0000
0000
0000
0000
0000
0000
0000
0000
0000
0000
0000
0000
0000
0000
0000
0000
0000
0000
0000
0000
0000
0000
0000
0000
0000
0000
0000
0000
0000
,
1200
0000
0010
0000
0301
0010
0100
1000
0000
0000
1100
0000
0011
0000
0100
1000
,
0001
0000
0100
0010
1000
0000
0101
0000
1100
0000
0010
0001
1000
0000
0001
1000
,
0200
0000
0001
0000
1300
0010
0100
0001
1000
0000
0101
0000
1010
0000
0100
0001
,
1000
0000
0100
0010
0001
0000
1100
0000
0101
0000
0010
1000
0001
0000
1000
0001
,
1000
1000
0020
0000
2030
0000
3001
0010
1100
0000
0101
0000
1001
0000
0000
0000
,
1000
0000
0000
0010
0100
0000
0000
0001
0010
0000
0000
0001
1000
0000
1000
0000
0010
0000
0000
0000
0100
0000
0001
0000
0010
0000
0000
0000
0110
0000
0000
0000
,
1000
0001
0010
0001
1000
0000
0001
0100
1000
0100
0001
0000
1001
0000
0010
0000
,
1000
0000
0000
0010
0100
0000
0000
0001
0010
0000
0000
0001
1000
0000
1000
0000
0010
0000
0000
0000
0100
0000
0000
0000
1001
0000
0000
0000
0000
0000
0000
0000
,
2000
0000
0000
0000
0001
0000
3100
0000
0010
0000
0000
0000
1000
0000
0001
0100
0001
0000
0010
0000
0100
0000
0000
0000
1000
0000
0100
0000
1000
0000
0000
0000
,
0002
0000
0000
0000
1000
0000
0103
0000
0010
0000
0000
0000
0001
0000
1000
0100
1000
0000
0010
0000
0100
0000
0000
0000
0001
0000
0100
0000
0000
0000
0100
0000
,
2000
0000
0000
0000
0001
0000
3100
0000
0010
0000
0000
0000
1000
0000
0001
0100
0001
0000
0010
0000
0100
0000
0000
0000
1000
0000
0100
0000
1000
0000
0000
0000
,
0002
0000
0000
0000
1000
0000
0103
0000
0010
0000
0000
0000
0001
0000
1000
0100
1000
0000
0010
0000
0200
0000
0000
0000
0302
0000
0000
0000
0003
0000
0000
0000
,
2000
0000
0000
0000
3001
0010
0000
0010
0001
0000
1000
0000
0000
0000
0100
0000
0001
0000
0010
0000
0100
1000
0000
1000
0100
0000
0010
0000
0001
0000
1000
0000
,
0002
0000
0000
0000
1003
0010
0000
0010
1000
0000
0001
0000
0000
0000
0100
0000
1000
0000
0010
0000
0100
0001
0000
0001
0100
0000
0010
0000
1000
0000
0001
0000
,
2000
0000
0000
0000
3001
0010
0000
0010
0001
0000
1000
0000
0000
0000
0100
0000
0001
0000
0010
0000
0100
1000
0000
1000
0100
0000
0010
0000
0001
0000
1000
0000
,
0002
0000
1000
0103
0010
0000
1000
0000
0000
0200
0000
0000
0000
0300
0000
0000
;

//---------------dance-single - ----------------
#NOTES:
     dance-single:
     :
     Medium:
     9:
     0.359308,0.384183,0.036852,0.257965,0.248752,273.000000,269.000000,4.000000,28.000000,0.000000,0.000000,0.359308,0.384183,0.036852,0.257965,0.248752,273.000000,269.000000,4.000000,28.000000,0.000000,0.000000:
0000
0000
0000
0000
,
0000
0000
0000
0000
,
0010
0000
1000
0001
1000
0000
0000
0000
0100
0000
0010
0001
0010
0001
0000
0000
,
0100
0000
0001
1000
0001
0000
0000
0000
0010
0000
0100
1000
0100
1000
0000
0001
,
0100
0000
0010
1000
0010
0000
0000
0000
0100
0000
0001
1000
0001
1000
0000
0000
,
0100
0000
0010
0001
0010
0000
0000
0000
0100
0000
1000
0000
0002
0000
0000
0000
,
0103
0000
0010
1000
0010
0000
0100
0000
0001
0000
1000
0100
1000
0000
0001
0000
,
0011
0000
0100
1000
0100
0000
0010
0000
0001
0000
1000
0010
1000
0000
0001
0100
,
0001
0000
1000
0010
1000
0000
0001
0000
0010
0000
0100
1000
0100
0000
0010
0000
,
0011
0000
1000
0100
1000
0000
0001
0000
0100
0000
0001
0000
2000
0000
0000
0000
,
3002
0000
0103
0010
0100
1000
0100
0001
,
0002
0000
0000
0000
0100
0000
0000
0000
1003
0000
0100
0000
1000
0000
0000
1000
,
0002
0000
0013
0100
1000
0100
0001
0100
,
0020
0000
0031
1000
0010
1000
0002
0000
,
0103
0000
0001
1000
0001
0000
0010
0000
0100
0000
0010
0000
0001
0000
1000
0000
,
0002
0000
0000
0000
0103
0000
0010
1000
0010
0000
0100
0000
0001
0000
0001
0000
,
0010
0000
0100
1000
0100
0000
0010
0000
0001
0000
0100
0000
0001
0000
1000
0000
,
0100
0010
0020
0001
0032
1000
0103
0000
,
0020
0030
0000
0000
,
1010
0000
0001
0000
1000
0100
1000
0100
0000
0000
0020
0000
0032
0000
0003
1000
,
0010
0000
0100
0001
0100
0000
0010
0000
1000
0000
0001
0010
0002
0000
0003
0000
,
1010
0000
0001
0000
1000
0100
1000
0100
0000
0000
0020
0000
0032
0000
0003
1000
,
0010
0000
0100
0001
0100
0000
0010
0000
1000
0000
0100
0010
0002
0000
0003
0000
,
1000
0100
1000
0000
0001
0000
1000
0010
0100
0010
0100
0000
0002
0000
0000
0000
,
1003
0000
1000
0000
0010
0000
0010
1000
0001
0000
0010
0000
0001
0000
0000
0000
,
1000
0000
1000
0000
0001
0000
0010
0100
0010
0000
0001
0000
1000
0000
0000
0000
,
0001
0000
0001
0000
0100
0000
0100
0010
1000
0000
1000
0000
0100
0000
0000
0000
,
0020
0000
0000
0000
0031
0000
1000
0010
0000
1000
0010
0000
0100
0000
0001
0000
,
2000
0000
0000
0000
3100
0000
0010
0001
0000
0010
0001
0000
0100
0200
0000
0000
,
0301
0000
1000
0000
0010
0000
1000
0001
0000
1000
0001
0000
0200
0000
0310
0000
,
2000
0000
0000
0000
3001
0000
0010
0100
0010
0000
0001
0000
2000
0000
0000
0000
,
3001
0000
0010
0100
0010
0000
0001
0000
0001
0000
1000
0010
2000
0000
0000
0000
,
3001
0000
0010
0100
0010
0000
0001
0000
0001
0000
1000
0010
2000
0000
0000
0000
,
3100
0000
0010
0001
0010
0000
0100
0000
0100
0000
1000
0001
2000
0000
0000
0000
,
3010
0000
0100
0001
0100
0000
0010
0000
2000
0000
0000
0000
3000
0000
0000
0000
;

//---------------dance-single - ----------------
#NOTES:
     dance-single:
     :
     Easy:
     5:
     0.256649,0.236660,0.000000,0.064491,0.000000,195.000000,195.000000,0.000000,7.000000,0.000000,0.000000,0.256649,0.236660,0.000000,0.064491,0.000000,195.000000,195.000000,0.000000,7.000000,0.000000,0.000000:
0000
0000
0000
0000
,
0000
0000
0000
0000
,
0100
1000
0010
0000
1000
0001
0010
0001
,
0100
0001
0010
0000
0001
1000
0001
0000
,
0100
0001
0010
0000
0001
1000
0010
1000
,
0100
1000
0010
0000
1000
0001
0200
0000
,
0310
1000
0100
1000
0001
1000
0010
0000
,
0100
0001
0010
0001
1000
0001
0100
0000
,
0001
0010
1000
0010
0001
0100
0001
0000
,
1000
0010
0001
0010
2000
0000
0000
0000
,
3100
0000
0010
0000
0000
0100
0010
0000
,
0100
0000
0010
0000
0000
0100
0010
0000
,
0001
0000
1000
0000
0001
0010
1000
0000
,
0001
0000
1000
0000
0001
0010
1000
0000
,
0100
0010
0001
1000
0010
1000
0001
0000
,
0100
0010
1000
0001
0010
0001
1000
0000
,
0001
1000
0100
0010
0001
0100
0010
0000
,
1000
0010
0010
0100
0002
0000
0013
0000
,
0100
0000
0000
0000
,
0010
0001
0010
0100
0010
1000
0010
0000
,
0001
0100
0001
0000
1000
0100
1000
0000
,
0010
1000
0010
0100
0010
0001
0010
0000
,
1000
0100
1000
0000
0001
0100
0001
0000
,
1000
1000
0010
1000
0001
0001
0010
0000
,
0100
0100
1000
0001
1000
0010
1000
0000
,
0001
0001
0010
0001
1000
1000
0010
0000
,
0100
0100
0001
1000
0001
0010
0100
0000
,
2000
0000
3010
0000
0100
0001
0010
0001
,
2000
0000
3010
0000
0100
0001
0010
0000
,
0002
0000
0013
0000
0100
1000
0010
1000
,
0002
0000
0013
0000
0100
1000
0010
0000
,
0100
0001
0001
0000
1000
1000
0100
0000
,
0010
0001
0001
0000
1000
1000
0010
0000
,
1000
0001
0100
0000
1000
1000
0100
0000
,
0001
1000
0100
0000
0000
0000
0000
0000
;

//---------------dance-single - ----------------
#NOTES:
     dance-single:
     :
     Beginner:
     1:
     0.096079,0.111247,0.000000,0.000000,0.000000,73.000000,73.000000,0.000000,0.000000,0.000000,0.000000,0.096079,0.111247,0.000000,0.000000,0.000000,73.000000,73.000000,0.000000,0.000000,0.000000,0.000000:
0000
0000
0000
0000
,
0000
0000
0000
0000
,
0010
0000
1000
0000
,
0010
0000
1000
0000
,
0001
0000
0010
0000
,
0001
0000
1000
0000
,
0100
0100
0000
0100
,
1000
1000
0000
1000
,
0010
0010
0000
0010
,
0100
0100
0000
0100
,
0001
0000
0000
0000
,
1000
0000
0000
0000
,
0001
0010
0000
0010
,
1000
0010
1000
0000
,
0100
0000
0000
1000
,
0001
0000
0001
0000
,
0100
0000
0000
0001
,
1000
0100
0100
0000
,
0010
0000
0000
0000
,
0000
0001
0000
0001
,
0000
1000
0000
1000
,
0100
0010
0000
0010
,
0000
0100
0000
0100
,
1000
0000
0010
0010
,
1000
0000
0100
0000
,
0001
0000
0010
0010
,
0001
0000
0100
0000
,
0010
0000
0000
0000
0000
0010
0000
0000
,
1000
0000
0000
0000
0000
1000
0000
0000
,
0001
0000
0000
0000
0000
0001
0000
0000
,
0010
0000
0010
0000
,
0100
0000
0000
0000
0000
0100
0000
0000
,
1000
0000
0000
0000
0000
1000
0000
0000
,
0001
0000
0000
0000
0000
0001
0000
0000
,
0100
0000
0100
0000
;
