#TITLE:Low Tide (Demo);
#SUBTITLE:;
#ARTIST:The J. Arthur Keenes Band;
#TITLETRANSLIT:;
#SUBTITLETRANSLIT:;
#ARTISTTRANSLIT:;
#GENRE:;
#CREDIT:;
#BANNER:Low Tide (Demo).png;
#BACKGROUND:Low Tide (Demo)-bg.png;
#LYRICSPATH:;
#CDTITLE:;
#MUSIC:Low Tide (Demo).ogg;
#OFFSET:-0.296000;
#SAMPLESTART:26.227783;
#SAMPLELENGTH:12.979999;
#SELECTABLE:YES;
#BPMS:0.000000=111.000000
;
#STOPS:
;
#BGCHANGES:;
#KEYSOUNDS:;
#ATTACKS:;

//---------------dance-single - ----------------
#NOTES:
     dance-single:
     :
     Hard:
     14:
     0.525699,0.758978,0.000000,0.484197,0.405980,494.000000,494.000000,0.000000,65.000000,0.000000,0.000000,0.525699,0.758978,0.000000,0.484197,0.405980,494.000000,494.000000,0.000000,65.000000,0.000000,0.000000:
// measure 0
2000
3200
0320
0032
,  // measure 1
0203
2300
3002
0023
,  // measure 2
2030
3002
0000
0000
,  // measure 3
2003
3200
0320
0032
,  // measure 4
0203
2300
3002
0023
,  // measure 5
2030
0000
0000
0000
3002
0000
0000
0000
0000
0000
0000
0000
0000
0000
0013
0100
,  // measure 6
1000
0010
1000
0001
1000
0100
0010
0001
,  // measure 7
1000
0001
0100
0010
2000
0000
0100
0000
,  // measure 8
0010
0000
0000
0000
3002
0000
0000
0000
0203
0000
0000
0000
0000
0000
0310
1000
,  // measure 9
0001
0100
1000
0100
0001
1000
0010
1000
,  // measure 10
0100
0001
0100
1000
0002
0000
0100
0000
,  // measure 11
0010
0000
0000
0000
2003
0000
0000
0000
3200
0000
0000
0000
0000
0000
0310
0001
,  // measure 12
1000
0100
0010
0001
0010
0001
0020
0000
,  // measure 13
0230
0000
2300
0000
3001
0100
0010
1000
,  // measure 14
0010
0000
0100
0001
1000
0000
0100
0000
0010
0000
0002
0000
0010
0000
0000
0000
,  // measure 15
0103
0010
1000
0001
1000
0001
2000
0000
,  // measure 16
3020
0000
0230
0000
0301
1000
0100
0010
,  // measure 17
0001
0000
1000
0010
1000
0000
0001
0000
0020
0000
0000
0000
0230
0000
0000
0000
,  // measure 18
1300
0010
0100
0001
0100
0001
0200
0000
,  // measure 19
0320
0000
2030
0000
3001
0100
0010
1000
,  // measure 20
0010
0000
0100
0001
1000
0000
0100
0000
0010
0000
0002
0000
0010
0000
0000
0000
,  // measure 21
0103
0010
1000
0001
1000
0001
2000
0000
,  // measure 22
3020
0000
0230
0000
0301
1000
0100
0010
,  // measure 23
0001
0000
1000
0010
1000
0001
0010
0000
0001
0010
0000
0001
0010
0000
0100
1000
,  // measure 24
0001
0100
1000
0100
0010
0100
0001
0010
,  // measure 25
1000
0010
0100
0010
0001
1000
0010
1000
,  // measure 26
0100
0010
0001
0100
1000
0001
0010
1000
,  // measure 27
0001
0010
1000
0010
0002
0000
1003
0010
,  // measure 28
0001
0000
0010
0000
1000
0000
0100
0010
0001
0000
1000
0000
0010
0000
1000
0000
,  // measure 29
0100
1000
0001
0100
0001
0010
0001
1000
,  // measure 30
0100
0010
0001
1000
0010
1000
0001
0100
,  // measure 31
0010
1000
0001
1000
0100
0010
0001
1000
,  // measure 32
0010
1000
0001
0010
0100
1000
0100
0010
,  // measure 33
0001
0100
1000
0100
0002
0000
1003
0100
,  // measure 34
0001
0000
0100
0000
1000
0000
0100
0010
0001
0000
1000
0000
0001
0000
0100
0000
,  // measure 35
0001
0010
0001
1000
0010
1000
0100
1000
,  // measure 36
0002
0023
0230
2300
,  // measure 37
3020
0032
2003
3200
,  // measure 38
0302
2003
0000
0000
,  // measure 39
3002
0023
0230
2300
,  // measure 40
3020
0032
2003
3200
,  // measure 41
0302
2003
0000
3000
,  // measure 42
0001
0100
1000
0100
0001
0000
1000
0001
,  // measure 43
0100
1000
0100
0001
1000
0010
0001
0010
,  // measure 44
1000
0000
0001
1000
0010
0001
0010
1000
,  // measure 45
0001
0010
0100
0010
0001
0000
1000
0001
,  // measure 46
0010
0100
0010
0001
1000
0010
0100
0010
,  // measure 47
1000
0000
0001
1000
0010
0100
0001
0000
,  // measure 48
1000
0100
0010
0001
0010
0001
0100
0010
1000
0001
0000
0001
1000
0100
0010
0001
,  // measure 49
0010
0001
0100
0010
1000
0001
0000
0001
1000
0100
0010
0001
0010
0001
0100
0010
,  // measure 50
1000
0100
0010
0001
1000
0100
0010
0001
0010
0001
0100
0010
0100
0001
0010
0100
,  // measure 51
1000
0100
0010
0100
0010
0100
1000
0001
0100
0010
0100
0001
1000
0100
0010
0100
,  // measure 52
0010
0001
1000
0010
1000
0001
1000
0100
1000
0010
0100
0001
1000
0010
1000
0001
,  // measure 53
1000
0100
0010
0001
0100
0010
1000
0001
0010
0100
0010
0001
1000
0010
0100
0001
,  // measure 54
1000
0100
0010
0001
0010
0001
0100
0010
1000
0001
0000
0001
1000
0100
0010
0001
,  // measure 55
0010
0001
0100
0010
1000
0001
0000
0001
1000
0100
0010
0001
0010
0001
0100
0010
,  // measure 56
1000
0100
0010
0001
1000
0100
0010
0001
0010
0001
0100
0010
0100
0001
0010
0100
,  // measure 57
1000
0100
0010
0100
0010
0100
1000
0001
0100
0010
0100
0001
1000
0100
0010
0100
,  // measure 58
0010
0001
1000
0010
1000
0001
1000
0100
1000
0010
0100
0001
1000
0010
1000
0001
,  // measure 59
1000
0100
0010
0001
0100
0010
1000
0001
0010
0100
0010
0001
1000
0010
0100
0002
,  // measure 60
0000
0000
0000
0000
,  // measure 61
0000
0000
0000
0003
;

//---------------dance-single - ----------------
#NOTES:
     dance-single:
     :
     Medium:
     8:
     0.282005,0.344990,0.000000,0.216026,0.000000,265.000000,265.000000,0.000000,29.000000,0.000000,0.000000,0.282005,0.344990,0.000000,0.216026,0.000000,265.000000,265.000000,0.000000,29.000000,0.000000,0.000000:
0000
0000
0000
0000
,
0000
0000
0000
0000
,
0000
0000
0000
0000
,
0000
0000
0000
0000
,
0000
0000
0000
0000
,
0000
0000
0000
0000
,
2000
0000
0000
0000
0000
3001
0010
0001
,
0000
0100
0000
0010
2000
0000
0000
0000
,
3100
0020
0002
0033
,
0002
0000
0000
0000
0000
1003
0010
1000
,
0000
0100
0000
0010
0002
0000
0000
0000
,
0103
0020
2000
3030
,
0001
0000
1000
0100
1000
0010
2000
0000
,
3200
0320
0032
0100
,
0003
0000
0010
0000
1000
0001
0000
0000
,
1000
0000
0001
0100
0001
0010
0002
0000
,
0203
0320
2030
0100
,
3000
0010
2000
3002
,
1003
0000
0100
0010
0100
1000
0200
0000
,
0320
0032
2003
0010
,
3000
0000
0001
0000
0010
0100
0000
0000
,
1000
0000
0100
0010
0100
1000
0200
0000
,
0320
0032
2003
0010
,
3000
0000
0100
0000
0010
0001
0000
0000
,
1000
0010
0100
0010
1000
0000
0001
0010
,
0100
0010
0001
0000
1000
0100
0010
0100
,
1000
0000
0001
0100
0010
0100
0001
0000
,
1000
0010
0000
1000
0001
0000
0001
0010
,
0000
0001
1000
0000
0010
0100
0010
0000
,
1000
0000
0001
0010
0001
0000
0100
0000
,
0001
0010
0100
0010
0001
0000
1000
0010
,
0100
0010
1000
0000
0001
0100
0010
0100
,
0001
0000
1000
0100
0010
0100
1000
0000
,
0001
0100
0000
0001
1000
0000
1000
0100
,
0000
1000
0001
0010
0100
1000
0100
0000
,
0010
0000
0001
0100
0001
0000
1000
0000
,
0100
0000
0010
0000
0010
0000
0010
0001
,
0000
0100
0000
0000
0020
0000
0000
0000
,
0030
1000
0001
0000
1000
0010
0000
0000
,
0100
0000
0001
0000
0001
0010
0000
0000
,
0100
1000
0000
0000
0010
0000
0200
0000
,
0000
0000
0301
0000
0010
0000
0100
1000
,
0001
0000
0100
0000
0010
1000
0000
0001
,
0000
0010
0000
0100
2000
0000
0000
0000
,
3000
0000
0001
0100
0000
0010
0000
0000
,
0100
0000
0001
0000
0001
0010
0001
0000
,
1000
0100
0000
0000
0010
0000
0000
0000
,
0100
1000
0001
0000
1000
0000
0010
0000
,
1000
0100
1000
0000
1000
0000
0001
0100
,
0001
0000
0001
0000
1000
0010
1000
0000
,
1000
0000
0001
0010
0001
0000
0001
0000
,
0100
0010
1000
0000
0001
0000
0100
0010
,
1000
0000
0001
0000
1000
0100
1000
0000
,
0010
0000
0100
0001
0100
0000
0010
1000
,
0001
0010
0001
0000
0001
0000
1000
0010
,
1000
0000
1000
0000
0001
0100
0001
0000
,
0001
0000
1000
0100
1000
0000
1000
0000
,
0010
0100
0001
0000
1000
0000
0010
0100
,
0001
0000
1000
0000
0100
0010
0100
0000
,
1000
0000
0010
0100
0010
0000
1000
0000
,
0001
0010
0001
1000
,
0001
0100
0010
0100
;

//---------------dance-single - ----------------
#NOTES:
     dance-single:
     :
     Easy:
     5:
     0.216026,0.206994,0.000000,0.022348,0.000000,203.000000,203.000000,0.000000,3.000000,0.000000,0.000000,0.216026,0.206994,0.000000,0.022348,0.000000,203.000000,203.000000,0.000000,3.000000,0.000000,0.000000:
0000
0000
0000
0000
,
0000
0000
0000
0000
,
0000
0000
0000
0000
,
0000
0000
0000
0000
,
0000
0000
0000
0000
,
0000
0000
0000
0000
,
1000
0010
0100
0001
,
0000
0010
0000
0000
0001
0000
0100
0000
,
0010
2000
3200
0000
,
1300
0010
0100
0001
,
0000
0010
0000
0000
0001
0000
0100
0000
,
0010
1000
0200
0000
,
1300
0010
0010
0010
,
0100
0001
1000
0000
,
0100
0000
0010
0000
0001
1000
0000
0000
,
0001
0010
0010
0010
,
0100
1000
0001
0000
,
0100
0000
0010
0000
1000
0001
0000
0000
,
1000
0100
0100
0100
,
0010
0001
1000
0000
,
0001
0000
0100
0000
0010
1000
0000
0000
,
0001
0100
0100
0100
,
0010
1000
0001
0000
,
1000
0000
0100
0000
0010
0001
0000
0000
,
1000
0010
1000
0001
,
0010
0001
1000
0100
,
0010
0001
0100
0010
,
1000
0000
0000
0100
0000
0000
0001
0000
,
0000
0100
0000
0000
1000
0000
0010
0000
,
0100
0001
0010
0100
,
1000
0010
1000
0001
,
0010
0001
1000
0100
,
0010
0001
0100
0010
,
1000
0000
0000
0010
0000
0000
0001
0000
,
0000
0010
0000
0000
1000
0000
0100
0000
,
1000
0010
0100
0001
,
1000
0010
0010
1000
,
0000
0100
0000
0000
0010
0000
0000
0000
,
0001
0100
0010
1000
,
0001
0100
0100
0001
,
1000
0000
0001
0010
,
0000
0100
0010
0100
,
1000
0010
1000
0001
,
0010
0001
0100
0000
,
0010
0000
1000
0000
0000
0001
0000
0000
,
1000
0100
0010
0001
,
0100
0010
1000
0000
,
0100
0010
0001
1000
,
0010
0010
1000
0001
,
0001
0010
0100
0100
,
1000
0001
0001
0100
,
0010
1000
0001
0010
,
0100
1000
0001
0100
,
1000
0100
0001
0001
,
1000
1000
0010
0100
,
0100
0001
1000
1000
,
0100
0010
0010
0001
,
1000
0010
1000
0100
,
0010
0100
1000
0010
,
0100
0001
0010
0100
,
1000
0000
0010
0000
,
0001
0001
0100
0010
;

//---------------dance-single - ----------------
#NOTES:
     dance-single:
     :
     Beginner:
     2:
     0.129829,0.178780,0.000000,0.000000,0.000000,122.000000,122.000000,0.000000,0.000000,0.000000,0.000000,0.129829,0.178780,0.000000,0.000000,0.000000,122.000000,122.000000,0.000000,0.000000,0.000000,0.000000:
0000
0000
0000
0000
,
0000
0000
0000
0000
,
0000
0000
0000
0000
,
0000
0000
0000
0000
,
0000
0000
0000
0000
,
0000
0000
0000
0000
,
1000
0000
0000
0010
,
0000
0000
1000
0000
,
0000
0100
0010
0000
,
0001
0000
0000
0010
,
0000
0000
0001
0000
,
0000
0100
0010
0000
,
1000
0100
0100
0100
,
0000
0000
1000
0000
,
0000
0001
0000
0000
,
1000
0010
0010
0010
,
0000
0000
1000
0000
,
0000
0001
0000
0000
,
0001
0010
0010
0010
,
0000
0000
0001
0000
,
0000
1000
0000
0000
,
0001
0100
0100
0100
,
0000
0000
0001
0000
,
0000
1000
0100
0000
,
1000
0000
0010
1000
,
0000
0001
1000
0000
,
0100
1000
0000
0010
,
0100
0000
0000
0001
,
0000
0000
0010
0000
,
0010
0100
0000
0000
,
0001
0000
0010
0001
,
0000
1000
0001
0000
,
0100
0001
0000
0100
,
0010
0000
0000
1000
,
0000
0000
0001
0000
,
0000
0010
0100
0100
,
1000
0000
0000
1000
,
0000
0000
0100
0000
,
0000
0100
0000
0000
,
0001
0000
0000
0001
,
0000
0000
0100
0000
,
0000
0100
0000
0000
,
1000
1000
0000
0010
,
0010
0000
0001
0001
,
0000
0010
0010
0000
,
1000
1000
0000
0001
,
0001
0000
0010
0010
,
0000
0100
0000
0000
,
1000
1000
0010
1000
,
1000
0000
0001
0001
,
0010
0001
0001
0000
,
0100
0000
0010
0100
,
0000
0001
0100
0000
,
0010
1000
0000
0001
,
1000
1000
0100
1000
,
1000
0000
0001
0001
,
0100
0001
0001
0000
,
1000
0000
1000
0010
,
0000
0010
0100
0000
,
0100
0001
0000
1000
,
0001
0000
0000
0000
;
