#TITLE:Labyrinth;
#SUBTITLE:;
#ARTIST:ミラクルミュージカル;
#TITLETRANSLIT:;
#SUBTITLETRANSLIT:;
#ARTISTTRANSLIT:;
#GENRE:;
#CREDIT:;
#BANNER:Labyrinth.png;
#BACKGROUND:Labyrinth-bg.png;
#LYRICSPATH:;
#CDTITLE:;
#MUSIC:Labyrinth.ogg;
#OFFSET:1.830000;
#SAMPLESTART:106.267609;
#SAMPLELENGTH:17.280006;
#LASTBEATHINT:1.447225;
#SELECTABLE:YES;
#BPMS:0.000000=111.000000
;
#STOPS:
;
#BGCHANGES:3.500=Labyrinth.avi=1.000=1=0=1===CrossFade==,
284.000=Labyrinth-bg.png=1.000=1=0=1===CrossFade==,
99999=-nosongbg-=1.000=0=0=0 // don't automatically add -songbackground-
;
#KEYSOUNDS:;
#ATTACKS:;

//---------------dance-single - ----------------
#NOTES:
     dance-single:
     :
     Hard:
     13:
     0.539398,0.603994,0.013088,0.222490,0.392629,577.000000,575.000000,2.000000,34.000000,0.000000,0.000000,0.539398,0.603994,0.013088,0.222490,0.392629,577.000000,575.000000,2.000000,34.000000,0.000000,0.000000:
// measure 0
0000
0000
0000
0000
,  // measure 1
0000
0000
0000
0000
,  // measure 2
0000
0000
0000
0000
,  // measure 3
1000
0000
0001
0000
,  // measure 4
1000
0000
0001
0000
,  // measure 5
1000
0010
0001
0010
,  // measure 6
1000
0000
0000
0000
1000
0000
0000
0000
1000
0000
0000
0000
0001
0000
0000
0010
,  // measure 7
0000
0010
0000
0001
1000
0000
0100
0010
0100
0000
1000
0000
0001
0000
0001
0000
,  // measure 8
1000
0010
1000
0000
0100
0000
0010
0000
0001
0100
0001
0000
0010
0000
0100
0000
,  // measure 9
1000
0010
0100
0010
0100
0000
0010
1000
0010
0000
0100
0001
0100
0000
0001
1000
,  // measure 10
0001
0000
0010
0000
0100
0000
1000
0010
1000
0000
0001
0100
0000
0000
0001
0010
,  // measure 11
0001
0000
0000
0000
1000
0100
0010
0100
1000
0000
0001
0100
0001
0000
0000
0010
,  // measure 12
0100
0010
0100
0000
1000
0000
0001
0100
0001
0000
1000
0010
0000
0000
0100
0001
,  // measure 13
0000
0010
0000
0010
0100
0000
0100
0000
1000
0001
0100
0001
1000
0000
0000
0100
,  // measure 14
0010
0100
0010
0000
0001
0000
1000
0000
1010
0000
0100
0001
0000
0000
0010
0100
,  // measure 15
1000
0100
1000
0000
0001
0000
0010
0100
0010
0000
0100
1000
0100
0000
0001
0000
,  // measure 16
0100
1000
0001
1000
0001
0000
0100
0010
0100
0000
0010
1000
0010
0000
0100
0000
,  // measure 17
0001
0000
0001
0000
0010
0100
0010
0100
1000
0000
0010
0000
0001
0000
0010
0000
,  // measure 18
1000
0000
1000
0000
0100
0010
0100
0010
0001
0000
0100
0000
1000
0000
0100
0000
,  // measure 19
0001
1000
0100
1000
0100
0000
0010
0000
0100
1000
0001
1000
0001
0000
0100
0000
,  // measure 20
0010
1000
0010
0100
0001
0100
0010
1000
0001
0000
0010
0000
0100
0000
1000
0000
,  // measure 21
0001
0000
0100
0000
1000
0000
0100
0000
0001
0000
0010
0000
0100
0000
0000
1000
,  // measure 22
0100
1000
0001
1000
0010
0100
0010
0000
1000
0000
0000
0001
0010
0000
0000
0000
,  // measure 23
0001
0100
0010
0100
0001
0010
1000
0010
,  // measure 24
0002
0000
0103
0010
2000
0000
3100
0010
,  // measure 25
0001
1000
0010
0100
0002
0000
0103
0010
,  // measure 26
1000
0100
0010
0001
0200
0000
0310
1000
,  // measure 27
0001
0000
0010
0001
1000
0000
0010
0100
,  // measure 28
0002
0000
1003
0100
0001
0100
1000
0001
,  // measure 29
0200
0000
0310
1000
0001
0010
0100
0010
,  // measure 30
0002
0000
0000
0000
0103
0000
1000
0000
0100
0001
0200
0000
0000
0000
0310
0000
,  // measure 31
1000
0001
2000
0000
0000
0000
3100
0000
0010
0001
0020
0000
0000
0000
0130
0000
,  // measure 32
1000
0001
2000
0000
0000
0000
3010
0000
0100
0001
0100
0000
0010
0000
1000
0100
,  // measure 33
1000
0000
0001
0000
0010
0000
0001
0000
1000
0000
0001
0100
0001
0000
1000
0000
,  // measure 34
0100
0000
0010
0000
0001
0000
0100
0010
0100
0000
0001
0000
0010
0000
0001
0000
,  // measure 35
1000
0000
0010
0100
0010
0000
1000
0001
1000
0000
0100
0000
0010
0000
0001
1000
,  // measure 36
0000
0000
0000
0010
0100
0010
0100
0001
1000
0000
0001
0000
0010
0000
0010
0100
,  // measure 37
0000
0000
0000
1000
0001
1000
0001
0100
0010
0000
1000
0010
1000
0000
0001
0010
,  // measure 38
0001
0000
1000
0000
0001
0100
0010
0100
0001
0000
1000
0100
1000
0000
0000
0010
,  // measure 39
0100
0010
0100
0001
1000
0000
0100
0010
0100
0000
1000
0001
1000
0000
0000
0000
,  // measure 40
0001
0100
0001
0000
0010
0000
0100
1000
0001
0000
0100
0001
1000
0000
0000
0000
,  // measure 41
0010
1000
0010
1000
0001
0010
0000
0010
0001
0000
1000
0100
1000
0000
0000
0001
,  // measure 42
0100
0010
1000
0010
1000
0000
0001
0010
0001
0000
1000
0100
1000
0000
0010
0000
,  // measure 43
1000
0100
0010
0100
1000
0001
1000
0010
1000
0000
0001
0010
0001
0000
0000
0000
,  // measure 44
1000
0010
1000
0000
0001
0010
0100
0000
0010
0000
0001
1000
0001
0000
0000
0000
,  // measure 45
0001
0100
1000
0100
0002
0000
0023
0000
,  // measure 46
0130
0000
1000
0000
0001
0000
0100
0000
0010
1000
0010
0000
0100
0000
0001
0000
,  // measure 47
1000
0100
0010
0001
1000
0100
0010
0001
,  // measure 48
2000
0000
0010
0000
3100
0010
0001
0100
,  // measure 49
0001
0010
0100
1000
0010
0100
0001
1000
,  // measure 50
0100
0010
0001
0010
0200
0000
2300
0000
,  // measure 51
3001
0100
0010
0100
0002
0000
0010
0000
,  // measure 52
1003
0100
0001
0100
1000
0010
0100
0010
,  // measure 53
2000
0000
3001
0010
0200
0000
0310
0001
,  // measure 54
1000
0010
0100
0001
0200
0000
0000
0000
,  // measure 55
0301
1000
0010
1000
0100
0010
0001
1000
,  // measure 56
0020
0000
0130
0000
0001
0010
1000
0010
,  // measure 57
0002
0000
0000
0000
0103
0010
0100
0000
0001
0100
0001
0000
1000
0100
1000
0000
,  // measure 58
0020
0000
0000
0000
1030
0001
1000
0000
0100
1000
0100
0000
0010
0100
0010
0000
,  // measure 59
0002
0000
0000
0000
1003
0010
1000
0000
0010
0100
0010
0000
0100
0001
0100
0000
,  // measure 60
2000
0000
3100
0001
0100
0010
1000
0100
,  // measure 61
0020
0000
0000
0000
0031
1000
0001
0100
0020
0000
0000
0000
1030
0000
0001
0100
,  // measure 62
0002
0000
0013
0100
1000
0100
0001
0100
,  // measure 63
2000
0000
0000
0000
3010
0000
0000
0000
0100
0000
0001
1000
0001
0000
0100
0000
,  // measure 64
0020
0000
1030
0000
0001
0010
0100
1000
,  // measure 65
0020
0000
0000
0000
0130
0000
0000
0000
0001
0000
1000
0100
1000
0000
0001
0000
,  // measure 66
0100
0010
1000
0100
0001
0100
1000
0010
,  // measure 67
1000
0001
0010
0001
0100
0010
1000
0010
,  // measure 68
0100
0001
0010
1000
0001
0100
1000
0010
,  // measure 69
1000
0000
0100
0000
0010
0001
0100
0001
1000
0000
0100
0000
0010
0000
0001
0000
,  // measure 70
2000
0000
3010
0100
2002
0000
0000
0000
,  // measure 71
3003
0000
0000
0000
;

//---------------dance-single - ----------------
#NOTES:
     dance-single:
     :
     Challenge:
     17:
     0.859110,0.766608,0.006544,0.052351,1.348026,919.000000,918.000000,1.000000,8.000000,0.000000,0.000000,0.859110,0.766608,0.006544,0.052351,1.348026,919.000000,918.000000,1.000000,8.000000,0.000000,0.000000:
0000
0000
0000
0000
,
0000
0000
0000
0000
,
0000
0000
0000
0000
,
0100
0000
0100
0000
,
0100
0000
0100
0000
,
0100
0010
0100
0010
,
0100
0000
1000
0000
0001
0000
1010
0010
,
1000
0100
0010
0100
0001
0100
0010
0100
1000
0001
0010
0001
1000
0010
0100
0010
,
1000
0100
0010
0100
0001
0100
0010
0100
1000
0001
0010
0001
0100
0010
1000
0100
,
1000
0001
0010
0001
1000
0001
0100
0001
1000
0010
0100
0010
0001
0010
0100
0001
,
1000
0010
0100
0001
0010
0001
0100
0010
1000
0100
0010
0100
0001
0100
0010
0001
,
1000
0010
0100
0010
1000
0001
0010
0001
1000
0100
0010
0100
1000
0001
0100
0010
,
0100
0001
1000
0001
0010
0001
1000
0001
0100
0010
1000
0010
0100
0001
1000
0010
,
1000
0100
0010
0100
0001
0100
0010
0100
1000
0001
0010
0001
1000
0010
0100
0010
,
1000
0100
0010
0100
0001
0100
0010
0100
1000
0001
0010
0001
0100
0010
1000
0100
,
1000
0001
0010
0001
1000
0001
0100
0001
1000
0010
0100
0010
0001
0010
0100
0001
,
1000
0010
0100
0001
0010
0001
0100
0010
1000
0100
0010
0100
0001
0100
0010
0001
,
1000
0010
0100
0010
1000
0001
0010
0001
1000
0100
0010
0100
1000
0001
0100
0010
,
0100
0001
1000
0001
0010
0001
1000
0001
0100
0010
1000
0010
0100
0001
1000
0100
,
0010
0001
0100
0001
1000
0001
0100
0001
0010
0100
1000
0100
0001
0100
1000
0100
,
0010
0001
1000
0010
0100
0010
1000
0001
0010
0100
1000
0100
0001
0100
1000
0100
,
0010
0001
0100
0010
1000
0001
0010
0100
1000
0001
0100
0010
1000
0001
0010
0100
,
1000
0100
0010
0001
1000
0010
0100
0001
0020
0000
0000
0000
0000
0000
0000
0000
,
0130
1000
0010
1000
0100
0010
0001
1000
,
0010
0000
0100
0000
0001
0000
0010
0100
0010
0000
0001
0000
0100
0000
0010
0000
,
1000
0000
0001
0000
0010
0100
1000
0100
0010
0100
0001
0100
0010
0100
1000
0100
,
0010
0000
0001
0000
0100
0010
1000
0010
0100
0010
0001
0010
0100
0010
1000
0010
,
0100
0000
0001
0000
1000
0100
1000
0001
1000
0010
1000
0001
1000
0100
1000
0001
,
0100
0000
0010
0000
1000
0000
0001
0010
0001
0000
0100
0000
0010
0000
1000
0000
,
0001
0010
0100
0010
0001
1000
0010
1000
0001
0100
0010
0100
0001
1000
0010
1000
,
0001
0010
0100
0010
0001
1000
0001
0100
0010
1000
0001
1000
0010
0100
0001
0010
,
0001
1000
0010
1000
0001
0100
0010
0100
0001
0010
0100
1000
0100
0010
0001
1000
,
0010
0100
0001
0100
0010
1000
0001
1000
0010
0100
0001
1000
0100
1000
0001
0100
,
0010
1000
0100
1000
0010
0100
0001
0100
0010
1000
0001
0010
0100
0010
0001
1000
,
0001
0100
0010
1000
0001
0010
0100
1000
0001
0100
0010
1000
0001
0010
0100
1000
,
0001
0100
0010
0100
1000
0100
0010
0100
0001
0010
0100
0010
1000
0010
0100
0010
,
0001
1000
0010
0100
0001
0010
0100
1000
0001
1000
0100
0010
0001
0100
0010
0100
,
0001
1000
0100
0010
0001
1000
0010
0100
0001
1000
0100
0010
0001
1000
0010
0100
,
0001
0100
0010
1000
0001
0010
0100
1000
0002
0000
0100
0000
0103
0000
0010
1000
,
0001
1000
0100
0010
0100
0000
1000
0010
1000
0000
0001
0010
0001
0000
0100
0000
,
0010
1000
0010
0000
0100
0000
0001
0010
0001
0000
1000
0010
1000
0000
0001
0000
,
0010
0100
1000
0100
1000
0000
0001
0100
0010
0000
1000
0001
1000
0000
0100
0010
,
0001
0010
0001
1000
0010
0000
0100
0001
1000
0000
0100
1000
0001
0000
0010
0000
,
0001
0100
0001
0100
0010
1000
0010
0100
0001
0000
1000
0100
0010
0000
0000
0000
,
0001
0100
0001
0000
0010
0100
1000
0000
0010
0000
1000
0100
0010
0000
0000
0000
,
0001
0100
0010
1000
0001
0010
0100
1000
0200
0000
0000
0000
0310
0000
0001
0100
,
0001
0000
1000
0001
0100
0010
1000
0001
,
0020
0000
0000
0000
0130
0000
0000
0000
1000
0000
0001
0100
0001
0000
1000
0000
,
0020
0000
0130
0000
0100
0001
0010
1000
,
0020
0000
0000
0000
0031
0000
0000
0000
0100
0000
0010
1000
0010
0000
0100
0000
,
0001
0010
0100
1000
0001
0100
0010
1000
0001
1000
0010
0100
0001
0010
0100
1000
,
0001
0010
0100
0010
0001
1000
0010
1000
0001
0100
0010
0100
0001
1000
0010
1000
,
0001
0010
0100
0010
0001
1000
0001
0100
0010
1000
0001
1000
0010
0100
0001
0010
,
0001
1000
0100
0010
0001
1000
0010
0100
0001
1000
0100
0010
0001
1000
0010
0100
,
0001
0010
0100
1000
0001
0100
0010
1000
0002
0000
0000
0000
0000
0000
0000
0000
,
1003
0100
0010
0100
0001
0100
0010
0001
1000
0001
0100
0001
1000
0001
0010
0001
,
0100
0010
1000
0010
0100
0001
1000
0001
0010
0100
1000
0001
0010
0001
1000
0100
,
1000
0001
0010
0001
1000
0010
0100
0010
0001
0010
0100
0010
1000
0001
0010
0100
,
1000
0010
1000
0010
1000
0100
0010
0100
0001
0100
0010
0100
1000
0100
0010
0001
,
1000
0010
1000
0010
0100
0001
1000
0001
0010
0001
1000
0001
0100
0001
1000
0100
,
0010
0001
0010
0001
1000
0100
0010
0100
1000
0010
0100
0001
0010
0100
1000
0001
,
0100
0010
0100
0010
1000
0100
0010
0001
1000
0010
0100
0010
1000
0001
0010
0100
,
0010
0001
1000
0001
0100
0001
1000
0100
0010
0100
0001
0100
0010
0100
1000
0100
,
0010
0001
1000
0001
0100
0010
1000
0010
0100
0001
1000
0100
1000
0001
0100
0010
,
1000
0100
0010
0100
1000
0001
0010
0001
1000
0100
0001
0100
0010
0100
1000
0100
,
0010
0001
1000
0001
0100
0010
1000
0010
0100
0001
1000
0100
1000
0001
0100
0010
,
1000
0100
0010
0001
1000
0010
0100
0001
1000
0100
0010
0001
0100
0010
1000
0001
,
1000
0100
0010
0100
1000
0001
0010
0001
0100
0010
1000
0010
0100
0001
1000
0001
,
0010
0100
1000
0100
0010
0001
1000
0001
0010
0100
1000
0001
0100
0010
1000
0001
,
1000
0100
0010
0001
1000
0010
0100
0001
1000
0100
0010
0001
1000
0010
0100
0001
,
0010
0001
0100
0010
1000
0100
0010
0001
0200
0000
0000
0000
0000
0000
0000
0000
,
0300
0000
0000
0000
;

//---------------dance-single - ----------------
#NOTES:
     dance-single:
     :
     Medium:
     9:
     0.407586,0.394919,0.013088,0.111245,0.000000,436.000000,434.000000,2.000000,17.000000,0.000000,0.000000,0.407586,0.394919,0.013088,0.111245,0.000000,436.000000,434.000000,2.000000,17.000000,0.000000,0.000000:
// measure 0
0000
0000
0000
0000
,  // measure 1
0000
0000
0000
0000
,  // measure 2
0000
0000
0000
0000
,  // measure 3
1000
0000
0001
0000
,  // measure 4
1000
0000
0001
0000
,  // measure 5
1000
0010
0001
0010
,  // measure 6
1000
0000
1000
0000
1000
0000
0001
0010
,  // measure 7
0001
0100
1000
0100
0001
0010
0100
0000
,  // measure 8
1000
0010
1000
0000
0100
0010
0001
0000
,  // measure 9
1000
0010
0001
0010
1000
0100
1000
0000
,  // measure 10
0001
0010
0100
0010
0001
0100
0001
0000
,  // measure 11
1000
0000
0001
0100
1000
0100
0001
0000
,  // measure 12
1000
0100
0010
0100
1000
0001
1000
0000
,  // measure 13
0001
0100
0010
0000
0001
0010
0100
0000
,  // measure 14
0001
0010
1000
0001
0100
1000
0001
0000
,  // measure 15
1000
0100
0010
0100
1000
0010
0100
0000
,  // measure 16
0001
0100
1000
0100
0010
1000
0001
0000
,  // measure 17
1000
0100
0001
0100
1000
0010
0001
0000
,  // measure 18
1000
0100
0001
0010
1000
0010
0001
0000
,  // measure 19
1000
0100
0010
0000
0100
1000
0001
0000
,  // measure 20
0100
0010
1000
0001
0010
0100
1000
0000
,  // measure 21
0001
0100
1000
0000
0100
0001
0010
0000
,  // measure 22
0100
1000
0001
1000
0010
0000
1001
0000
,  // measure 23
0001
0000
0010
0000
0100
1000
0100
0010
,  // measure 24
0001
0000
1000
0010
0100
0000
0001
0010
,  // measure 25
0001
0000
1000
0100
0001
0100
1000
0010
,  // measure 26
1000
0000
0001
0100
1000
0100
0001
0010
,  // measure 27
0001
0000
0010
0001
0100
0000
0010
1000
,  // measure 28
0100
0000
0010
0000
0100
1000
0001
1000
,  // measure 29
0010
0100
0001
0100
0010
1000
0001
0000
,  // measure 30
0010
0100
1000
0100
0010
0001
1000
0000
,  // measure 31
0010
0100
0001
0000
0010
0100
1000
0000
,  // measure 32
0010
1000
0001
0000
0010
0001
1000
0001
,  // measure 33
0100
0010
1000
0000
0100
0010
0001
0000
,  // measure 34
1000
0100
0001
0100
1000
0010
0010
0000
,  // measure 35
1000
0100
1000
0001
0010
0001
1000
0000
,  // measure 36
0001
0100
0001
1000
0010
1000
0001
0000
,  // measure 37
0010
0100
1000
0100
0010
0001
0100
0001
,  // measure 38
0020
0000
0130
1000
0001
0000
1010
0000
,  // measure 39
1000
0010
0001
0010
1000
0001
1000
0000
,  // measure 40
0001
0100
1000
0100
0001
0010
0001
0000
,  // measure 41
1000
0100
0010
0000
0100
1000
0001
0000
,  // measure 42
0001
0100
0010
0010
1000
0001
1000
0000
,  // measure 43
0100
0010
0001
1000
0010
1000
0001
0000
,  // measure 44
0010
0100
1000
0010
0100
0001
0100
0000
,  // measure 45
0001
0000
0010
0000
0100
1000
0100
0010
,  // measure 46
0001
0000
1000
0010
0100
0000
0001
0000
,  // measure 47
1000
0010
1000
0001
0010
0100
1000
0100
,  // measure 48
0010
0000
0001
0000
0100
0010
1000
0100
,  // measure 49
1000
0000
0001
0100
0001
0000
0010
1000
,  // measure 50
0200
0310
0002
0103
,  // measure 51
0010
1000
0001
0000
0010
0100
1000
0000
,  // measure 52
0100
0010
0001
0010
1000
0010
0001
0010
,  // measure 53
0200
0000
1300
0010
0200
0000
0301
0010
,  // measure 54
0001
0100
0010
1000
0200
0000
0000
0000
,  // measure 55
2300
0000
3001
0100
1000
0100
0001
0010
,  // measure 56
0002
0000
0013
0000
0100
1000
0010
1000
,  // measure 57
0002
0000
0103
1000
0100
0001
0100
0010
,  // measure 58
2000
0000
3100
0001
0100
1000
0100
0010
,  // measure 59
0002
0000
1003
0010
0001
0010
1000
0100
,  // measure 60
2000
0000
3001
0010
0100
1000
0100
0010
,  // measure 61
0002
0000
0103
0010
1000
0000
0001
0010
,  // measure 62
0001
0000
0100
0010
1000
0100
1000
0001
,  // measure 63
0020
0000
0130
0000
1000
0100
0001
0100
,  // measure 64
2000
0000
3010
0000
0100
0001
0010
0001
,  // measure 65
0200
0000
0310
0000
1000
0001
0010
0001
,  // measure 66
0100
0010
0100
0010
1000
0100
1000
0100
,  // measure 67
0010
0001
0100
0001
1000
0100
0001
0100
,  // measure 68
1000
0010
0100
0010
1000
0001
0010
0001
,  // measure 69
0100
0010
1000
0001
0100
0010
1000
0001
,  // measure 70
0010
0100
1000
0100
0002
0000
0000
0000
,  // measure 71
0003
0000
0000
0000
;

//---------------dance-single - ----------------
#NOTES:
     dance-single:
     :
     Easy:
     6:
     0.285123,0.325228,0.000000,0.287928,0.000000,305.000000,305.000000,0.000000,44.000000,0.000000,0.000000,0.285123,0.325228,0.000000,0.287928,0.000000,305.000000,305.000000,0.000000,44.000000,0.000000,0.000000:
// measure 0
0000
0000
0000
0000
,  // measure 1
0000
0000
0000
0000
,  // measure 2
0000
0000
0000
0000
,  // measure 3
1000
0000
1000
0000
,  // measure 4
0010
0000
0010
0000
,  // measure 5
0100
0001
0100
0010
,  // measure 6
1000
1000
1000
0001
,  // measure 7
0010
0000
0100
0000
1000
0100
1000
0000
,  // measure 8
0010
0000
0000
0000
0100
0001
0100
0000
,  // measure 9
0010
0000
1000
0000
0100
0010
0100
0000
,  // measure 10
1000
1000
0010
0010
,  // measure 11
0100
0000
0000
0000
0001
1000
0001
0000
,  // measure 12
0010
0010
0100
0100
,  // measure 13
1000
0000
0001
0000
0010
0100
0010
0000
,  // measure 14
0001
0000
0100
0000
0010
1000
0010
0000
,  // measure 15
0100
0100
0001
0001
,  // measure 16
1000
0100
1000
0000
0001
0010
0001
0000
,  // measure 17
0100
1000
0100
0001
,  // measure 18
1000
0000
0100
0000
0010
0001
0010
0000
,  // measure 19
0100
0000
1000
0000
0010
0100
0010
0000
,  // measure 20
1000
0000
0100
0000
0010
0001
0010
0000
,  // measure 21
1000
0010
0001
0100
,  // measure 22
0020
0000
1030
0001
,  // measure 23
2000
3100
0020
0031
,  // measure 24
0200
0000
0310
1000
0020
0000
0130
0000
,  // measure 25
0001
0000
1000
0100
1000
0000
0000
0000
,  // measure 26
0010
0000
0100
0001
0100
0000
0000
0000
,  // measure 27
0010
1000
0100
0001
,  // measure 28
0100
0010
0001
1000
,  // measure 29
0002
0103
0020
1030
,  // measure 30
0001
0000
0010
0100
0020
0000
0031
0000
,  // measure 31
2000
3010
0200
0310
,  // measure 32
0002
0013
0200
0310
,  // measure 33
2000
3001
0010
0100
,  // measure 34
1000
0000
0010
0000
0100
0010
0010
0000
,  // measure 35
1000
0000
0100
0000
0010
0001
0010
0000
,  // measure 36
0000
0000
0001
0000
1000
0010
1000
0000
,  // measure 37
0001
0100
1000
0100
,  // measure 38
0001
0000
0010
0000
0100
1000
0100
0000
,  // measure 39
0010
0000
0001
0000
1000
0010
1000
0000
,  // measure 40
0001
0010
0001
0000
0100
0000
0100
0000
,  // measure 41
0010
0000
1000
0000
0001
0010
0001
0000
,  // measure 42
0100
0000
0100
0000
0010
1000
0010
0000
,  // measure 43
0100
0001
1000
0001
,  // measure 44
0010
0000
0010
0000
0100
1000
0100
0000
,  // measure 45
2000
3010
0200
0301
,  // measure 46
0020
0000
0130
1000
0200
0000
0310
0000
,  // measure 47
0001
0100
1000
0100
,  // measure 48
0002
0010
1000
0103
,  // measure 49
0020
1030
0002
1003
,  // measure 50
0100
0020
0032
2003
,  // measure 51
3020
0130
0002
0103
,  // measure 52
0020
2030
3002
0023
,  // measure 53
0230
1300
0200
1300
,  // measure 54
0002
1000
0200
0303
,  // measure 55
0010
0000
1000
0000
0001
0010
0001
0100
,  // measure 56
0001
0000
0010
0000
0100
1000
0100
0010
,  // measure 57
0100
0000
1000
1000
0001
0001
1000
0000
,  // measure 58
0020
0000
1030
1000
0001
0001
1000
0000
,  // measure 59
0200
0000
1300
1000
0001
0001
1000
0000
,  // measure 60
0020
0000
0130
0001
1000
0000
0010
0000
,  // measure 61
0200
0000
0301
1000
0001
0000
0010
0000
,  // measure 62
0200
0000
1300
0000
0001
0010
0001
0100
,  // measure 63
0002
0000
1003
0000
0010
0100
0010
0000
,  // measure 64
2000
0000
3100
0000
0010
0001
0010
0000
,  // measure 65
0200
0000
1300
0000
0010
0100
0010
0000
,  // measure 66
1000
0100
0010
0001
,  // measure 67
0100
0001
0100
0000
0010
1000
0010
0000
,  // measure 68
1000
0100
1000
0000
0001
0010
0001
0000
,  // measure 69
0200
0000
0320
0000
,  // measure 70
1030
0000
0001
0010
0200
0000
0000
0000
,  // measure 71
0300
0000
0000
0000
;

//---------------dance-single - ----------------
#NOTES:
     dance-single:
     :
     Beginner:
     2:
     0.147703,0.185844,0.000000,0.026175,0.000000,158.000000,158.000000,0.000000,4.000000,0.000000,0.000000,0.147703,0.185844,0.000000,0.026175,0.000000,158.000000,158.000000,0.000000,4.000000,0.000000,0.000000:
// measure 0
0000
0000
0000
0000
,  // measure 1
0000
0000
0000
0000
,  // measure 2
0000
0000
0000
0000
,  // measure 3
1000
0000
1000
0000
,  // measure 4
1000
0000
1000
0000
,  // measure 5
1000
0001
1000
0001
,  // measure 6
1000
1000
1000
0000
,  // measure 7
0010
0000
0010
0000
,  // measure 8
0100
0000
0100
0000
,  // measure 9
0001
0001
0001
0000
,  // measure 10
1000
1000
1000
0000
,  // measure 11
0100
0000
0010
0000
,  // measure 12
0100
0000
0100
0000
,  // measure 13
1000
0000
0010
0000
,  // measure 14
1000
1000
1000
0000
,  // measure 15
0100
0000
0100
0000
,  // measure 16
0010
0000
0010
0000
,  // measure 17
0001
0001
0001
0000
,  // measure 18
0100
0100
0100
0000
,  // measure 19
0010
0000
1000
0000
,  // measure 20
0001
0000
1000
0000
,  // measure 21
1000
0000
0001
0000
,  // measure 22
0200
0000
0310
0000
,  // measure 23
1000
0000
0010
0010
,  // measure 24
1000
0000
0001
0000
,  // measure 25
0010
0000
0010
0000
,  // measure 26
0100
0000
0100
0000
,  // measure 27
0010
0000
0001
0000
,  // measure 28
1000
0000
0010
0010
,  // measure 29
1000
0000
0001
1000
,  // measure 30
0001
0000
0100
0000
,  // measure 31
0100
0000
0100
0000
,  // measure 32
0100
0000
0010
0000
,  // measure 33
1000
0000
1000
0000
,  // measure 34
0001
0001
0001
0000
,  // measure 35
1000
0000
0100
0000
,  // measure 36
0010
0000
0100
0000
,  // measure 37
1000
0000
0001
0000
,  // measure 38
1000
0000
1000
0000
,  // measure 39
0001
0001
0001
0000
,  // measure 40
0100
0000
0100
0000
,  // measure 41
0010
0010
0010
0000
,  // measure 42
0100
0000
0001
0000
,  // measure 43
1000
1000
1000
0000
,  // measure 44
0100
0100
0100
0000
,  // measure 45
1000
0000
0001
0000
,  // measure 46
0010
0000
0001
0000
,  // measure 47
0100
0000
0100
0000
,  // measure 48
0200
0000
0300
0000
,  // measure 49
0010
0000
0010
0000
,  // measure 50
1000
1000
0001
0000
,  // measure 51
0010
0000
0100
0000
,  // measure 52
1000
0001
1000
0000
,  // measure 53
0010
0000
0100
0000
,  // measure 54
0002
0000
0003
0000
,  // measure 55
1000
0000
0010
0010
,  // measure 56
1000
0000
0001
0001
,  // measure 57
1000
0000
0100
0000
,  // measure 58
0010
0000
0001
0000
,  // measure 59
1000
0000
0001
0000
,  // measure 60
0010
0000
0100
0000
,  // measure 61
1000
0000
0010
0010
,  // measure 62
1000
0000
0001
0001
,  // measure 63
0010
0000
0100
0000
,  // measure 64
1000
0000
0001
0000
,  // measure 65
0100
0000
0010
0000
,  // measure 66
1000
0000
0001
0000
,  // measure 67
1000
1000
0100
0000
,  // measure 68
0001
0001
0100
0000
,  // measure 69
1000
0000
0010
0000
,  // measure 70
0001
0000
0200
0000
,  // measure 71
0300
0000
0000
0000
;
