#TITLE:Inferno of Fomalhaut;
#SUBTITLE:;
#ARTIST:fallen shepherd ft. ricono;
#TITLETRANSLIT:;
#SUBTITLETRANSLIT:;
#ARTISTTRANSLIT:;
#GENRE:;
#CREDIT:;
#BANNER:Inferno of Fomalhaut.png;
#BACKGROUND:Inferno of Fomalhaut-bg.png;
#LYRICSPATH:;
#CDTITLE:;
#MUSIC:Inferno of Fomalhaut.ogg;
#OFFSET:0.874298;
#SAMPLESTART:96.720001;
#SAMPLELENGTH:12.000000;
#SELECTABLE:YES;
#BPMS:0.000000=150.000000
;
#STOPS:
;
#BGCHANGES:3.875=Inferno of Fomalhaut.mp4=1.000=1=0=1===CrossFade==,
301.000=Inferno of Fomalhaut-bg.png=1.000=1=0=1===CrossFade==,
99999=-nosongbg-=1.000=0=0=0 // don't automatically add -songbackground-
;
#KEYSOUNDS:;
#ATTACKS:;

//---------------dance-single - ----------------
#NOTES:
     dance-single:
     sessu:
     Hard:
     19:
     1.183446,1.522207,0.278871,0.410105,2.153051,1010.000000,976.000000,34.000000,50.000000,0.000000,0.000000,1.183446,1.522207,0.278871,0.410105,2.153051,1010.000000,976.000000,34.000000,50.000000,0.000000,0.000000:
0000
0000
0000
0000
,
0000
0000
0000
0000
,
0000
0000
0000
0000
,
1000
0000
0000
0100
0000
0000
0010
0000
0000
0001
0000
0000
0000
0000
0000
0000
0000
0000
0100
0000
0000
0010
0000
0000
1000
0000
0000
0000
0000
0000
0001
0000
0000
0000
0000
0000
1000
0000
0100
0000
0010
0000
0001
0000
0000
0000
0000
0000
,
0001
0000
0010
0000
0100
0000
1000
0000
0000
0000
0000
0000
1000
0000
0100
0000
0010
0000
0001
0000
0000
0000
0000
0000
2000
0000
0000
0000
0000
0000
3001
0000
0000
0010
0000
0000
0100
0000
0000
1000
0000
0000
0001
0000
0000
0100
0000
0000
,
0010
0000
0000
0000
1000
0000
0000
0000
0001
0000
0000
0000
0020
0000
0000
0000
0000
0000
0130
0000
0000
1000
0000
0000
0100
0000
0000
0000
0000
0000
0010
0000
0000
0000
0000
0000
0001
0000
0010
0000
0100
0000
1000
0000
0000
0000
0000
0000
,
1000
0000
0100
0000
0010
0000
0001
0000
0000
0000
0000
0000
0001
0000
0010
0000
0100
0000
1000
0000
0000
0000
0000
0000
0002
0000
0000
0000
0000
0000
1003
0000
0000
0010
0000
0000
0100
0000
0000
0001
0000
0000
0010
0000
0000
0100
0000
0000
,
1000
0100
1000
0100
1000
0100
1000
0100
1000
0100
1000
0100
0020
0000
0000
0030
0000
0000
0001
0100
0001
0100
0001
0100
,
0001
0000
0100
0000
0001
0000
0100
0000
0001
0000
0100
0000
0020
0000
0000
0000
0000
0000
0030
0000
0000
0000
0000
0000
1000
0000
0000
0001
0000
0000
1000
0000
0000
0100
0000
0000
0010
0000
0000
0001
0000
0000
0100
0000
0000
0010
0000
0000
,
1000
0001
1000
0001
1000
0001
1000
0001
1000
0001
1000
0001
0010
0000
0100
0000
1000
0000
0001
0100
0001
0100
0001
0100
,
0001
0000
0100
0000
0001
0000
0100
0000
0001
0000
0100
0000
0010
0000
0000
0000
0000
0000
0010
0000
0000
0000
0000
0000
1000
0000
0000
0100
0000
0000
0010
0000
0000
0001
0000
0000
1000
0000
0001
0000
1000
0000
0001
0000
1000
0000
0001
0000
,
0020
0000
0000
0001
0000
0000
0130
0000
1002
0000
0000
0010
0000
0000
1003
0010
,
0200
0000
0000
0001
0000
0000
0310
0000
2001
0000
0000
0010
0000
0000
3100
0000
,
0102
0000
0000
0010
0000
0000
1003
0000
1200
0000
0000
0010
0000
0000
1300
0000
,
1020
0000
0000
0001
0000
0000
1030
0000
2100
0000
0000
3100
0010
0100
1000
0000
,
0001
0010
0100
1000
0001
0010
0100
1000
0001
0100
0010
1000
0001
0100
0010
1000
,
0001
0010
0100
1000
0001
0010
0100
1000
0001
0100
0010
1000
0001
0100
0010
1000
,
0001
0010
0100
1000
0010
1000
0001
0100
0010
1000
0100
1000
0001
0010
1000
0010
,
0100
1000
0001
0100
1000
0100
0010
1000
0001
0100
0010
1000
0100
0010
0001
0100
,
0010
1000
0000
1000
0100
0000
0100
0010
0000
0010
0001
0000
1000
0000
0000
0000
,
1000
0000
0000
0100
0000
0000
0010
0000
0000
0001
0000
0000
0000
0000
0000
0000
0000
0000
0001
0000
0100
0000
0010
0000
1000
0000
0000
0000
0000
0000
0100
0000
0000
0000
0000
0000
0022
0000
0000
0000
0000
0000
0033
0000
0000
0000
0000
0000
,
2002
0000
0000
0003
0200
3000
0002
0300
,
0020
0000
0003
0000
2000
0000
0030
0000
3001
0000
0100
0010
2000
0000
3001
0100
,
1000
0100
0001
0010
0200
0000
1300
0100
0001
0100
1000
0010
0200
0000
0301
0100
,
1000
0000
0000
0100
0000
0000
0001
0000
0000
0010
0000
0000
0100
0000
1000
0000
0100
0000
1000
0000
0100
0000
1000
0000
0020
0000
0000
0000
0000
0000
0230
0000
0000
0000
0000
0000
0301
0000
0000
0000
0000
0000
0000
0000
0000
0001
0000
0000
,
0101
0000
0000
0000
0000
0000
1100
0000
0000
0000
0000
0000
0101
0000
0000
0000
0000
0000
0100
0000
0000
0001
0000
0000
1000
0000
0000
0000
0000
0000
0100
0000
1000
0000
0100
0000
1000
0000
0100
0000
0010
0000
0001
0000
0010
0000
0100
0000
,
1000
0000
0000
0100
1000
0100
1000
0100
0010
0001
0010
0100
1000
0000
0000
0100
1000
0100
1000
0100
0010
0001
0010
0100
,
1000
0000
0000
0000
0000
0000
0001
0000
0000
0000
0000
0000
1000
0000
0010
0000
0100
0000
0001
0000
0100
0000
0010
0000
1000
0000
0000
0000
0000
0000
0000
0000
0000
0011
0000
0000
0000
0000
0000
0000
0000
0000
1010
0000
0000
0000
0000
0000
,
1000
0100
0010
0001
0000
0100
0010
0000
1000
0100
0010
0001
0000
0100
0010
0000
,
2000
0000
0001
0000
0001
0000
3100
0000
0000
0010
0000
0000
1001
0000
0000
0000
0000
0000
0001
0100
0001
0100
0000
0000
,
1000
0000
0100
0000
1000
0000
0100
0000
0000
0000
0000
0000
0001
0000
0100
0000
0001
0000
0100
0000
0000
0000
0000
0000
1010
0000
0000
0000
0000
0000
0000
0000
0000
0000
0000
0000
0002
0000
0000
0000
0000
0000
1003
0000
0000
0100
0000
0000
,
0010
0000
0001
0000
0010
0000
0001
0000
0010
0000
0001
0000
1000
0000
0010
0000
1000
0000
0010
0000
1000
0000
0010
0000
0100
0000
0000
0001
0000
0000
1000
0000
0000
0001
0000
0000
0010
0000
0100
0000
0010
0000
0100
0000
0010
0000
0100
0000
,
1000
0000
0001
0000
1000
0000
0001
0000
1000
0000
0001
0000
0100
0000
0000
0010
0000
0000
1000
0000
0000
0001
0000
0000
0020
0000
0000
0000
0000
0000
0030
0000
0000
0000
0000
0000
0200
0000
0000
0000
0000
0000
0300
0000
0000
1000
0000
0000
,
0001
0010
1000
0001
0100
1000
0001
1000
0000
1100
0000
0010
,
0001
0100
0000
0101
0000
0010
2000
3100
0000
1100
0000
0000
,
1000
0000
0000
0100
0000
0000
0010
0000
0000
0001
0000
0000
0000
0000
0000
1000
0000
0000
0010
0000
0000
1000
0000
0000
0001
0000
0000
0010
0000
0000
0100
0000
0000
1000
0000
0000
0001
0000
0000
0100
0000
0000
0010
0000
1000
0000
0001
0000
,
1000
0100
0010
0001
0010
0100
1000
0100
0010
0001
0010
0100
1000
0100
0010
0001
0010
0100
1000
0100
0010
0001
0010
0100
,
1000
0100
0010
0001
0100
0010
1000
0100
0001
1000
0010
0001
,
1000
0010
1000
0010
0100
0001
1000
0001
0010
0100
1000
0100
0010
0001
1000
0010
,
1000
0100
0010
0001
0100
0001
1000
0010
0100
0001
0010
0001
,
1000
0100
0010
0001
1000
0100
1000
0010
0100
0001
1000
0010
,
1000
0100
0001
1000
0010
0001
1000
0010
0001
1000
0100
0001
,
1000
0010
0100
0001
0010
0100
1000
0010
0100
0001
0010
0100
1000
0010
0100
0001
,
2000
0000
0000
0000
0000
0000
3100
0010
0100
1000
0001
1000
0010
0100
0001
1000
,
0001
0010
0001
1000
0100
1000
0001
0100
0001
1000
0010
1000
0001
0010
0100
1000
0100
0010
0001
0010
0100
1000
0100
0010
,
0001
0100
0010
0100
0010
0100
0001
0100
0010
0100
0010
0100
0001
0100
0010
0100
0010
0100
0001
0100
0010
0100
0010
0100
,
0002
0000
0000
0000
0000
0000
1003
0100
0010
0100
0010
0100
1000
0001
0010
0100
1000
0010
0100
0001
0010
0100
1000
0010
,
0100
0001
0100
0001
0100
0001
0100
0001
0100
0001
0100
0001
2000
0000
0000
0000
0000
0000
3100
0010
0100
0010
0100
0010
,
0100
0000
0010
0000
0100
0000
0010
0000
0100
0000
0010
0000
0001
0000
0000
0000
0000
0000
0001
0000
0000
0000
0000
0000
1000
0000
0000
0100
0000
0000
0010
0000
0000
0001
0000
0000
0100
0000
0010
0000
0100
0000
0010
0000
0100
0000
0010
0000
,
1000
0001
0000
0001
0100
0001
0010
0001
1000
0001
0000
0001
0100
0001
0010
0001
,
1000
0100
0000
0100
0001
0100
0010
0100
1000
0100
0000
0100
0001
0100
0010
0100
,
1000
0010
0100
0001
0010
0001
0100
0010
1000
0100
0000
0100
0001
0100
0000
0100
,
1000
0010
0100
0001
0010
0001
0100
1000
0100
0001
0010
0100
1000
0010
0100
0001
,
2000
0000
0000
3200
0000
0000
0320
0000
,
0000
0000
0002
0033
,
0002
0000
0000
0203
0000
0000
0320
0000
,
0000
0000
1030
1000
,
2002
3003
1010
0101
,
0011
0000
0000
0000
1100
0000
0000
0000
1001
0000
1000
0100
0020
0000
0031
1000
,
0010
1000
0001
0100
0020
0000
1030
0001
0010
0001
1000
0100
0020
0000
0031
1000
,
0010
0100
0001
0010
0100
1000
0010
0100
0010
0100
0010
0100
0001
0000
0000
1000
0000
0000
1001
0000
0000
0000
0000
0000
,
1000
0100
0010
0001
0010
0100
1000
0100
0010
0001
0010
0100
1000
0010
0100
0001
0100
0010
1000
0010
0100
0001
0100
0010
,
1000
0100
0010
0001
0010
0100
1000
0100
0010
0001
0010
0100
1000
0010
0100
0001
0100
0010
1000
0010
0100
0001
0100
0010
,
1000
0100
0010
0001
0100
0010
1000
0100
0010
0001
0100
0010
1000
0010
0100
0001
0010
0100
1000
0010
0100
0001
0010
0100
,
1000
0000
0100
0000
0010
0000
0001
0000
0100
0000
0010
0000
1000
0000
0100
0000
0010
0000
0001
0000
0100
0000
0010
0000
1000
0000
0000
0100
0000
0000
1000
0000
0000
0010
0000
0000
0100
0000
0000
0001
0000
0000
0000
0000
0000
1001
0000
0000
,
0000
0000
1000
0100
0010
0000
0001
0100
0001
0000
1000
0000
0010
0100
0000
0101
,
0000
0000
0010
1000
0001
0000
0010
0100
1000
0000
0100
0000
0010
0001
0000
0101
,
0000
0000
1000
0001
1000
0000
0001
0100
0001
0000
1000
0100
0010
0001
0000
1100
,
0000
0001
0100
0001
0010
0000
0100
0000
1001
0000
0110
0000
1000
0001
0000
0011
,
0000
0100
1000
0010
0100
0001
0010
0100
1000
0010
0100
0001
0010
0100
0000
1001
,
0000
0100
0010
0001
0100
0010
1000
0100
0010
0001
0100
0010
2000
0000
3000
0000
,
0001
0100
0010
0100
0010
0100
0001
1000
0100
1000
0100
1000
0001
0010
0100
0010
0100
0010
0001
1000
0010
1000
0010
1000
,
0001
0000
0100
0000
0001
0000
0100
0000
0001
0000
0100
0000
0010
0000
1000
0000
0010
0000
1000
0000
0010
0000
1000
0000
0001
0000
0000
0010
0000
0000
0100
0000
0000
1000
0000
0000
0010
0000
0000
0100
0000
0000
0000
0000
0000
0220
0000
0000
,
0000
0000
0000
0000
0000
0000
0000
0000
0000
0000
0330
0000
0010
1000
0100
0001
,
0100
1000
0001
0100
1000
0010
1000
0100
0010
1000
0100
0001
1000
0010
0001
0100
,
0010
1000
0001
0010
0200
0000
0000
0000
0000
0000
0000
0000
0300
0000
0000
0000
;

//---------------dance-single - ----------------
#NOTES:
     dance-single:
     sessu:
     Medium:
     16:
     0.972535,1.025160,0.262467,0.377297,1.599409,830.000000,798.000000,32.000000,46.000000,0.000000,0.000000,0.972535,1.025160,0.262467,0.377297,1.599409,830.000000,798.000000,32.000000,46.000000,0.000000,0.000000:
0000
0000
0000
0000
,
0000
0000
0000
0000
,
0000
0000
0000
0000
,
1000
0100
0010
0001
0000
0000
0100
0010
1000
0000
0001
0000
1000
0100
1000
0000
,
0001
0100
0001
0000
1000
0100
1000
0000
0010
0100
0001
0100
0010
1000
0100
0010
,
0001
0000
0000
0000
0010
0000
0000
0000
0100
0000
0000
0000
2000
0000
0000
0000
0000
0000
3001
0000
0000
0100
0000
0000
0010
0000
0000
0000
0000
0000
0100
0000
0000
0000
0000
0000
0001
0000
0000
0100
0000
0000
0001
0000
0000
0000
0000
0000
,
1000
0100
1000
0000
0001
0100
0001
0000
0010
0100
0010
0100
1000
0001
1000
0000
,
0001
0100
1000
0100
0010
1000
0002
0000
0000
1003
0100
0001
,
0100
0000
0000
0000
0010
0000
0000
0000
0001
0000
0000
0000
2000
0000
0000
0000
0000
0000
0000
0000
0000
0000
0000
0000
3001
0000
0000
0010
0000
0000
0001
0000
0000
0010
0000
0000
0100
0000
0000
1000
0000
0000
0100
0000
0000
1000
0000
0000
,
0001
0100
1000
0100
0010
1000
0002
0023
0230
1300
0100
0001
,
0100
0000
0000
0000
0010
0000
0000
0000
0001
0000
0000
0000
1000
0000
0000
0000
0000
0000
1000
0000
0000
0000
0000
0000
0010
0000
0000
0100
0000
0000
0010
0000
0000
0100
0000
0000
0001
0000
0000
0010
0000
0000
0100
0000
0000
1000
0000
0000
,
0002
0000
0000
0010
0000
0000
1003
0000
2100
0000
0000
0010
0000
0000
3001
0100
,
0002
0000
0000
0010
0000
0000
1003
0000
2100
0000
0000
0010
0000
0000
3001
0000
,
0201
0000
0000
1000
0000
0000
0310
0000
0120
0000
0000
0001
0000
0000
0130
0000
,
0102
0000
0000
0010
0000
0000
1003
0000
2100
0000
0000
3001
0010
0100
1000
0000
,
0001
0100
0010
1000
0001
0100
0001
0000
1000
0100
0010
0001
1000
0100
1000
0000
,
0001
0010
0100
1000
0001
0010
0001
0000
1000
0010
0100
0001
1000
0010
1000
0000
,
0001
0010
0100
1000
0100
0010
0001
1000
0010
0100
0010
1000
0001
0010
0100
1000
,
0100
0010
0001
1000
0010
0100
0010
1000
0001
0010
0100
1000
0100
0010
0001
1000
,
0010
0100
0000
0010
0100
0000
0001
1000
0000
0001
1000
0000
0001
0000
0000
0000
,
0010
0100
1000
0001
0000
0000
0100
0010
0100
0000
0001
0000
2000
0000
3000
0000
,
1200
0000
0001
0001
,
0010
0000
0000
0000
0010
0000
0000
0000
1300
0000
0100
0010
0002
0000
1003
0100
,
0010
0100
1000
0001
0020
0000
0130
1000
0100
0010
0001
1000
0002
0000
0013
0100
,
1000
0100
0010
0001
1000
0010
0100
0001
2000
0000
3010
0000
0000
0000
0000
0100
,
0001
0010
0100
1000
0000
0000
0021
0000
0000
0130
0000
0000
,
1020
0130
0021
0130
,
1000
0000
0000
0000
0100
0000
0000
0000
0010
0000
0000
0000
0001
0000
0000
0000
0100
0000
0000
0000
0010
0000
0000
0000
1000
0000
0000
0000
0000
0000
0000
0000
0000
0011
0000
0000
0000
0000
0000
0000
0000
0000
1010
0000
0000
0000
0000
0000
,
0001
0100
0010
1000
0000
0001
0010
0000
0100
1000
0100
0010
0000
0001
1000
0010
,
0100
0000
0000
0000
0001
0000
0000
0000
0100
0000
0000
0000
0000
0000
0000
0000
0000
0000
0000
0000
0000
0000
0000
0000
2100
0000
0000
0000
0000
0000
0000
0000
0000
0000
0000
0000
3001
0000
0000
0100
0000
0000
1000
0000
0000
0000
0000
0000
,
1000
0100
0001
0000
1000
0100
1000
0001
0020
0000
0000
0000
0130
0000
1000
0001
,
1000
0100
1000
0100
0010
0001
0010
0001
1000
0010
0100
0001
0010
0100
0010
0100
,
1000
0000
0000
0010
0000
0000
0100
0000
0000
0001
0000
0000
0010
0000
0000
0100
0000
0000
1000
0000
0000
0001
0000
0000
2000
0000
0000
0000
0000
0000
0000
0000
0000
0000
0000
0000
3010
0000
0000
0000
0000
0000
0000
0000
0100
0000
0000
0000
,
0001
0010
0100
1000
0100
0010
0001
0100
0000
0101
0000
0100
,
0010
1000
0000
1010
0000
0010
2000
3100
0000
1100
0000
0100
,
1000
0100
0010
0001
0000
1000
0100
0010
0001
0010
0100
1000
0001
0100
1000
0100
,
0010
1000
0010
1000
0010
0100
0010
0100
0001
1000
0001
1000
0001
0010
0001
0010
,
0100
1000
0100
0010
0001
1000
0010
0100
1000
0100
0010
1000
,
0001
0010
0100
1000
0001
0100
0010
1000
0001
0010
0100
1000
0001
0100
0010
1000
,
0001
0010
0100
1000
0001
0010
0001
0100
0010
1000
0001
0010
,
0001
0100
0010
1000
0100
0010
0001
0010
0100
1000
0010
0100
,
0001
1000
0010
1000
0100
1000
0001
0010
0100
0010
1000
0010
,
0001
0100
0010
1000
0100
0010
0001
0100
0010
1000
0100
0010
0001
0100
0001
1000
,
0200
0000
0000
0000
0000
0000
0310
0001
1000
0010
0100
0001
1000
0100
0010
0001
,
1000
0100
1000
0000
0001
0000
0010
0100
0010
0000
0001
0000
1000
0010
1000
0000
0001
0000
0100
0010
0100
0000
0001
0000
,
1000
0010
0100
0001
0010
0100
1000
0010
0100
0001
0010
0100
,
2000
0000
0000
3001
0100
0001
0020
0000
0000
0230
0000
0000
,
1300
0001
1000
0000
0100
0000
0010
0000
0100
0000
1000
0000
0020
0000
0000
0000
0000
0000
1030
0001
1000
0000
0100
0000
,
0010
0000
0000
0000
0100
0000
0000
0000
1000
0000
0000
0000
0010
0000
0000
0000
0000
0000
0010
0000
0000
0000
0000
0000
0100
0000
0000
0001
0000
0000
0100
0000
0000
0001
0000
0000
1000
0000
0000
0100
0000
0000
0010
0000
0000
0001
0000
0000
,
1000
0010
0000
0010
0100
0001
0100
0001
1000
0010
0000
0010
0100
0001
0100
0001
,
1000
0100
0000
0100
0010
0001
0010
0001
1000
0100
0000
0100
0010
0001
0010
0001
,
1000
0010
0100
0001
1000
0010
0100
0001
1000
0010
0000
0100
0001
0100
0000
0010
,
1000
0001
1000
0001
0010
0100
1000
0100
0010
0001
0010
0001
1000
0010
0100
0001
,
2000
0000
0000
3200
0000
0000
0320
0000
,
0000
0000
0002
0033
,
0002
0000
0000
0203
0000
0000
0320
0000
,
0000
0000
1030
1000
,
2002
3003
1010
1010
,
0101
0000
0000
0000
1100
0000
0000
0000
0011
0000
0001
1000
0002
0000
0103
0010
,
1000
0010
0100
0001
0200
0000
0301
1000
0001
0010
0100
1000
0200
0000
1300
0001
,
1000
0000
0010
0000
0100
0000
0001
0000
0100
0000
0010
0000
1000
0000
0000
1010
0000
0000
0101
0000
0000
0000
0000
0000
,
0001
1000
0010
1000
0001
0100
0010
1000
0001
0100
0010
0100
0001
1000
0010
0100
,
0001
0010
0100
0010
0001
1000
0100
0010
0001
1000
0100
1000
0001
0010
0100
1000
,
0001
0010
0100
1000
0100
0010
0001
0100
0010
1000
0010
0100
0001
0010
0100
1000
,
0100
0010
0001
0100
0010
1000
0010
0100
0001
1000
0001
0010
0100
1000
0000
1001
,
0000
0000
1000
0100
0010
0000
0001
1000
0001
0000
0100
0000
0010
1000
0000
1010
,
0000
0010
1000
0001
0010
0000
0100
1000
0100
0000
0010
0000
0001
0100
0000
0101
,
0000
0001
0100
0010
1000
0000
0001
0010
0001
0000
1000
0000
0010
0100
0000
0101
,
0000
0100
0001
0010
0001
0000
1000
0000
0001
0010
0100
1000
0001
0100
0000
0010
,
0000
1000
0001
0010
0001
1000
0010
1000
0001
0010
0001
1000
0010
0100
0000
0101
,
0000
0001
1000
0010
1000
0001
0010
0001
1000
0010
1000
0001
1000
0000
0000
0000
,
0011
0001
0100
1000
0100
0001
0011
0100
1000
0010
1000
0100
,
0110
0000
0000
0000
0010
0000
0000
0000
0001
0000
0000
0000
0100
0000
0000
0000
0010
0000
0000
0000
1000
0000
0000
0000
0001
0000
0000
0010
0000
0000
0100
0000
0000
1000
0000
0000
0001
0000
0000
0100
0000
0000
1000
0000
0000
0200
0000
0000
,
0000
0000
0000
0000
0000
0000
0000
0000
0000
0000
0000
0000
0301
1000
0100
0010
,
0100
1000
0001
1000
0100
0010
0100
1000
0010
1000
0100
0001
0100
1000
0010
1000
,
0100
0001
0100
1000
0002
0000
0000
0000
0000
0000
0000
0000
0003
0000
0000
0000
;

//---------------dance-single - ----------------
#NOTES:
     dance-single:
     sessu:
     Easy:
     11:
     0.589379,0.745571,0.360892,0.303478,0.364993,503.000000,459.000000,44.000000,37.000000,0.000000,0.000000,0.589379,0.745571,0.360892,0.303478,0.364993,503.000000,459.000000,44.000000,37.000000,0.000000,0.000000:
0000
0000
0000
0000
,
0000
0000
0000
0000
,
0000
0000
0000
0000
,
1000
0100
0000
1000
0010
0100
0001
0000
,
1100
0000
0101
0000
0010
1000
0100
0010
,
0001
0000
0100
0000
0001
0000
0010
0000
0000
0000
0000
0000
0100
0000
0000
1000
0000
0000
1100
0000
0000
0000
0000
0000
,
0101
0000
1100
0000
0010
0001
0100
0010
,
1000
0001
1000
0001
1000
0001
0020
0000
0000
0130
1000
0100
,
1000
0000
0100
0000
1000
0000
0020
0000
0000
0000
0000
0000
0130
0000
0000
0001
0000
0000
1000
0000
0000
0001
0000
0000
,
0010
0100
0010
0100
0010
0100
2000
0000
0000
3010
0100
0010
,
0100
0000
0010
0000
0100
0000
0002
0000
0000
0000
0000
0000
1003
0000
0000
0100
0000
0000
0010
0000
0000
0001
0000
0000
,
0200
0000
0310
1000
0002
0000
0013
0100
,
1000
0000
0000
0001
0000
0000
1000
0000
0020
0000
0000
0000
0130
0000
0001
0000
,
1000
0000
0000
0100
0000
0000
0010
0000
0001
0000
0000
0100
0000
0000
1000
0000
,
0200
0000
0001
0000
0320
0000
1030
0001
,
1000
0100
0010
0001
1000
0010
0100
0001
,
1000
0100
0010
0001
1000
0010
0100
0001
,
0010
0100
1000
0001
0010
0100
0010
0001
,
1000
0100
0010
0100
1000
0001
1000
0010
,
0200
0000
0000
0000
,
0301
1000
0000
0100
0010
0001
1000
0000
,
0201
0000
1000
0010
,
0001
0000
1000
0000
0301
0010
0100
0010
,
0001
0100
0010
0100
0001
0010
0100
1000
,
0010
0100
0010
0100
0002
0010
0000
0000
,
1003
0100
1000
0000
0011
0000
0100
0000
,
1001
0100
1010
0100
,
0001
0000
0010
0000
0100
0000
1000
0000
0001
0000
0000
0100
0000
0000
0001
0000
,
1000
0000
0000
1010
0000
0000
1000
0000
0001
0000
0000
0011
0000
0000
0001
0000
,
1000
0010
1000
0000
0000
0000
0001
0000
0000
1010
0000
0000
,
0101
0000
1100
0000
0011
0000
0010
0100
,
2000
0000
3001
0010
0001
0100
1000
0100
,
0001
0010
0100
1000
0010
0000
1001
0000
,
0020
0000
0000
0130
0000
0000
0001
0100
0000
0100
0000
0010
,
1000
0100
0000
0100
0000
0100
0010
0000
0000
0002
0000
0000
,
1003
0000
0000
1010
0000
0000
0001
0000
1000
0100
1000
0000
0010
0000
0100
0000
,
0001
0010
1000
0010
0001
0010
0100
1000
,
0020
1000
1000
0230
,
0302
0010
0010
1003
,
0001
0000
0010
0000
0100
0000
0001
0000
0010
0000
0100
0000
,
1000
0000
0100
0000
0010
0000
1000
0000
0100
0000
0010
0000
,
0001
0000
0010
0000
1000
0000
0001
0000
0100
0000
1000
0000
,
0010
0100
0001
0010
0100
1000
0010
0100
,
0002
0000
0000
1003
0100
0010
0001
0100
,
0110
1010
1100
0101
,
0001
0010
0001
1000
0010
1000
0001
0100
0001
1000
0100
1000
,
0020
0000
0000
0130
0001
0100
0020
0000
0000
1030
0000
0000
,
0001
0010
0100
1000
0100
0010
0002
0000
0000
1003
0100
0010
,
0001
0000
0010
0000
0100
0000
2000
0000
0000
0000
0000
0000
3001
0000
0000
0100
0000
0000
0010
0000
0000
1000
0000
0000
,
0100
0010
0001
0010
0100
1000
0010
1000
,
0100
0010
0001
0010
0100
1000
0010
1000
,
0100
0100
0100
0010
0001
1000
0010
1000
,
0001
0001
0100
0010
1000
1000
0010
0100
,
0002
0000
0000
0023
0000
0000
0230
0000
,
0000
0000
0000
0000
2300
0000
0000
3000
,
0002
0000
0000
0023
0000
0000
0230
0000
,
0000
0000
1300
0001
,
2002
3003
0010
0100
,
0010
0000
0100
0000
1001
0001
0010
0001
,
1000
0100
0010
0100
1000
0001
0010
0001
,
1000
0100
0010
0001
0100
0020
0130
0000
,
1010
0101
0011
1100
,
1000
0010
0100
0001
0010
0100
1000
0001
,
0100
1000
0100
0010
0100
0001
0100
0010
,
1000
0000
0100
0000
0001
0000
0100
0000
1000
0000
0010
0000
1000
0000
0000
0101
,
0000
0000
0000
0000
0000
0000
0001
0000
0100
0000
0001
0000
1000
0000
0000
1100
,
0000
0000
0000
0000
0000
0000
0010
0000
0001
0000
0100
0000
0010
0000
0000
0101
,
0000
0000
0100
0000
0010
0000
0000
0000
1000
0000
0100
0000
0010
0000
0000
0011
,
0000
0000
0000
1010
0000
0000
1000
0000
0100
0000
0010
0000
0001
0000
0000
1001
,
0000
0000
0100
0000
0010
0000
0001
0000
0100
0000
0010
0000
1000
0000
0000
1010
,
0000
0100
0010
1000
0100
0010
0001
0000
,
1000
0100
1000
0001
0010
0001
1000
0010
1000
0001
0100
0001
,
0010
0000
0000
0000
0100
0000
0000
0000
1000
0000
0000
0000
0010
0000
0000
0000
0100
0000
0000
0000
0001
0000
0000
0000
0010
0000
0000
0100
0000
0000
0000
0000
0000
1000
0000
0000
0000
0000
0000
0001
0000
0000
0000
0000
0000
2002
0000
0000
,
0000
0000
0000
0000
0000
0000
0000
0000
0000
3003
0000
0000
1010
0000
0000
0101
,
0000
0000
1010
0000
0000
0101
0000
0000
0011
0000
0000
1100
0000
0000
0011
0000
,
0000
1100
0000
0000
2002
0000
0000
0000
0000
0000
0000
0000
3003
0000
0000
0000
;
