#TITLE:Homework;
#SUBTITLE:;
#ARTIST:Kero Kero Bonito;
#TITLETRANSLIT:;
#SUBTITLETRANSLIT:;
#ARTISTTRANSLIT:;
#GENRE:;
#CREDIT:;
#BANNER:Homework.png;
#BACKGROUND:Homework-bg.png;
#LYRICSPATH:;
#CDTITLE:;
#MUSIC:Homework.ogg;
#OFFSET:1.630000;
#SAMPLESTART:28.067699;
#SAMPLELENGTH:15.999996;
#LASTBEATHINT:1.018997;
#SELECTABLE:YES;
#BPMS:0.000000=105.000000
;
#STOPS:
;
#BGCHANGES:3.500=Homework.avi=1.000=1=0=1===CrossFade==,
236.000=Homework-bg.png=1.000=0=0=1====#000000=,
99999=-nosongbg-=1.000=0=0=0 // don't automatically add -songbackground-
;
#KEYSOUNDS:;
#ATTACKS:;

//---------------dance-single - ----------------
#NOTES:
     dance-single:
     :
     Hard:
     12:
     0.482580,0.534618,0.036245,0.137732,0.478438,466.000000,461.000000,5.000000,19.000000,0.000000,0.000000,0.482580,0.534618,0.036245,0.137732,0.478438,466.000000,461.000000,5.000000,19.000000,0.000000,0.000000:
0000
0000
0000
0000
,
0000
0000
0000
0000
,
0000
0000
0000
0000
,
1000
0000
1000
0000
0010
0100
0001
0000
0001
0000
0000
0000
1000
0000
0001
0100
,
0001
0000
0001
0000
0010
0100
1000
0000
1000
0000
0100
0000
0010
0001
0010
0001
,
1000
0000
1000
0000
0010
0100
0001
0000
0001
0000
0000
0000
1000
0000
0001
0100
,
0001
0000
0001
0000
0010
0100
1000
0000
1000
0000
0100
0000
0010
0001
0010
0001
,
1000
0000
0010
1000
0000
1000
0000
0100
0010
0000
0001
0000
0000
0000
1000
0000
,
0100
1000
0010
0100
0002
0000
1003
0000
,
0001
0000
0000
1000
0000
0010
0000
1000
0100
0000
0010
0000
0100
0000
0000
0000
,
1000
0000
0010
0000
0001
0000
0010
0000
2000
0000
0000
3010
0000
0000
0010
0000
,
1000
0000
0100
1000
0000
1000
0000
0010
0100
0000
0001
0000
0000
0000
1000
0000
,
0001
1000
0010
0100
0002
0000
0013
0000
,
0100
0000
0100
1000
0000
1000
0000
0001
0100
0000
0100
0000
0000
0000
0100
0000
,
0001
0010
0100
1000
0100
0000
1000
0001
,
1000
0100
0010
0000
0010
0000
0010
0000
0010
0001
0100
0000
0100
0000
0100
0010
,
1000
0100
0001
0100
1000
0000
1010
0000
,
0001
0100
0010
0000
0010
0000
0010
0000
0010
1000
0100
0000
0100
0000
0100
0010
,
0001
0000
0100
0000
1000
0000
0010
0000
0002
0000
0000
0013
0000
0000
0010
0000
,
0001
0000
1000
0100
1000
0000
0001
0100
0001
0000
1000
0010
0000
0010
0000
0000
,
1000
0000
0100
0010
0001
0000
0100
0010
1000
0000
0100
0000
1000
0000
0001
0010
,
0001
0010
0000
0000
0001
0100
0001
0000
1000
0010
0000
0100
0000
0001
0000
0000
,
1000
0100
1000
0000
0010
0000
1000
0000
0000
0100
0010
0001
0010
0100
1000
0000
,
0000
0001
0100
0001
1000
0010
0000
1000
0100
0010
0001
0010
0100
0000
0000
0000
,
1000
0010
0100
0000
0001
0010
0001
1000
0001
0000
0100
0000
0010
0000
0000
0000
,
1000
0100
1000
0000
0001
0010
0001
0000
1000
0001
0100
0000
0010
0000
0000
0000
,
1000
0000
0100
0000
0010
0001
0000
0000
0001
0000
0100
0000
1010
0000
0000
0000
,
2000
0000
0000
0000
3000
0000
0001
0000
0010
0000
0001
1000
0000
0000
0100
0000
,
0010
0100
1000
0001
2000
0000
3020
0000
,
0130
0000
0001
1000
0000
1000
0000
0100
0010
0000
0001
0000
0000
0000
1000
0000
,
0001
0010
0001
0100
0020
0000
2030
0000
,
3001
0000
0010
0100
0000
0100
1000
0000
0001
0000
0001
0000
0000
0000
0100
0000
,
0010
0100
0001
1000
0002
0000
0023
0000
,
0130
0000
0100
1000
0000
1000
0000
0010
0100
0000
0001
0000
0000
0000
1000
0000
,
0100
0010
0001
0100
0001
0000
1000
0001
,
1000
0100
0010
0000
0010
0000
0010
0000
0010
0001
0100
0000
0100
0000
0100
0010
,
1000
0100
0001
0100
1000
0000
1010
0000
,
0001
0100
0010
0000
0010
0000
0010
0000
0010
1000
0100
0000
0100
0000
0100
0010
,
0001
0100
1000
0010
0001
0000
0000
0000
,
1000
0100
0010
0001
0000
0001
0000
0001
0000
0001
0000
0001
0010
0100
1000
0001
,
1000
0010
1000
0000
0000
0000
0000
0000
0010
0100
0010
0100
0010
1000
0001
0000
,
1000
0100
0010
0001
0000
0001
0000
0001
0000
0001
0000
0001
0010
0100
1000
0001
,
1000
0000
0010
0000
1000
0000
0001
0000
0000
0010
0000
0000
0100
0000
0000
2000
0000
0000
0002
0000
0000
3003
0000
0000
,
1000
0100
0010
0001
0000
0001
0000
0001
0000
0001
0000
0001
0010
0100
1000
0001
,
1000
0010
1000
0000
0000
0000
0001
0100
0001
0000
1000
0000
0010
0000
1000
0000
,
1000
0100
0010
0001
0000
0001
0000
0001
0000
0001
0000
0001
0010
0100
1000
0000
,
0000
0000
0000
0000
,
1000
0000
0010
1000
0000
1000
0000
0100
0010
0000
0001
0000
0000
0000
1000
0000
,
0100
1000
0020
0000
0000
0000
0130
0000
,
0001
0000
0000
1000
0000
0010
0000
1000
0100
0000
0010
0000
0100
0000
0000
0000
,
1000
0000
0010
0000
0102
0000
0000
0000
0000
0000
0000
0013
0000
0000
0010
0000
,
0001
0000
0100
0001
0000
0001
0000
0010
0100
0000
1000
0000
0000
0000
0001
0000
,
1000
0001
0010
0100
2000
0000
3010
0000
,
0100
0000
0100
0001
0000
0001
0000
1000
0100
0000
0100
0000
0000
0000
0100
0000
,
1000
0010
0100
0001
0100
0000
0001
1000
,
0001
0100
0010
0000
0010
0000
0010
0000
0010
1000
0100
0000
0100
0000
0100
0010
,
0001
0100
1000
0100
0001
0000
0010
0002
,
1003
0100
0010
0000
0010
0000
0010
0000
0010
0001
0100
0000
0100
0000
0100
0010
,
1000
0100
0001
0010
1000
0000
0220
0000
,
0330
0000
0000
0000
;

//---------------dance-single - ----------------
#NOTES:
     dance-single:
     :
     Medium:
     9:
     0.343812,0.340706,0.007249,0.130483,0.068866,332.000000,331.000000,1.000000,18.000000,0.000000,0.000000,0.343812,0.340706,0.007249,0.130483,0.068866,332.000000,331.000000,1.000000,18.000000,0.000000,0.000000:
0000
0000
0000
0000
,
0000
0000
0000
0000
,
0000
0000
0000
0000
,
1000
1000
0000
0001
0001
0000
1000
0100
,
1000
1000
0000
0001
0001
0100
0010
1000
,
0001
0001
0000
1000
1000
0000
0001
0100
,
0001
0001
0000
1000
1000
0100
0010
0100
,
1000
0000
0000
0010
0000
0000
1000
0000
0001
0000
1000
0000
0000
0000
0100
0000
,
0010
0100
1000
0001
1000
0000
0010
0000
,
0001
0000
0000
0010
0000
0000
0001
0000
0100
0000
0001
0000
1000
0000
0000
0000
,
0001
0010
0100
1000
0100
0000
0000
0000
,
0010
0000
0000
0001
0000
0000
0010
0000
0100
0000
1000
0000
0000
0000
0001
0000
,
0100
0001
0010
0100
0010
0000
0100
0000
,
0010
0000
0000
1000
0000
0000
0010
0000
0100
0000
0001
0000
0000
0000
1000
0000
,
0100
0010
0100
1000
0001
0000
1000
0010
,
1000
0100
0010
0010
0010
0100
1000
0001
,
0010
0100
1000
0010
1000
0000
0010
0000
,
0001
0100
0010
0010
0010
0100
0001
1000
,
0010
1000
0100
0010
0100
0000
0000
0000
,
1000
0000
0010
0000
1000
0000
0000
0000
0001
0000
0000
0010
0000
0000
0010
0000
,
0001
1000
0001
0000
0100
0100
0100
0000
,
0010
0000
0000
0000
1000
0000
0010
0000
1000
0000
0000
0100
0000
0000
0000
0000
,
0010
0001
0010
0000
0100
1000
1000
0000
,
0000
0001
0100
0001
0010
0010
0010
0000
,
0100
1000
0001
1000
0010
0100
0010
0000
,
1000
0010
0100
0010
1000
0001
1000
0000
,
0100
0010
0001
0000
1000
0010
1000
0000
,
0200
0000
0000
0000
0000
0000
0310
0000
0001
0000
0000
0001
0000
0000
1000
0000
,
0010
0100
0001
0100
0020
0000
2030
0000
,
3100
0000
0000
0100
0000
0000
1000
0000
0001
0000
1000
0000
0000
0000
0001
0000
,
0100
0010
0100
0001
2000
0000
3020
0000
,
0130
0000
0000
0001
0000
0000
1000
0000
0100
0000
1000
0000
0000
0000
0001
0000
,
1000
0001
0010
0100
0020
0000
0032
0000
,
1003
0000
0000
0010
0000
0000
0100
0000
0001
0000
0100
0000
0000
0000
0010
0000
,
1000
0001
1000
0100
1000
0000
0100
0010
,
0100
1000
1000
1000
0001
0010
0010
0001
,
1000
0100
0010
0001
1000
0000
0010
0000
,
0100
0001
0001
0001
1000
0010
0010
1000
,
0001
0010
0100
0010
0001
0000
0000
0000
,
2000
0000
0000
0000
0010
0000
0000
3010
0000
0000
0100
0000
0001
0000
1000
0000
,
0002
0000
0000
0000
0010
0000
0000
0013
0000
0000
0100
0000
1000
0000
0000
0000
,
0002
0000
0000
0000
0100
0000
0000
0103
0000
0000
0010
0000
1000
0000
0001
0000
,
2000
0000
3100
0000
0010
0001
0002
0003
,
2000
0000
0000
0000
0010
0000
0000
3010
0000
0000
0100
0000
0001
0000
1000
0000
,
0002
0000
0000
0000
0010
0000
0000
0013
0000
0000
0100
0000
1000
0000
0000
0000
,
0002
0000
0000
0000
,
0200
0000
0000
0303
,
1000
0000
0000
0010
0000
0000
1000
0000
0001
0000
1000
0000
0000
0000
0100
0000
,
0010
0100
2000
0000
0000
0000
3000
0000
,
0001
0000
0000
0010
0000
0000
0001
0000
0100
0000
0001
0000
1000
0000
0000
0000
,
0001
0010
0200
0000
0000
0000
0300
0000
,
0010
0000
0000
0001
0000
0000
0010
0000
0100
0000
1000
0000
0000
0000
0001
0000
,
0100
0001
0010
0100
0010
0000
0100
0000
,
0010
0000
0000
1000
0000
0000
0010
0000
0100
0000
0001
0000
0000
0000
1000
0000
,
0100
0010
0100
1000
0001
0000
1000
0010
,
1000
0100
0010
0010
0010
0100
1000
0001
,
0010
0100
1000
0010
1000
0000
0010
0000
,
0001
0100
0010
0010
0010
0100
0001
1000
,
0010
1000
0100
0010
0100
0000
1001
0000
;

//---------------dance-single - ----------------
#NOTES:
     dance-single:
     :
     Easy:
     5:
     0.185369,0.192462,0.000000,0.210223,0.000000,179.000000,179.000000,0.000000,29.000000,0.000000,0.000000,0.185369,0.192462,0.000000,0.210223,0.000000,179.000000,179.000000,0.000000,29.000000,0.000000,0.000000:
// measure 0
0000
0000
0000
0000
,  // measure 1
0000
0000
0000
0000
,  // measure 2
0000
0000
0000
0000
,  // measure 3
1000
0000
0000
0100
0000
0000
0001
0000
,  // measure 4
1000
0000
0000
0100
0000
0000
0001
1000
,  // measure 5
0001
0000
0000
0100
0000
0000
1000
0000
,  // measure 6
0001
0000
0000
0100
0000
0000
1000
0001
,  // measure 7
1000
0000
0010
0000
1000
1000
0000
0000
,  // measure 8
0001
0010
0001
0000
,  // measure 9
0100
0010
1000
1000
,  // measure 10
0001
0010
0001
0000
,  // measure 11
1000
0000
0100
0000
1000
1000
0000
0000
,  // measure 12
0001
0100
0001
0000
,  // measure 13
1000
0000
0100
0000
0010
0010
0000
0000
,  // measure 14
0001
0100
1000
0100
,  // measure 15
0002
0013
0020
0130
,  // measure 16
1000
0001
1000
0000
,  // measure 17
2000
3010
0020
0130
,  // measure 18
0001
1000
0001
0000
,  // measure 19
1000
0010
1000
0000
,  // measure 20
0100
0010
0100
0000
,  // measure 21
1000
0000
0001
0000
,  // measure 22
0100
0010
0100
0000
,  // measure 23
0001
0010
0001
0001
,  // measure 24
1000
0010
0100
0100
,  // measure 25
0001
1000
0200
0300
,  // measure 26
1000
0001
0200
0300
,  // measure 27
0020
0000
1030
0000
,  // measure 28
0001
0010
0002
0203
,  // measure 29
0310
0000
1000
0000
,  // measure 30
0001
0010
0002
0203
,  // measure 31
0310
0000
1000
0000
,  // measure 32
0001
0010
0002
0203
,  // measure 33
0310
0000
1000
0000
,  // measure 34
0001
0010
1000
0010
,  // measure 35
0002
0103
0200
0310
,  // measure 36
1000
0001
1000
0000
,  // measure 37
2000
3100
0200
0310
,  // measure 38
0001
1000
0001
0000
,  // measure 39
0200
0000
0000
0000
,  // measure 40
0310
0000
1000
0000
0001
0001
0001
0000
,  // measure 41
0200
0000
0000
0000
,  // measure 42
0301
1000
0001
0000
,  // measure 43
0020
0000
0000
0000
,  // measure 44
0130
1000
0001
1000
,  // measure 45
0020
0000
0000
0000
,  // measure 46
0230
0000
0000
0000
,  // measure 47
0301
0000
0010
0000
0001
0001
0000
0000
,  // measure 48
1000
0020
0030
0000
,  // measure 49
0100
0010
1000
1000
,  // measure 50
0001
0020
0030
0000
,  // measure 51
0001
0000
0100
0000
0001
0001
0000
0000
,  // measure 52
1000
0100
1000
0000
,  // measure 53
0001
0000
0100
0000
0010
0010
0000
0000
,  // measure 54
1000
0100
0001
0100
,  // measure 55
2000
3010
0020
0130
,  // measure 56
0001
1000
0001
0000
,  // measure 57
0002
0013
0020
0130
,  // measure 58
1000
0001
1000
0020
,  // measure 59
0030
0000
0000
0000
;

//---------------dance-single - ----------------
#NOTES:
     dance-single:
     :
     Beginner:
     1:
     0.113914,0.127221,0.000000,0.000000,0.000000,110.000000,110.000000,0.000000,0.000000,0.000000,0.000000,0.113914,0.127221,0.000000,0.000000,0.000000,110.000000,110.000000,0.000000,0.000000,0.000000,0.000000:
0000
0000
0000
0000
,
0000
0000
0000
0000
,
0000
0000
0000
0000
,
1000
0000
1000
0000
,
0001
0000
0001
0000
,
1000
0000
1000
0000
,
0001
0000
0001
0000
,
0100
0000
0100
0000
,
0010
0000
0000
0000
,
1000
0000
0001
0000
,
1000
0000
0000
0000
,
0100
0000
0100
0000
,
0010
0000
0000
0000
,
0001
0000
1000
0000
,
0001
0000
0000
0000
,
1000
0000
1000
0000
,
0010
0010
0010
0000
,
0100
0000
0100
0000
,
0001
0001
0001
0000
,
1000
0000
0100
0000
,
1000
0000
1000
0000
,
0001
0000
0001
0000
,
0100
0000
0100
0000
,
0010
0000
1000
0000
,
0001
0000
1000
0000
,
0010
0000
0010
0000
,
0100
0000
0100
0000
,
0001
0000
0000
0000
,
1000
1000
1000
0000
,
0010
0000
1000
0000
,
0001
0001
0001
0000
,
0010
0000
0100
0000
,
0010
0010
0010
0000
,
0001
0000
1000
0000
,
0001
0001
0001
0000
,
1000
0000
0010
0000
,
0100
0100
0100
0000
,
0010
0000
0100
0000
,
0001
0001
0001
0000
,
1000
0000
0000
0000
,
0010
0000
0000
0000
,
1000
0000
0000
0000
,
0001
0000
0000
0000
,
0001
0000
0000
0000
,
0010
0000
0000
0000
,
0001
0000
0000
0000
,
0000
0000
0000
0000
,
1000
0000
1000
0000
,
0010
0010
0000
0000
,
0001
0000
0001
0000
,
0010
0010
0000
0000
,
1000
0000
0100
0000
,
1000
1000
1000
0000
,
0001
0000
0100
0000
,
0001
0001
0001
0000
,
1000
0000
0010
0000
,
1000
1000
1000
0000
,
0001
0000
0010
0000
,
0001
0001
0001
0000
;
