#TITLE:HighBALL;
#SUBTITLE:;
#ARTIST:MK;
#TITLETRANSLIT:;
#SUBTITLETRANSLIT:;
#ARTISTTRANSLIT:;
#GENRE:;
#CREDIT:;
#BANNER:HighBALL.png;
#BACKGROUND:HighBALL-bg.png;
#LYRICSPATH:;
#CDTITLE:;
#MUSIC:HighBALL.ogg;
#OFFSET:-0.089000;
#SAMPLESTART:31.947741;
#SAMPLELENGTH:15.019994;
#SELECTABLE:YES;
#BPMS:0.000000=128.000000
;
#STOPS:
;
#BGCHANGES:;
#KEYSOUNDS:;
#ATTACKS:;

//---------------dance-single - ----------------
#NOTES:
     dance-single:
     :
     Hard:
     13:
     0.514473,0.547160,0.198967,0.189019,0.288503,362.000000,342.000000,20.000000,19.000000,0.000000,0.000000,0.514473,0.547160,0.198967,0.189019,0.288503,362.000000,342.000000,20.000000,19.000000,0.000000,0.000000:
// measure 0
0000
0000
0000
0000
,  // measure 1
1000
0000
0000
0000
1010
0000
0000
0000
0001
0000
0000
0000
0011
0000
0000
0100
,  // measure 2
0000
0000
1000
0001
0100
0010
1000
0000
,  // measure 3
0001
0000
0000
0000
0011
0000
0000
0000
1000
0000
0000
0000
1010
0000
0000
0001
,  // measure 4
0000
0001
1000
0100
0010
0001
0100
0010
,  // measure 5
1000
0000
0000
0000
1010
0000
0000
0000
0001
0000
0000
0000
0011
0000
0000
0100
,  // measure 6
0000
0000
1000
0001
0100
0010
1000
0000
,  // measure 7
0001
0000
0000
0000
0011
0000
0000
0000
1000
0000
0000
0000
1010
0000
0000
0001
,  // measure 8
0000
0001
0000
1000
0100
0010
0001
0100
,  // measure 9
0020
0000
0000
0000
1030
0000
0000
0000
0002
0000
0000
0013
0000
0000
0010
0000
,  // measure 10
0100
0000
0000
0000
0100
0000
0010
0000
0200
0000
0000
1300
0000
0000
1000
0000
,  // measure 11
0002
0000
0000
0000
0103
0000
0000
0000
0020
0000
0000
1030
0000
0000
1000
0000
,  // measure 12
0001
0010
0001
0010
0100
1000
0002
0000
,  // measure 13
1003
0010
0001
0010
0100
0001
1000
0000
,  // measure 14
0001
0010
1000
0010
0100
1000
0001
0000
,  // measure 15
1000
0100
0010
0001
0100
0010
1000
0001
,  // measure 16
0010
0100
0010
0100
1000
0010
1010
0000
,  // measure 17
0101
0000
0000
0000
1100
0000
0000
0000
0101
0000
0000
0001
1000
0000
0010
0000
,  // measure 18
1000
0000
0100
0000
1000
0000
0001
0000
1000
0000
0000
0010
0100
0000
0001
0000
,  // measure 19
1000
0000
0000
0000
1100
0000
0000
0000
0110
0000
0000
0010
0100
0000
1000
0000
,  // measure 20
0001
0100
0001
0100
0010
0010
1000
0000
,  // measure 21
0011
0000
0000
0000
0011
0000
0000
0000
0011
0000
0000
0010
0100
0000
1000
0000
,  // measure 22
0001
0000
0100
0000
0001
0000
1000
0000
0001
0000
0000
0100
0010
0000
1000
0000
,  // measure 23
0100
0000
0000
0000
0110
0000
0000
0000
0011
0000
0000
0010
0001
0000
1000
0000
,  // measure 24
0010
0000
0100
0000
0010
0000
0100
0000
0001
0000
1000
0000
0001
0010
0001
0000
,  // measure 25
0100
0000
0010
0000
1000
0000
0010
0000
0100
0000
0001
1000
0001
0000
0010
0000
,  // measure 26
0100
0000
0000
0000
0100
0000
0010
0000
0100
0000
1000
0010
1000
0000
0001
0000
,  // measure 27
0100
0000
0000
0000
0010
0000
0000
0000
0100
0000
0001
1000
0001
0000
0010
0000
,  // measure 28
0100
1000
0100
1000
0001
0100
0010
0010
,  // measure 29
1000
0000
0100
0000
0001
0000
0100
0000
1000
0000
0001
0010
0001
0000
1000
0000
,  // measure 30
0001
0000
0000
0000
0001
0000
0010
0000
0001
0000
1000
0010
1000
0000
0001
0000
,  // measure 31
1000
0000
0000
0000
0100
0000
0000
0000
1000
0000
0010
0100
0010
0000
1000
0000
,  // measure 32
0001
0010
0001
0010
0100
1000
0010
0010
,  // measure 33
0200
0001
1000
0001
,  // measure 34
0320
1000
0001
1000
,  // measure 35
2030
0100
0010
0100
,  // measure 36
3002
0100
0013
1001
,  // measure 37
0100
0010
0100
0010
1000
0100
1000
0100
,  // measure 38
0010
0001
0010
0001
0100
0010
0100
0010
,  // measure 39
1000
0100
1000
0000
0001
0100
0001
0000
1000
0010
1000
0000
0001
0010
0001
0000
,  // measure 40
2000
0010
0000
0010
0000
0001
0000
0001
0000
0000
3100
0000
1000
0001
1000
0000
,  // measure 41
0020
0100
0000
0000
1030
0001
1000
0001
0000
0001
0100
0000
0010
0000
1000
0000
,  // measure 42
0002
0010
0000
0010
0000
1000
0000
1000
0000
0000
0103
0000
0010
0000
1000
0000
,  // measure 43
0002
0010
0000
0000
1003
0100
1000
0100
0000
0100
0010
0000
0001
0000
0100
0000
,  // measure 44
0002
0010
0000
0010
0000
1000
0000
1000
0000
0000
0103
0000
0010
0000
1000
0000
,  // measure 45
0002
0010
0000
0000
1003
0100
1000
0100
0000
0100
0010
0000
0001
0000
1000
0000
,  // measure 46
0020
1000
0000
1000
0000
0100
0000
0100
0000
0000
1030
0000
0001
0000
0010
0000
,  // measure 47
0002
0010
0000
0000
1003
0100
1000
0100
0000
0100
0010
0000
0001
0000
1000
0000
,  // measure 48
0001
0000
0100
0000
0001
0000
0100
0000
0010
0000
1000
0000
0001
0010
0001
0000
,  // measure 49
0200
0000
0000
0000
,  // measure 50
0300
0000
0000
0000
;

//---------------dance-single - ----------------
#NOTES:
     dance-single:
     :
     Medium:
     9:
     0.373774,0.389976,0.000000,0.208916,0.094509,263.000000,263.000000,0.000000,21.000000,0.000000,0.000000,0.373774,0.389976,0.000000,0.208916,0.094509,263.000000,263.000000,0.000000,21.000000,0.000000,0.000000:
0000
0000
0000
0000
,
0001
0000
0000
0000
1000
0000
0000
0000
0001
0000
0000
0000
0010
0000
0000
0100
,
0000
0000
0000
1000
0010
0100
0001
0000
,
1000
0000
0000
0000
1000
0000
0000
0000
0010
0000
0000
0000
0100
0000
0000
0001
,
0000
0001
0000
1000
0100
0010
0001
0010
,
0100
0000
0000
0000
0010
0000
0000
0000
0100
0000
0000
0000
1000
0000
0000
0001
,
0000
0000
0000
0001
0100
0010
1000
0000
,
0100
0000
0000
0000
0100
0000
0000
0000
0010
0000
0000
0000
0100
0000
0000
1000
,
0000
1000
0000
0001
0100
0010
1000
0010
,
0100
0000
0000
0000
0001
0000
0000
0000
1000
0000
0000
0100
0000
0000
0000
0000
,
0010
0000
0000
0000
0010
0000
0001
0000
0010
0000
0000
0100
0000
0000
0000
0000
,
1000
0000
0000
0000
0010
0000
0000
0000
0100
0000
0000
0001
0000
0000
0000
0000
,
1000
0100
1000
0100
0010
0001
1000
0000
,
0001
0100
0001
0000
1000
0100
1000
0000
,
0001
0010
0001
0000
1000
0010
1000
0000
,
0010
0100
0010
0100
0001
1000
0001
1000
,
0100
0010
0001
0010
0100
1000
0002
0000
,
0103
0000
0000
0000
0010
0000
0000
0000
0100
0000
0000
0001
0000
0000
0001
0000
,
1000
0000
0000
0000
1000
0000
0010
0000
1000
0000
0000
0100
0000
0000
0100
0000
,
0010
0000
0000
0000
0001
0000
0000
0000
1000
0000
0000
0010
0000
0000
0010
0000
,
1000
0001
1000
0001
0010
0100
2000
0000
,
3010
0000
0000
0000
0010
0000
0000
0000
0010
0000
0000
0100
0000
0000
0100
0000
,
0001
0000
0000
0000
0001
0000
0010
0000
0001
0000
0000
0100
0000
0000
0100
0000
,
0010
0000
0000
0000
1000
0000
0000
0000
0001
0000
0000
0010
0000
0000
0010
0000
,
0100
1000
0100
1000
0001
0100
0020
0000
,
1030
0000
0100
0000
1000
0000
0001
0000
1000
0000
0000
0010
0000
0000
0000
0000
,
0100
0000
0001
0000
0100
0000
0010
0000
0100
0000
0000
0001
0000
0000
0000
0000
,
1000
0000
0100
0000
1000
0000
0000
0000
0010
0000
0000
0100
0000
0000
0000
0000
,
0001
0100
0001
1000
0100
1000
0002
0000
,
0013
0000
0100
0000
0010
0000
0100
0000
1000
0000
0000
0010
0000
0000
0000
0000
,
0100
0000
0001
0000
1000
0000
0010
0000
1000
0000
0000
0100
0000
0000
0000
0000
,
0010
0000
0001
0000
0010
0000
0000
0000
0100
0000
0000
1000
0000
0000
0000
0000
,
0001
0100
0001
0100
0010
1000
0001
0000
,
0020
0230
2300
0001
,
3020
0230
0302
1000
,
0203
0320
2030
0001
,
3200
0320
0032
1003
,
0010
1000
0010
0000
0200
0000
0301
0000
,
0010
0001
0010
0000
0200
0000
1300
0000
,
0001
0100
0001
0000
2000
0000
0010
0000
,
3002
0000
0000
0013
,
0100
0000
0100
0000
0100
0000
1000
0001
,
0100
0010
0100
0001
0100
0000
0010
0000
,
1000
0000
0001
0010
0100
0010
0100
0000
,
1000
0001
1000
0010
1000
0000
0100
0000
,
0010
0000
0001
1000
0100
1000
0100
0000
,
1000
0001
0100
0001
1000
0000
0010
0000
,
0100
0000
0001
1000
0100
1000
0100
0000
,
0010
0001
0010
0001
0100
0010
2000
0000
,
3100
0000
0000
0000
;

//---------------dance-single - ----------------
#NOTES:
     dance-single:
     :
     Easy:
     5:
     0.270027,0.298451,0.179071,0.099484,0.000000,190.000000,172.000000,18.000000,10.000000,0.000000,0.000000,0.270027,0.298451,0.179071,0.099484,0.000000,190.000000,172.000000,18.000000,10.000000,0.000000,0.000000:
0000
0000
0000
0000
,
0001
0010
0001
1000
,
0100
0000
1000
0010
,
1000
1000
0001
0100
,
0010
0000
1000
0001
,
1000
0010
1000
0001
,
0100
0000
0001
0010
,
0001
0001
1000
0100
,
0010
0000
1001
0110
,
0002
0100
1000
0013
,
0200
1000
0001
1300
,
0020
0100
0001
1030
,
2000
0100
0001
3010
,
0001
0010
0001
0000
,
1000
0010
1000
0000
,
0100
0100
0010
0001
,
1001
0000
0000
0010
,
1100
0101
1100
0000
,
0010
0001
0010
0000
,
0100
1000
0010
1000
,
0001
0001
0010
0100
,
1100
1100
1100
0000
,
1000
0010
1000
0000
,
0001
0100
0010
1000
,
0001
0001
0010
0001
,
1100
0110
1100
0000
,
0010
0001
0010
0000
,
0001
0100
1000
0100
,
0001
0001
1000
0000
,
0011
0011
0011
0000
,
1000
0010
1000
0000
,
0001
0100
1000
0100
,
0001
0001
1000
1000
,
0200
0001
1000
0001
,
0320
0001
1000
0001
,
0032
0100
0010
0100
,
2003
0100
0010
3001
,
0100
0100
0010
0010
,
1000
1000
0100
0100
,
0010
0001
1000
0001
,
0200
0000
0000
0310
,
1001
0000
0000
0000
,
0110
0010
1000
1000
,
0001
0010
0100
0010
,
0001
0001
0100
1010
,
0001
0001
0010
0010
,
0100
1000
0010
1000
,
0001
0001
0100
0100
,
0010
0000
1000
0000
0001
0000
0010
0010
,
0200
0000
0000
0000
,
0300
0000
0000
0000
;

//---------------dance-single - ----------------
#NOTES:
     dance-single:
     :
     Beginner:
     3:
     0.166280,0.170615,0.000000,0.029845,0.000000,117.000000,117.000000,0.000000,3.000000,0.000000,0.000000,0.166280,0.170615,0.000000,0.029845,0.000000,117.000000,117.000000,0.000000,3.000000,0.000000,0.000000:
0000
0000
0000
0000
,
0001
0000
0001
0000
,
1000
0000
1000
0000
,
0001
0000
0001
0000
,
1000
0000
1000
0000
,
0010
0010
0010
0000
,
0100
0100
0100
0000
,
0010
0010
0010
0000
,
2000
0000
3002
0000
,
0013
0010
0010
0000
,
0001
0001
0001
0000
,
1000
1000
1000
0000
,
0010
0010
0010
0000
,
0100
0000
0001
0000
,
1000
0000
0100
0000
,
1000
0000
0001
0000
,
2000
0000
0000
3000
,
0001
0010
0001
0000
,
1000
0000
1000
0000
,
0001
0100
0001
0000
,
1000
0000
0010
0000
,
1000
1000
1000
0000
,
0100
0000
0010
0000
,
0100
0010
0100
0000
,
1000
0000
1000
0000
,
0001
0010
0001
0000
,
0100
0000
0100
0000
,
0010
1000
0010
0000
,
0100
0000
0001
0000
,
1000
0100
1000
0000
,
0100
0000
1000
0000
,
0001
0100
0001
0000
,
1000
0000
0001
0000
,
1000
0000
1000
0000
,
0100
0000
0100
0000
,
0001
0000
0001
0000
,
0010
0000
0010
0000
,
1000
1000
1000
0000
,
0100
0100
0100
0000
,
0010
0010
0010
0000
,
0001
0000
0001
0000
,
0100
0000
0000
0000
,
0001
1000
0001
0000
,
0010
0000
0010
0000
,
0001
1000
0001
0000
,
0100
0000
0010
0000
,
1000
0001
1000
0000
,
0100
0000
0100
0000
,
0010
0010
0001
0000
,
0100
0000
0000
0000
;
