#TITLE:*Feels Seasickness...*;
#SUBTITLE:;
#ARTIST:かめりあ;
#TITLETRANSLIT:;
#SUBTITLETRANSLIT:;
#ARTISTTRANSLIT:Camellia;
#GENRE:;
#CREDIT:;
#BANNER:Feels Seasickness.png;
#BACKGROUND:Feels Seasickness-bg.png;
#LYRICSPATH:;
#CDTITLE:;
#MUSIC:Feels Seasickness.ogg;
#OFFSET:-0.556000;
#SAMPLESTART:99.647781;
#SAMPLELENGTH:12.000000;
#SELECTABLE:YES;
#BPMS:0.000000=248.000000
,72.000000=124.000000
,76.000000=248.000000
,148.000000=124.000000
,160.000000=248.000000
,200.000000=240.000000
,204.000000=230.000000
,208.000000=220.000000
,212.000000=200.001007
,216.000000=180.000000
,220.000000=170.001007
,224.000000=164.001007
,264.000000=82.000000
,268.000000=164.001007
,286.000000=176.001007
,288.000000=188.001007
,290.000000=196.001007
,292.000000=212.001007
,294.000000=234.000000
,296.000000=248.000000
,380.000000=124.000000
,384.000000=248.000000
,402.000000=240.000000
,404.000000=220.000000
,404.666656=212.000000
,406.000000=200.000000
,407.000000=124.000000
;
#STOPS:
;
#BGCHANGES:;
#KEYSOUNDS:;
#ATTACKS:;

//---------------dance-single - ----------------
#NOTES:
     dance-single:
     :
     Hard:
     18:
     1.015737,1.406719,0.587685,0.637349,1.692699,859.000000,788.000000,71.000000,77.000000,0.000000,0.000000,1.015737,1.406719,0.587685,0.637349,1.692699,859.000000,788.000000,71.000000,77.000000,0.000000,0.000000:
0001
0010
0100
1000
0010
1000
0001
0010
0100
1000
0010
1000
,
0001
0000
0200
0000
0000
0000
0320
0000
0000
1030
0000
0000
,
1200
0001
1000
0001
,
1300
0100
0010
0001
,
1010
0000
0000
1000
0010
1000
0001
0000
0001
0100
0000
0100
,
0020
0000
0000
0000
0000
0000
1030
0000
0000
0000
1000
0000
0100
0000
0000
0000
0010
0000
0002
0000
0000
0003
0000
0000
,
0101
1200
0001
1000
,
0301
0010
0100
1000
,
0010
0000
0200
0000
0000
0302
0000
0000
0203
0000
0000
0320
,
0000
0000
1030
0001
0000
0001
0020
0000
0230
0000
0000
0300
,
1001
0000
1000
0001
0000
1000
0100
0000
1000
0001
0000
1000
,
0010
0000
0001
1000
0000
0001
0100
0000
0001
1000
0000
0001
,
0010
0000
1000
0001
0000
1000
0100
0000
1000
0001
0000
1000
,
0010
0000
0001
1000
0000
0001
0100
0000
0001
1000
0000
0001
,
0010
0000
0100
0010
0000
1000
0010
0000
0100
0010
0000
0001
,
0010
0000
0100
0010
0000
1000
0010
0001
1000
0001
0100
0010
,
2000
3010
0200
1300
,
0002
0000
0103
0000
0000
0022
0000
0000
0000
0033
0000
0000
,
2001
0000
0000
0000
0000
0000
0000
0000
0000
0000
0000
0000
0001
0000
0000
0000
0000
0010
0000
0000
0000
0000
0100
0000
0000
0000
0000
0010
0000
0000
0000
0000
3001
0000
0000
0000
0100
0000
0000
0001
0000
0000
0100
0000
0000
0001
0000
0000
,
1200
0000
0000
0000
0000
0000
0310
0000
0000
0000
0000
0000
0012
0000
0000
0000
0000
1000
0000
0000
0000
0000
0100
0000
,
0000
0000
0000
1000
0000
0000
0000
0000
0013
0000
0000
0000
0100
0000
1000
0000
0100
0000
1000
0000
0000
0000
0001
0000
,
0200
0000
0000
0000
0000
0000
0310
0000
0000
0000
0000
0000
2010
0000
0000
0000
0000
0001
0000
0000
0000
0000
0100
0000
,
0000
0000
0000
0000
0000
0000
0000
0001
0000
0000
0000
0000
0000
0000
0000
0000
0000
0000
3010
0000
0000
0000
0000
0000
0200
0000
0000
0000
0000
0000
0000
0000
0000
0000
0000
0000
0301
0000
0000
0000
0000
0000
0000
0000
0000
0000
0000
0000
,
1002
0000
0000
0000
0000
0000
0103
0000
0000
0000
0100
0000
0020
0000
0000
0000
0000
1000
0000
0000
0000
0000
1000
0000
,
0000
0000
0000
0130
0000
0000
0001
0000
0000
0000
0000
0000
0010
0000
0100
0000
1000
0000
0001
0000
0100
0000
0010
0000
,
1000
0100
0010
0001
0000
0000
2002
0000
0000
0000
0000
0000
,
3003
0000
0000
1100
0000
0000
0101
0000
0100
0001
0000
0001
,
1000
0000
0000
0100
0000
0000
0011
0000
0010
0100
0000
0100
,
1000
0000
1001
0000
0101
0000
0001
0100
0010
1000
0000
1000
,
0100
0000
0000
0010
0000
2001
0000
0010
0000
0001
0000
0010
,
0000
3100
0000
0000
0000
0000
0011
0000
0000
0100
0000
1002
,
0000
0000
0000
0000
0010
0000
0000
0000
0000
0000
0000
0000
1000
0000
0000
0000
0000
0000
0000
0000
0010
0000
0000
0000
0000
0000
0000
0000
0103
0000
0000
0000
0000
0000
0000
0000
0000
0000
0000
0000
0000
0000
0001
0000
0000
0100
0000
0000
,
0010
0000
1010
0000
0101
0000
1001
0000
0011
0000
1100
0000
,
1002
0000
0000
1003
0010
1000
0010
0100
0010
1000
0100
0010
,
0001
0010
0001
0010
0100
0010
0001
0100
0010
1000
0100
0010
,
0001
1000
0010
0001
0010
1000
0100
0010
0001
1000
0001
0010
,
1000
0010
0001
0100
0010
1000
0001
0000
0011
0000
0110
0000
,
2100
0000
3002
0103
,
0001
0000
0000
0000
0000
0000
0000
0000
0000
0000
0000
0000
0000
0000
0000
0000
0000
0000
1000
0000
0000
0000
0000
0000
0000
0000
0000
0000
0000
0000
0000
0000
0000
0000
0000
0000
0100
0000
0000
0000
0000
0000
0000
0000
0000
0000
0000
0000
0000
0000
0000
0000
0000
0000
0010
0000
0000
0000
0000
0000
0000
0000
0000
0000
0000
0000
0000
0000
0000
0000
0000
0000
0001
0000
0000
0000
0000
0000
0000
0000
0000
0000
0000
0000
0000
0000
0000
0000
0000
0000
0000
0000
0100
0000
0000
0000
0000
0000
0000
0000
0000
0000
0000
0000
0000
0000
0000
0000
0000
0000
0000
0000
0010
0000
0000
0000
0000
0000
0000
0000
0000
0000
0000
0000
0000
0000
0000
0000
0000
0000
0000
0000
1000
0000
0000
0000
0000
0000
0000
0000
0000
0000
0000
0000
0000
0000
0000
0000
0000
0000
0000
0000
0100
0000
0000
0000
0000
0000
0000
0000
0000
0000
0000
0000
0000
0000
0000
0000
0000
0000
0000
0000
0010
0000
0000
0000
0000
0000
0000
0000
0000
0000
0000
0000
0000
0000
0000
0000
0000
0000
0000
0000
,
0002
0000
0000
0000
0000
0000
0000
0000
1003
0000
0000
0000
0000
0000
0000
0000
0001
0000
0000
0010
0000
0000
0100
0000
0000
1000
0000
0000
0100
0000
0000
0000
,
0011
0000
0001
1000
0000
0100
0010
0000
0100
1000
0001
1000
,
0010
0100
0001
0010
0000
0010
0100
0000
2200
0000
3300
0000
,
2002
0000
0000
3003
0000
0000
0100
0000
0000
0000
0100
0000
0001
0000
0000
0000
0000
0000
0010
0000
0000
0000
0010
0000
,
0001
0000
0000
0100
0000
0100
0001
0000
0000
0010
0000
0000
,
2002
0000
0000
3003
0000
0000
0100
0000
0000
0000
0100
0000
1000
0000
0000
0000
0000
0000
0010
0000
0000
0000
0010
0000
,
1000
0000
0000
0100
0000
0011
0000
0000
1100
0000
0000
0000
,
2002
0000
0000
3003
0000
0000
0001
0000
0000
0000
0001
0000
0100
0000
0000
0000
0000
0000
1000
0000
0000
0000
1000
0000
,
0100
0000
0000
0010
0000
0010
0100
0000
0000
0001
0000
0001
,
1000
0100
0010
0001
0010
0100
1000
0010
0100
0001
0100
0010
,
1000
0000
1100
0000
0000
0000
0110
0000
0000
0011
0000
0000
,
1001
0000
0100
0001
0000
0001
0100
0000
0100
0001
0000
0001
,
1000
0000
1000
0100
0000
0100
1000
0000
1000
0100
0000
0100
,
0010
0000
0010
0001
0000
0001
0100
0000
0100
1000
0000
1000
,
0100
0000
0100
0010
0000
0010
1000
0000
1000
0001
0000
0001
,
1000
0100
0010
0001
0010
0100
1000
0010
0100
0001
0100
0010
,
1000
0100
0001
1000
0010
0001
1000
0100
0010
0001
0010
0100
,
1000
0010
1000
0010
0100
0001
0100
0001
0010
0100
0010
0100
1000
0010
0001
0010
,
2000
0000
0000
3010
0000
0000
0102
0000
0000
0013
0100
0010
,
0002
0000
0000
0000
0000
0000
0000
0000
0000
0000
0000
0000
1003
0000
0000
0000
0010
0000
0000
0000
1000
0000
0000
0000
0001
0000
0000
0010
0000
0000
0001
0000
0000
0010
0000
0000
0100
0000
0000
0000
1000
0000
0000
0000
0001
0000
0000
0000
,
0100
0000
0000
0000
0001
0000
0000
0000
1000
0000
0000
0000
0100
0000
0000
0000
0010
0000
0000
0000
0001
0000
0000
0000
1000
0000
0000
0010
0000
0000
1000
0000
0000
0010
0000
0000
0100
0000
0000
0000
0001
0000
0000
0000
1000
0000
0000
0000
,
0001
0000
0000
0010
0000
0000
0100
0000
0000
1000
0000
0000
0001
0000
0000
0010
0000
0000
0100
0000
0000
1000
0000
0000
0001
0000
0000
0000
0100
0000
0000
0000
0001
0000
0000
0000
1000
0000
0000
0000
0100
0000
0000
0000
1000
0000
0000
0000
,
0001
0000
0000
0000
0010
0000
0000
0000
0100
0000
0000
0000
1000
0000
0000
0000
0100
0000
0000
0000
0010
0000
0000
0000
0001
0000
0000
1000
0000
0000
0010
0000
0000
1000
0000
0000
0200
0000
0000
0000
0000
0000
0310
0000
0000
0000
0000
0000
,
0012
0000
0000
0000
0000
0000
0000
0000
0000
0000
0000
0000
1003
0000
0000
0000
0100
0000
0000
0000
1000
0000
0000
0000
0001
0000
0000
0010
0000
0000
0001
0000
0000
0010
0000
0000
0100
0000
0000
0000
1000
0000
0000
0000
0001
0000
0000
0000
,
0010
0000
0000
0000
0001
0000
0000
0000
1000
0000
0000
0000
0010
0000
0000
0000
1000
0000
0000
0000
0001
0000
0000
0000
0100
0000
0000
0010
0000
0000
0100
0000
0000
0010
0000
0000
2000
0000
0000
0000
0000
0000
3002
0000
0000
0000
0000
0000
,
1003
0000
0000
0100
0000
0000
0010
0000
0000
0100
0000
0000
1000
0000
0000
0001
0000
0000
1000
0000
0000
0001
0000
0000
0100
0000
0000
0000
0010
0000
0000
0000
1000
0000
0000
0000
0001
0000
0000
0000
1000
0000
0000
0000
0010
0000
0000
0000
,
0100
0001
1000
0001
0010
0100
1000
0100
0020
0000
0000
0000
0031
0000
0000
0000
,
2001
0000
0000
0000
0100
0000
0000
0000
3001
0000
0002
0000
0100
0000
0000
0000
1003
0000
2000
0000
0010
0000
0000
0000
3001
0000
0002
0000
0103
0010
0100
0010
,
2000
0000
0000
0000
0000
0000
0000
0000
0000
0000
0000
0000
3001
0000
0000
0010
0000
0000
0100
0000
0000
0010
0000
0000
0001
0000
0000
1000
0000
0000
0010
0000
0000
1000
0000
0000
0001
0000
0000
0010
0000
0000
0100
0000
1000
0000
0001
0000
,
1000
0000
0000
0000
0001
0000
0100
0000
0001
0000
0000
0000
0010
0000
0000
0000
0100
0000
1000
0000
0100
0000
0000
0000
0010
0000
0000
0001
0000
0000
1000
0000
0000
0001
0000
0000
0200
0000
0000
0000
0000
0000
0310
0000
0000
0000
0000
0000
,
2010
0000
0000
0000
0000
0000
0000
0000
0000
0000
0000
0000
3001
0000
0000
0010
0000
0000
0100
0000
0000
0010
0000
0000
0002
0000
0000
0000
0000
0000
2003
0000
0000
0000
0000
0000
3001
0000
0000
0000
0100
0000
0000
0000
0001
0000
0000
0000
,
1000
0100
0010
0001
0100
1000
0100
0100
0010
0010
1000
0001
,
2002
0000
0000
0000
,
3003
0000
0000
0001
,
0202
0000
0000
0000
,
0303
0000
0000
1000
,
1100
0000
0100
0001
0000
0100
1000
0000
0100
0001
0000
0100
,
1000
0000
0010
0100
0000
0001
0010
0000
0100
0001
0000
0100
,
1000
0000
1010
0000
0110
0000
1001
0000
0011
0000
0110
0000
,
1000
0010
0100
0001
0100
1000
0001
0010
1000
0100
0010
0001
,
0020
0000
0000
0130
0000
1000
0100
0000
0100
0010
0000
0011
,
0000
0000
0001
1000
0100
0001
1000
0010
0001
1000
0100
1000
,
0020
0000
0000
0130
0000
0001
0100
0000
0100
0010
0000
1010
,
0000
0000
1000
0001
0010
1000
0001
0100
1000
0001
0100
0001
,
0010
0100
0010
0100
0000
1000
0001
0000
0010
0001
0000
1001
,
0000
0000
0100
1000
0100
0010
0001
0010
0100
1000
0010
1000
,
0002
0000
0000
0103
0000
0010
1000
0000
0010
0100
0000
0101
,
0000
0000
0001
1000
0100
0010
0001
0010
1000
0001
0100
1000
,
0002
0000
0000
0103
0000
0100
0020
0000
0000
1000
0000
0000
,
0000
0000
0000
0130
0000
0000
1001
0000
0000
0100
0010
0100
,
0001
0000
0001
0010
0000
0010
0100
0000
0100
1000
0000
1001
,
0000
0000
0001
0100
0010
0100
0001
1000
0001
0010
0100
1000
,
0010
0000
0000
0101
0000
0001
0010
0000
0100
0010
0000
0001
,
0000
0000
0000
0000
0001
0000
1000
0000
0100
0000
0010
0000
0002
0000
0000
0203
0000
0000
2300
0000
0000
3200
0000
0000
,
0301
0000
0010
0001
0000
0100
0001
0000
0001
1000
0000
0010
,
0200
0000
0000
0001
0000
0000
0320
0000
1000
0000
1000
0000
,
0130
0000
0000
0000
0000
0000
0001
0000
0000
0000
0001
0000
2000
0000
0000
0000
0000
0100
0000
0000
0000
0000
0010
0000
0000
0000
0000
0100
0000
0000
0000
0000
3001
0000
0000
0000
1100
0000
0000
0000
0110
0000
0000
0000
0011
0000
0000
0000
,
1001
0000
0000
0000
0000
0000
0000
0000
0000
0000
0000
0000
0010
0000
0000
0000
0000
0000
0000
0000
0100
0000
0000
0000
0002
0000
0000
0000
0000
0000
0000
0000
0000
0000
0000
1000
0000
0000
0000
0000
0000
0000
0000
0000
0000
0000
0013
0000
,
0000
0000
1100
0000
0000
0000
0000
0000
1001
0000
0000
0000
,
0001
0000
0001
0100
0000
0100
0010
0000
1010
0000
0000
0101
,
0000
0000
0001
1000
0100
0010
0001
0100
0010
1000
0100
0010
,
0001
0010
0100
1000
0010
0010
0001
0010
0100
1000
0100
0100
,
0001
0000
0101
0000
0000
0000
1010
0000
0000
1001
0000
0000
,
0220
0000
0000
0000
,
0330
0000
0000
0000
;
