#TITLE:Disco Nights;
#SUBTITLE:;
#ARTIST:Relect;
#TITLETRANSLIT:;
#SUBTITLETRANSLIT:;
#ARTISTTRANSLIT:;
#GENRE:;
#CREDIT:;
#BANNER:Disco Nights.png;
#BACKGROUND:Disco Nights-bg.png;
#LYRICSPATH:;
#CDTITLE:;
#MUSIC:Disco Nights.ogg;
#OFFSET:-0.080981;
#SAMPLESTART:46.947716;
#SAMPLELENGTH:12.000000;
#SELECTABLE:YES;
#BPMS:0.000000=128.000000
;
#STOPS:
;
#BGCHANGES:;
#KEYSOUNDS:;
#ATTACKS:;

//---------------dance-single - ----------------
#NOTES:
     dance-single:
     :
     Hard:
     12:
     0.567934,0.646148,0.527467,0.058607,0.664218,407.000000,353.000000,54.000000,6.000000,0.000000,0.000000,0.567934,0.646148,0.527467,0.058607,0.664218,407.000000,353.000000,54.000000,6.000000,0.000000,0.000000:
0000
0000
0000
0000
,
0000
0000
0000
0000
,
0000
0000
0000
0000
,
0000
0000
0000
0000
,
0000
0000
0000
0000
,
1000
0100
0000
0010
0000
0000
0100
0000
0000
1000
0000
0010
0000
0000
0100
0000
,
0001
0100
0000
0010
0000
0000
0100
0000
0000
0001
0000
0010
0000
0000
0100
0000
,
1000
0001
0000
0010
0000
0000
0100
0000
0000
0010
0000
0001
0000
0000
1000
0000
,
0001
1000
0000
0010
0000
0000
1000
0000
0000
0001
0000
0010
0000
0000
0001
0000
,
0101
0000
1100
0000
0101
0000
0000
0000
0100
0010
0000
1000
0000
0000
0001
0000
,
0100
0010
0000
1000
0000
0000
0001
0000
0100
0010
0000
1000
0000
0000
0001
0000
,
1000
0100
0000
0010
0000
0000
0001
0000
1000
0100
0000
0010
0000
0000
0001
0000
,
0100
0010
0000
1000
0000
0000
0001
0000
0100
0010
0000
1000
0000
0000
0001
0000
,
0000
1000
0000
0010
0000
0000
0101
0000
1000
0100
0000
0010
0000
0000
0001
0000
,
0100
0010
0000
1000
0000
0000
0001
0000
1000
0100
0000
0010
0000
0000
0001
0000
,
1000
0010
0000
0001
0000
0000
0010
0000
1000
0100
0000
0001
0000
0000
0100
0000
,
1000
0001
0000
0100
0000
0000
1000
0000
0000
0100
0000
0010
0000
0000
0100
0000
,
0102
1000
0010
1000
,
0100
0000
0100
0000
0010
0000
0103
1000
,
2100
0001
0010
0001
,
0100
0000
0100
0000
0010
0000
3100
0001
,
0101
0010
1000
0100
0010
0100
1000
0001
,
0110
0001
1000
0100
0010
0001
0100
0010
,
1010
1000
0100
0010
0011
0010
0100
1000
,
0001
0100
0001
0100
1000
0100
1000
0100
0010
1000
0010
1000
0001
0010
0001
0010
,
0100
1001
0110
0101
,
2000
0000
0000
0000
3001
0010
0001
0010
1000
0010
1000
0010
0100
1000
0100
1000
,
0001
1000
0101
0000
1100
0000
0011
0000
,
2000
0000
0000
0000
3001
0010
0001
0010
1000
0010
1000
0010
0100
1000
0100
1000
,
0001
1000
0101
0000
1010
0000
0011
0000
,
2000
0000
0000
0000
3001
0100
0001
0100
1000
0100
1000
0100
0010
1000
0010
1000
,
0001
0100
0000
0010
0000
0000
1000
0000
0001
0100
0000
0010
0000
0000
1000
0000
,
0001
0010
0000
0100
0000
0000
1000
0000
0001
0010
0000
0100
0000
0000
1000
0000
,
0001
0010
1100
0000
0101
0000
1100
0010
,
0020
0000
0000
0000
0031
1000
0001
1000
0010
0100
0010
0100
0001
0010
0001
0010
,
0100
1000
0101
0000
0110
0000
0011
0000
,
1100
0000
0000
0000
0100
0001
0100
0001
1000
0100
1000
0100
0010
0001
0010
0001
,
1000
0001
1100
0000
0110
0000
1010
0000
,
0101
0000
0000
0000
0100
1000
0100
1000
0001
0100
0001
0100
0010
1000
0010
1000
,
0001
1000
0101
0000
0110
0000
0011
0000
,
1100
0000
0000
0000
0100
0001
0100
0001
1000
0100
1000
0100
0010
0001
0010
0001
,
1000
0010
0000
0110
0000
0000
0001
0000
1000
0010
0000
0110
0000
0000
0001
0000
,
1000
0100
0000
0011
0000
0000
1000
0000
0001
0010
0000
1100
0000
0000
0001
0000
,
1000
0010
0000
0110
0000
0000
0101
0000
1000
0010
0000
0110
0000
0000
0101
0000
,
1000
0100
0000
0011
0000
0000
1100
0000
0001
0010
0000
1100
0000
0000
0011
0000
,
0000
1000
0000
0010
0000
0000
0101
0000
0001
1000
0000
0010
0000
0000
0101
0000
,
1000
0001
0000
0010
0000
0000
1100
0000
1000
0001
0000
0010
0000
0000
1100
0000
,
0001
0100
0000
1010
0000
0000
0001
0000
1000
0100
0000
0011
0000
0000
1000
0000
,
0001
0100
0000
1010
0000
0000
0001
0000
1000
0100
0000
0011
0000
0000
1000
0000
,
0001
0000
0000
0000
;

//---------------dance-single - ----------------
#NOTES:
     dance-single:
     :
     Medium:
     9:
     0.348854,0.356681,0.185590,0.136751,0.058607,250.000000,231.000000,19.000000,14.000000,0.000000,0.000000,0.348854,0.356681,0.185590,0.136751,0.058607,250.000000,231.000000,19.000000,14.000000,0.000000,0.000000:
0000
0000
0000
0000
,
0000
0000
0000
0000
,
0000
0000
0000
0000
,
0000
0000
0000
0000
,
0000
0000
0000
0000
0000
0000
0000
0001
,
1000
0000
0010
0000
1000
0100
1000
0000
,
0001
0000
0001
0000
0010
0001
0100
0000
,
0001
0000
0010
0000
0001
0100
0001
0000
,
1000
0000
1000
0000
0010
1000
0100
1000
,
0001
0001
0001
0000
0010
0000
0011
0000
,
0010
0100
1000
0001
1000
0010
1000
0000
,
0001
0000
0101
0000
1000
0001
1000
0000
,
0010
0100
0001
1000
0100
0010
0100
0000
,
2000
0000
3001
0000
0100
0010
0100
0000
,
0001
1000
0010
1000
0001
0010
0001
0000
,
1000
0000
1100
0000
0001
0100
0001
0000
,
1000
0010
1000
0000
0100
0010
0100
1000
,
0002
0100
1000
0103
,
0010
0100
1000
0001
,
2100
0100
0001
0100
,
3010
0000
0100
0000
0001
0000
0010
0100
,
2000
0000
0010
0000
3002
0000
0103
0010
,
0020
0000
1000
0000
0130
0000
0001
1000
,
0002
0013
0200
1300
,
0001
0000
0001
0000
1000
0100
0001
0100
,
2000
3100
0010
0100
,
1000
0000
0001
0010
0100
1000
0100
0010
,
0002
1003
0100
0010
,
0001
0000
1000
0100
0010
0001
0010
0100
,
2000
3001
0101
0010
,
1010
0000
0001
0010
0100
1000
0100
0010
,
0001
0000
0100
0000
0010
1000
0010
0000
,
0100
0000
0001
0000
1000
0100
1000
0000
,
0002
0000
0013
0000
0100
0000
1000
0001
,
1000
0000
0010
0100
0001
0100
0010
0100
,
0002
1003
1100
0001
,
0011
0000
0010
0100
1000
0100
0010
0100
,
2000
3001
0101
0010
,
1010
0000
1000
0001
0010
0100
1000
0100
,
0010
0001
0110
1000
,
0110
0000
0001
0010
0100
1000
0010
0100
,
0001
0000
0000
0001
0000
0000
0000
0000
1000
0000
0000
1000
0000
0000
0000
0000
,
0001
0000
0000
0001
0000
0000
0000
0000
1010
0000
0000
1010
0000
0000
0000
0000
,
0100
0000
0000
0100
0000
0000
0000
0000
0010
0000
0000
0010
0000
0000
0000
0000
,
0100
0000
0000
0100
0000
0000
0000
0000
0011
0000
0000
0011
0000
0000
0000
0000
,
0001
0100
0001
0000
1000
0100
1000
0000
,
0010
0000
0000
1010
0000
0000
0000
0000
0001
0000
0000
0101
0000
0000
0000
0000
,
0001
0010
0001
0000
1000
0010
1000
0000
,
0100
0000
0000
0110
0000
0000
0000
0000
1000
0000
0000
0001
0000
0000
0000
0000
;

//---------------dance-single - ----------------
#NOTES:
     dance-single:
     :
     Easy:
     5:
     0.251175,0.311108,0.146519,0.000000,0.000000,180.000000,165.000000,15.000000,0.000000,0.000000,0.000000,0.251175,0.311108,0.146519,0.000000,0.000000,180.000000,165.000000,15.000000,0.000000,0.000000,0.000000:
0000
0000
0000
0000
,
0000
0000
0000
0000
,
0000
0000
0000
0000
,
0000
0000
0000
0000
,
0000
0000
0000
0000
,
1000
0000
0010
0000
,
0001
0000
0010
0000
,
1000
0000
0100
0000
,
0001
0000
0100
0000
,
1000
0001
1000
0000
0010
0000
0010
0000
,
0100
0001
0101
0000
,
0001
0001
0010
0010
,
0100
1000
1100
0000
,
0010
0001
0010
0000
0100
0000
0100
0000
,
1000
0001
0101
0000
,
0010
1000
0010
0000
0100
0000
0100
0000
,
0001
1000
1100
0000
,
0001
0001
1000
1000
,
0001
0000
0001
0000
1000
0000
1000
0010
,
0100
0100
0010
0010
,
0100
0000
0100
0000
0010
0000
0010
1000
,
0001
0000
0001
0000
0010
0000
0100
1000
,
0001
0000
0001
0000
0010
0000
0100
1000
,
0001
0010
0001
0000
1000
0010
1000
0000
,
0100
0010
0001
1000
,
1001
0000
0110
0000
,
1001
0000
0000
0000
,
0010
1000
0100
0010
,
0100
1001
0000
0000
,
0010
0001
0100
0010
,
0100
1001
0000
0000
,
0010
0000
1000
0000
0001
0010
0001
0000
,
1000
0000
0010
0000
0100
0001
0100
0000
,
0010
1000
0001
1000
,
0100
0011
0000
0000
,
0010
0001
0100
0010
,
1000
1001
0000
0000
,
0001
0010
1000
0010
,
0001
1100
0000
0000
,
1000
0010
0001
0010
,
1000
0000
0101
0000
0000
0000
0000
0001
,
1000
0000
0010
0000
1000
0010
1000
0000
,
0001
0000
0010
0000
0001
0010
0001
0000
,
1000
0000
0100
0000
1000
0100
1000
0000
,
0001
0000
0100
0000
0001
0100
0001
0000
,
0000
0010
0100
0100
,
0010
0001
1000
1000
,
0010
1000
0010
0000
0100
0001
0100
0000
,
0010
1000
0001
0110
,
1001
0000
0000
0000
;

//---------------dance-single - ----------------
#NOTES:
     dance-single:
     :
     Beginner:
     2:
     0.146519,0.239314,0.078143,0.068375,0.000000,105.000000,97.000000,8.000000,7.000000,0.000000,0.000000,0.146519,0.239314,0.078143,0.068375,0.000000,105.000000,97.000000,8.000000,7.000000,0.000000,0.000000:
// measure 0
0000
0000
0000
0000
,  // measure 1
0000
0000
0000
0000
,  // measure 2
0000
0000
0000
0000
,  // measure 3
0000
0000
0000
0000
,  // measure 4
0000
0000
0000
0000
,  // measure 5
1000
0000
0000
0000
,  // measure 6
0100
0000
0000
0000
,  // measure 7
1000
0000
0000
0000
,  // measure 8
0010
0000
0000
0000
,  // measure 9
0100
0100
0000
0001
,  // measure 10
0000
0100
0000
0001
,  // measure 11
1000
1000
0000
0100
,  // measure 12
0000
1000
0000
0100
,  // measure 13
0000
0010
0000
0001
,  // measure 14
0000
0010
0000
0001
,  // measure 15
1000
1000
0000
0010
,  // measure 16
0000
1000
0000
0010
,  // measure 17
0100
0100
0100
0000
,  // measure 18
0100
0100
0100
0000
,  // measure 19
1001
0100
0100
0000
,  // measure 20
0100
0100
0100
0000
,  // measure 21
1001
0100
0100
0000
,  // measure 22
1001
0010
0010
0000
,  // measure 23
1001
0000
0101
0000
,  // measure 24
1100
0000
0010
0000
,  // measure 25
1001
0000
0000
0000
,  // measure 26
0001
2000
0000
0000
,  // measure 27
3010
0000
0100
0000
,  // measure 28
0010
2000
0000
0000
,  // measure 29
3100
0000
0010
0000
,  // measure 30
0100
2000
0000
0000
,  // measure 31
3001
0000
0010
0000
,  // measure 32
0001
0000
1000
0000
,  // measure 33
0010
0000
0100
0001
,  // measure 34
1000
0002
0000
0000
,  // measure 35
0013
0000
0100
0010
,  // measure 36
0100
2000
0000
0000
,  // measure 37
3001
0000
0100
0010
,  // measure 38
0100
0002
0000
0000
,  // measure 39
1003
0000
0100
0010
,  // measure 40
0100
2000
0000
0000
,  // measure 41
3001
0000
0100
0000
,  // measure 42
1000
0000
0100
0000
,  // measure 43
0001
0000
0010
0000
,  // measure 44
1000
0000
0010
0000
,  // measure 45
0000
0001
0000
0100
,  // measure 46
0000
0010
0000
1000
,  // measure 47
0000
0100
0000
0010
,  // measure 48
0000
0001
0000
1000
,  // measure 49
1001
0000
0000
0000
;
