#TITLE:Deep Vibes;
#SUBTITLE:;
#ARTIST:Carpainter;
#TITLETRANSLIT:;
#SUBTITLETRANSLIT:;
#ARTISTTRANSLIT:;
#GENRE:;
#CREDIT:;
#BANNER:Deep Vibes.png;
#BACKGROUND:Deep Vibes-bg.png;
#LYRICSPATH:;
#CDTITLE:;
#MUSIC:Deep Vibes.ogg;
#OFFSET:-0.086000;
#SAMPLESTART:40.727745;
#SAMPLELENGTH:15.480001;
#SELECTABLE:YES;
#BPMS:0.000000=124.000000
;
#STOPS:
;
#BGCHANGES:;
#KEYSOUNDS:;
#ATTACKS:;

//---------------dance-single - ----------------
#NOTES:
     dance-single:
     :
     Hard:
     12:
     0.522370,0.599015,0.072924,0.020835,0.640685,351.000000,344.000000,7.000000,2.000000,0.000000,0.000000,0.522370,0.599015,0.072924,0.020835,0.640685,351.000000,344.000000,7.000000,2.000000,0.000000,0.000000:
// measure 0
0000
0000
0000
0000
,  // measure 1
0000
0000
0000
0000
,  // measure 2
0000
0000
0000
0000
,  // measure 3
0000
0000
0000
0000
,  // measure 4
0000
0000
0000
0000
,  // measure 5
1000
0000
0001
0000
0000
0010
0000
0000
0100
0000
0000
0010
0000
0000
0001
0000
,  // measure 6
1000
0000
0010
0000
0000
0100
0000
0000
0001
0000
0000
0100
0000
0000
0010
0000
,  // measure 7
1000
0000
0001
0000
0000
0010
0000
0000
0100
0000
0000
0010
0000
0000
0001
0000
,  // measure 8
0000
0100
0000
0000
0010
0000
0000
1000
0000
0000
0010
0000
0000
0100
0000
0000
,  // measure 9
0001
0000
1000
0000
0000
0010
0000
0000
0100
0000
0000
0010
0000
0000
1000
0000
,  // measure 10
0001
0000
0010
0000
0000
0100
0000
0000
1000
0000
0000
0100
0000
0000
0010
0000
,  // measure 11
0001
0000
1000
0000
0000
0010
0000
0000
0100
0000
0000
0010
0000
0000
1000
0000
,  // measure 12
0000
0100
0000
0000
0010
0000
0000
0001
0000
0000
0010
0000
0000
0100
0000
0000
,  // measure 13
1000
0000
0001
0000
0010
0001
0000
0000
0100
0000
0000
0010
1000
0000
0001
0000
,  // measure 14
1000
0000
0010
0000
0100
0010
0000
0000
1000
0000
0000
0010
0100
0000
0001
0000
,  // measure 15
1000
0000
0001
0000
0010
0001
0000
0000
0100
0000
0000
0010
1000
0000
0001
0000
,  // measure 16
1000
0100
0000
0000
0010
0000
0000
0001
0010
0000
0100
0000
1000
0001
0000
0000
,  // measure 17
1000
0010
0001
0010
0100
0001
0010
0001
,  // measure 18
1000
0100
0001
0100
0010
0001
0100
0001
,  // measure 19
1000
0100
0010
0001
0100
0010
1000
0100
,  // measure 20
1001
0101
1100
0110
,  // measure 21
0001
0000
0010
0000
0001
1000
0000
0010
1000
0000
0100
0010
0000
0010
0001
0000
,  // measure 22
1000
0000
0001
0000
0100
0010
0000
0100
0001
0000
1000
0010
0000
0010
0100
0000
,  // measure 23
0001
0000
1000
0000
0100
0010
0000
0100
1000
0000
0001
0010
0000
0010
0001
0000
,  // measure 24
1000
0000
0010
0000
1000
0001
0000
0010
0001
0000
0100
0010
0000
0010
1000
0000
,  // measure 25
0001
0000
0010
0000
0001
1000
0000
0010
1000
0000
0100
0010
0000
0010
0001
0000
,  // measure 26
1000
0000
0001
0000
0100
0010
0000
0100
0001
0000
1000
0010
0000
0010
0100
0000
,  // measure 27
0001
0000
1000
0000
0100
0010
0000
0100
1000
0000
0001
0010
0000
0010
0001
0000
,  // measure 28
1000
0000
0100
0010
0100
0000
0000
1000
0000
0001
0000
0000
0011
0000
0000
0000
,  // measure 29
1000
0000
0010
0000
1000
0001
0000
0010
0001
0000
0100
0010
0000
0010
1000
0000
,  // measure 30
0001
0000
1000
0000
0100
0010
0000
0100
1000
0000
0001
0010
0000
0010
0100
0000
,  // measure 31
1000
0000
0001
0000
0100
0010
0000
0100
0001
0000
1000
0010
0000
0010
1000
0000
,  // measure 32
0001
0000
0010
0000
0001
1000
0000
0010
1000
0000
0100
0010
0000
0010
0001
0000
,  // measure 33
1000
0000
0010
0000
1000
0001
0000
0010
0001
0000
0100
0010
0000
0010
1000
0000
,  // measure 34
0001
0000
1000
0000
0100
0010
0000
0100
1000
0000
0001
0010
0000
0010
0100
0000
,  // measure 35
1000
0000
0001
0000
0100
0010
0000
0100
0001
0000
1000
0010
0000
0010
1000
0000
,  // measure 36
0001
0000
0010
0100
0010
0000
0000
0001
0000
1000
0000
0000
1010
0000
0000
0000
,  // measure 37
0010
0000
1000
0000
0001
0010
0000
0001
1000
0000
0100
0010
0000
0010
0001
0000
,  // measure 38
1000
0000
0010
0000
1000
0001
0000
1000
0100
0000
0010
0001
0000
0001
1000
0000
,  // measure 39
0001
0000
0100
0000
0010
1000
0000
0001
1000
0000
0100
0010
0000
0010
0100
0000
,  // measure 40
1000
0000
0001
0000
1000
0010
0000
1000
0001
0000
0100
0010
0000
0010
1000
0000
,  // measure 41
0001
0000
0010
0000
0100
1000
0000
0001
1000
0000
0100
0010
0000
0010
0001
0000
,  // measure 42
1000
0000
0010
0000
1000
0001
0000
1000
0100
0000
0010
0001
0000
0001
1000
0000
,  // measure 43
0001
0000
0100
0000
0010
1000
0000
0001
1000
0000
0100
0010
0000
0010
0100
0000
,  // measure 44
1000
0100
1000
0100
0010
0100
0010
0100
0010
0001
0010
0001
1000
0000
0000
0000
,  // measure 45
0202
0000
0000
0000
,  // measure 46
0303
0000
0000
0000
;

//---------------dance-single - ----------------
#NOTES:
     dance-single:
     :
     Medium:
     9:
     0.306576,0.335448,0.104176,0.052088,0.005209,206.000000,196.000000,10.000000,5.000000,0.000000,0.000000,0.306576,0.335448,0.104176,0.052088,0.005209,206.000000,196.000000,10.000000,5.000000,0.000000,0.000000:
0000
0000
0000
0000
,
0000
0000
0000
0000
,
0000
0000
0000
0000
,
0000
0000
0000
0000
,
0000
0000
0000
0000
,
1000
0100
0010
0001
,
1000
0010
0100
0001
,
1000
0100
0001
0100
,
1000
0001
0010
0001
,
1000
0100
0010
0001
,
1000
0010
0100
0001
,
1000
0010
0001
0010
,
1000
0001
0010
0001
,
1000
0100
1000
0000
0010
0000
0101
0000
,
0001
0100
0001
0000
0010
0000
1100
0000
,
1000
0100
2000
0000
0010
0000
3001
0000
,
0100
0001
0100
0000
0010
0000
1001
0000
,
1000
0010
1000
0000
0100
1000
0100
0000
,
0010
0001
0010
0000
0001
0100
0001
0000
,
1000
0010
1000
0000
0100
0000
0010
0000
,
0001
0001
0001
1100
,
0001
0000
1000
0000
0000
0010
0000
0000
1000
0000
0000
0000
0011
0000
0000
0000
,
1000
0100
1000
0000
0001
0100
0001
0000
,
1000
0010
0001
0010
,
1000
0100
1000
0000
0001
0000
0011
0000
,
0001
0100
0001
0000
1000
0100
1000
0000
,
0001
0010
1000
0010
,
0001
0100
0001
0000
1000
0000
1010
0000
,
1000
0000
0100
0000
0010
0001
2000
0000
,
3001
0010
0001
0000
0100
0001
0100
0000
,
0010
1000
0100
1000
,
0010
0100
0010
0000
1000
0000
1000
0000
,
0001
0010
0001
0000
0100
0000
0010
0000
,
1000
0010
1000
0000
0100
1000
0100
0000
,
0010
0001
0100
0001
,
0010
0100
0010
0000
0001
0000
0001
0000
,
1000
0000
0100
0000
0010
0001
2000
0000
,
3001
0100
0010
0100
0001
0000
0010
0000
,
0100
1000
0100
0000
0010
0001
0010
0000
,
0100
1000
0001
1000
,
0010
1010
0001
0101
,
1000
0100
0010
0100
1000
0000
0010
0000
,
0100
0001
0100
0000
0010
1000
0010
0000
,
0100
0001
1000
0001
,
0010
0100
1000
0100
0010
0000
0001
0000
,
2200
0000
0000
0000
,
3300
0000
0000
0000
;

//---------------dance-single - ----------------
#NOTES:
     dance-single:
     :
     Easy:
     6:
     0.267882,0.311488,0.093759,0.114594,0.000000,180.000000,171.000000,9.000000,11.000000,0.000000,0.000000,0.267882,0.311488,0.093759,0.114594,0.000000,180.000000,171.000000,9.000000,11.000000,0.000000,0.000000:
0000
0000
0000
0000
,
0000
0000
0000
0000
,
0000
0000
0000
0000
,
0000
0000
0000
0000
,
0000
0000
0000
0000
,
2000
0100
0100
0100
,
3002
0100
0100
0100
,
2003
0010
3002
0010
,
2003
0100
0100
0100
,
3002
0100
0100
0100
,
2003
0100
0100
0100
,
3002
0010
2003
0010
,
3002
0100
0100
0103
,
0010
0000
1000
0000
0010
1000
0010
0000
,
0100
0000
0001
0000
0100
0001
0100
0000
,
0001
0001
1000
1000
,
0100
0000
0010
0000
0100
0010
0100
0000
,
1000
1100
0001
0101
,
1000
1100
0001
0101
,
1000
0100
0010
0001
,
0100
0010
1000
0011
,
1000
0000
0100
0000
,
1000
0000
0001
0000
1000
0001
1000
0000
,
0010
0010
0100
0100
,
0001
1000
0100
0011
,
0001
0000
0100
0000
0001
0100
0001
0000
,
1000
1000
0100
0100
,
0010
0001
1000
0001
,
0100
0100
0010
1010
,
0001
0000
1000
0000
0001
0010
0001
0000
,
0100
0010
1000
0010
,
1000
0000
0100
0000
1000
0001
1000
0000
,
0100
0010
0001
1000
,
0001
0000
0100
0000
0001
1000
0001
0000
,
0100
0010
1000
0001
,
1000
0000
0100
0000
1000
0001
1000
0000
,
0010
0010
0100
0101
,
0001
0010
1000
0010
,
0001
0000
0001
0000
0100
0001
0100
0000
,
0010
1000
0100
1000
,
0001
0000
0001
0000
0010
0100
0010
0000
,
0001
0100
1000
0100
,
0001
0000
0001
0000
1000
0010
1000
0000
,
0001
0010
0100
1000
,
0010
0100
0001
1010
,
0200
0000
0000
0000
,
0300
0000
0000
0000
;

//---------------dance-single - ----------------
#NOTES:
     dance-single:
     :
     Beginner:
     3:
     0.123523,0.140638,0.010418,0.000000,0.000000,83.000000,82.000000,1.000000,0.000000,0.000000,0.000000,0.123523,0.140638,0.010418,0.000000,0.000000,83.000000,82.000000,1.000000,0.000000,0.000000,0.000000:
0000
0000
0000
0000
,
0000
0000
0000
0000
,
0000
0000
0000
0000
,
0000
0000
0000
0000
,
0000
0000
0000
0000
,
1000
0000
1000
0000
,
0001
0000
0001
0000
,
1000
0000
0010
0000
,
1000
0000
0000
0000
,
0001
0000
0001
0000
,
1000
0000
1000
0000
,
0001
0000
0010
0000
,
0001
0000
0000
0000
,
1000
0000
0100
0000
,
0010
0000
0010
0000
,
0001
0000
0100
0000
,
0001
0000
0000
0000
,
1000
0000
0010
0000
,
1000
0000
0010
0000
,
0100
0000
0001
0000
,
1000
0000
1000
0000
,
0001
0000
0000
0000
,
0010
0010
0010
0000
,
0001
0000
0001
0000
,
1000
0000
0010
0000
,
1000
0000
0001
0000
,
0010
0010
0010
0000
,
0001
0000
1000
0000
,
0010
0000
0010
0000
,
0100
0000
0001
0000
,
0100
0100
0100
0000
,
0001
0000
1000
0000
,
0001
0000
0010
0000
,
0001
0000
1000
0000
,
0100
0100
0100
0000
,
1000
0000
0001
0000
,
1000
0000
0000
0000
,
0001
0000
0100
0000
,
0001
0001
0001
0000
,
1000
0000
0010
0000
,
1000
0000
0001
0000
,
1000
0000
0010
0000
,
1000
1000
1000
0000
,
0001
0000
0010
0000
,
0001
0000
1000
0000
,
1001
0000
0000
0000
;
