#TITLE:抱きしめてモナムール;
#SUBTITLE:;
#ARTIST:冬色AMOUR☆Prim;
#TITLETRANSLIT:Dakishimete mon amour;
#SUBTITLETRANSLIT:;
#ARTISTTRANSLIT:Fuyuiro AMOUR Prim;
#GENRE:;
#CREDIT:;
#BANNER:Dakishimete mon amour.png;
#BACKGROUND:Dakishimete mon amour-bg.png;
#LYRICSPATH:;
#CDTITLE:;
#MUSIC:Dakishimete mon amour.ogg;
#OFFSET:0.211000;
#SAMPLESTART:57.255096;
#SAMPLELENGTH:11.360000;
#SELECTABLE:YES;
#BPMS:0.000000=190.000000
;
#STOPS:
;
#BGCHANGES:;
#KEYSOUNDS:;
#ATTACKS:;

//---------------dance-single - sessu----------------
#NOTES:
     dance-single:
     sessu:
     Hard:
     18:
     1.284870,1.244210,0.838865,0.072945,1.356773,1233.000000,1118.000000,115.000000,10.000000,0.000000,0.000000,1.284870,1.244210,0.838865,0.072945,1.356773,1233.000000,1118.000000,115.000000,10.000000,0.000000,0.000000:
// measure 0
0000
0000
0000
0000
,  // measure 1
0000
0000
0000
0000
0000
0000
0000
0000
0001
0100
0010
1000
0001
0100
0010
1000
,  // measure 2
0001
0010
0100
1000
0001
0010
0100
1000
0001
0100
0001
1000
0100
0010
0100
1000
,  // measure 3
0002
0000
0000
0000
0000
0000
1003
0100
1000
0100
0010
0001
1000
0100
0010
0001
,  // measure 4
1000
0010
0100
0001
1000
0010
0100
0001
1000
0010
0100
0010
1000
0001
0010
0001
,  // measure 5
2000
0000
0000
0000
0000
0000
3001
0100
0001
1000
0100
0010
0001
0010
0100
1000
,  // measure 6
0001
0010
0100
1000
0001
0010
0100
1000
0001
1000
0010
1000
0001
0100
0010
0100
,  // measure 7
0002
0000
0000
0000
0000
0000
1003
0100
1000
0001
0010
0100
1000
0100
0010
0001
,  // measure 8
1000
0000
0000
0010
0000
0000
0100
0000
0000
0001
0000
0000
1000
0000
0000
0010
0000
0000
0100
0000
0000
0001
0000
0000
1000
0000
0000
0010
0000
0000
1000
0000
0000
0000
0000
0000
0001
0000
0010
0000
0100
0000
1000
0000
0000
0000
0000
0000
,  // measure 9
0002
0000
0000
0000
1003
0100
0010
0001
1000
0000
1000
0000
0010
0100
0010
0100
,  // measure 10
0001
0010
0001
0010
0100
1000
0101
0101
,  // measure 11
1000
0010
1000
0010
0100
0001
1100
1100
,  // measure 12
0001
0000
0000
0010
0000
0000
0001
0000
0000
0010
0000
0000
0100
0000
0000
1000
0000
0000
1001
0000
0000
1000
0010
0100
,  // measure 13
0002
0000
0000
0000
0000
0000
0000
0000
1003
0000
1000
0000
1000
0000
0010
1000
,  // measure 14
0001
0010
0100
0010
0001
0010
0100
0000
1000
0100
0010
0100
1000
0100
0010
0000
,  // measure 15
0001
1000
0100
1000
0001
1000
0100
0000
1000
0001
0010
0001
1000
0001
0010
0100
,  // measure 16
1000
0001
0010
0001
1000
0001
0010
0000
0100
1000
0100
0010
0100
1000
0100
0000
,  // measure 17
1000
0100
0010
0100
1000
0100
0010
0000
0001
0010
0100
0010
0001
0010
0100
1000
,  // measure 18
0001
0100
0010
0100
0001
0100
0010
0000
1000
0010
0100
0010
1000
0010
0100
0000
,  // measure 19
0001
1000
0010
1000
0001
1000
0010
0000
0100
0001
1000
0001
0100
0001
1000
0010
,  // measure 20
1000
0001
0010
0100
1000
0100
0010
0001
1000
0010
0100
0001
1000
0100
0010
0001
,  // measure 21
2000
0000
0000
0000
0000
0000
0000
0000
3001
0000
0001
0000
0001
0000
0010
0001
,  // measure 22
1000
0010
0100
0001
0100
0010
0100
0000
0001
1000
0100
0010
0001
0010
0100
0000
,  // measure 23
1000
0100
0010
0100
1000
0001
1000
0000
0010
0100
0001
0100
0010
1000
0001
0000
,  // measure 24
0010
0100
1000
0001
1000
0100
0010
0000
0001
1000
0010
0100
0001
0100
0010
0000
,  // measure 25
1000
0001
1000
0010
0100
0001
0100
0000
0001
1000
0001
0010
0100
1000
0100
0000
,  // measure 26
0010
0001
1000
0100
0010
0100
1000
0000
0010
1000
0001
0100
0010
0100
0001
0000
,  // measure 27
1000
0100
0010
0001
1000
0010
1000
0000
0001
0010
0100
1000
0001
0010
0001
1000
,  // measure 28
0010
0100
0010
0100
0001
0100
0001
0100
0010
1000
0001
1000
0100
0010
0001
1000
,  // measure 29
0001
0000
0010
0000
0100
1000
0001
0001
,  // measure 30
1100
0010
0001
1100
1100
0010
0001
0010
,  // measure 31
1100
1100
0010
1100
1100
0010
0001
1000
,  // measure 32
0101
0010
1000
0101
0101
0010
1000
0010
,  // measure 33
0101
0101
0010
0101
0101
0010
1000
0001
,  // measure 34
1100
0010
0001
1100
1100
0010
0001
0010
,  // measure 35
1100
1100
0010
1100
1100
0010
0001
1000
,  // measure 36
0101
0010
1000
0101
0101
0010
1000
0010
,  // measure 37
0101
0101
0010
0101
0101
0010
0010
0010
,  // measure 38
1001
0010
0001
1100
1100
0010
0001
0010
,  // measure 39
1100
1100
0010
1100
1100
0010
0001
1000
,  // measure 40
0101
0010
1000
0101
0101
0001
0010
0010
,  // measure 41
0001
0000
0000
1000
0000
0000
0010
0000
0000
0010
0000
0000
0100
0000
0000
0001
0000
0000
1001
0000
0000
1000
0100
0010
,  // measure 42
0001
0000
0010
0000
0001
0000
0101
0000
0010
0000
1000
0000
1100
0000
0001
1000
,  // measure 43
0001
0000
0010
0000
0100
0000
1100
0000
0100
0000
1000
0000
0001
1000
0001
1000
,  // measure 44
0010
0000
1010
0000
1001
0000
0011
0000
0100
0000
0000
0100
0000
0000
0100
0000
,  // measure 45
1001
0000
0000
0000
0000
0000
0000
0000
0001
0010
0100
1000
0001
0010
0100
1000
,  // measure 46
0001
0000
0100
0001
0000
0100
0001
0010
0001
0000
0100
0001
0000
0100
0001
0010
,  // measure 47
0001
0000
0100
0001
0000
0100
0001
0010
0001
0100
0010
1000
0001
0100
0010
1000
,  // measure 48
0001
0000
0010
0100
0010
0000
0100
1000
0100
0000
0010
0001
1000
0000
1000
0000
,  // measure 49
0010
0000
1000
0001
1000
0000
0100
0000
1000
0010
0100
0001
1000
0010
0100
0001
,  // measure 50
1000
0000
0100
1000
0000
0100
1000
0010
1000
0000
0100
1000
0000
0100
1000
0010
,  // measure 51
0100
0000
0001
0100
0000
0001
0100
0010
0100
0000
0001
0100
0000
0001
0100
0010
,  // measure 52
1000
0000
0010
0100
0010
0000
0100
0001
0100
0000
0001
1000
0001
0010
0100
1000
,  // measure 53
0001
0000
0000
0011
0000
0000
1100
0000
0000
0000
0100
0000
0010
0000
0001
1000
,  // measure 54
0001
0000
0100
0001
0000
0100
0001
0010
0001
0000
0100
0001
0000
0100
0001
0010
,  // measure 55
0001
0000
0100
0001
0000
0100
0001
0010
0001
0100
0010
1000
0001
0100
0010
1000
,  // measure 56
0001
0000
0010
0100
0010
0000
0100
1000
0100
0000
0010
0001
1000
0000
1000
0000
,  // measure 57
0010
0000
0100
0001
0100
0000
0010
0000
1000
0010
0100
0001
1000
0010
0100
0001
,  // measure 58
1000
0000
0000
0000
0000
0000
1000
0000
0000
0000
0000
0000
0001
0000
0000
0000
0000
0000
0001
0000
0000
0000
0000
0000
1000
0000
0000
0010
0000
0000
0100
0000
0000
0001
0000
0000
1000
0000
0000
0010
0000
0000
1000
0000
0100
0000
0010
0000
,  // measure 59
0001
0000
0000
0000
0000
0000
0010
0000
0011
0000
0000
0110
0000
0000
1001
0000
,  // measure 60
1000
0000
0010
0100
0010
0000
1010
0000
0001
0000
0010
0100
0010
0000
0011
0000
,  // measure 61
1000
0010
0100
0001
1000
0010
0100
0001
1000
0100
0010
0001
1000
0001
0010
0100
,  // measure 62
1000
0001
0010
0001
0010
0001
1000
0001
0010
0001
0010
0001
1000
0001
0100
0001
,  // measure 63
0100
0001
1000
0001
0100
0001
0100
0001
1000
0001
0100
0010
1000
0001
0010
0100
,  // measure 64
1000
0100
0010
0100
0010
0100
1000
0001
0010
0001
0010
0001
1000
0100
0010
0100
,  // measure 65
0010
0100
1000
0001
0010
0001
0010
0001
1000
0100
0010
0100
1000
0001
0100
0010
,  // measure 66
1000
0100
1000
0010
0100
0001
1000
0001
0020
0000
0000
0000
0100
0000
0100
0000
,  // measure 67
0130
1000
0001
1000
0010
0100
0001
0100
0010
1000
0100
0010
0001
1000
0001
0010
,  // measure 68
0100
0000
0100
0000
0100
0000
0100
0000
0100
1000
0001
0010
0100
0000
0010
0001
,  // measure 69
0200
0010
0000
0010
0000
0001
0000
0301
,  // measure 70
1000
0010
1000
0101
0101
0010
1000
0001
,  // measure 71
1100
1100
0001
1100
1100
0010
0001
1000
,  // measure 72
1001
0010
1000
0101
0101
1000
0010
1000
,  // measure 73
0011
0011
1000
0011
0011
0100
1000
0001
,  // measure 74
1001
0010
0001
1100
1100
0010
0001
1000
,  // measure 75
0101
0101
1000
0101
0101
0010
1000
0001
,  // measure 76
1001
0010
0100
0011
0011
0100
1000
0001
,  // measure 77
1100
1100
0001
1100
1100
0010
0010
0010
,  // measure 78
1001
0010
0001
1100
1100
0010
0001
1000
,  // measure 79
0101
0101
1000
0101
0101
0010
1000
0001
,  // measure 80
1001
0010
0001
1010
1010
0001
0010
0010
,  // measure 81
0001
0000
0000
1000
0000
0000
0010
0000
0000
0010
0000
0000
1000
0000
0000
0010
0000
0000
1001
0000
0000
1000
0100
0010
,  // measure 82
0001
0000
0010
0000
0001
0000
0101
0000
0010
0000
1000
0000
1100
0000
0100
1000
,  // measure 83
0001
0000
0010
0000
0100
0000
1100
0000
0100
0000
1000
0000
0001
1000
0001
1000
,  // measure 84
0010
1010
1001
0011
0000
0110
0000
1001
,  // measure 85
0000
0000
0000
0000
0000
0000
0000
0000
0001
0000
1000
0010
1000
0100
0010
0001
,  // measure 86
1000
0000
0010
1000
0000
0010
1000
0100
1000
0000
0010
1000
0000
0010
1000
0100
,  // measure 87
1000
0000
0010
1000
0000
0010
1000
0100
1000
0010
0100
0001
1000
0010
0100
0001
,  // measure 88
1000
0000
0100
0010
0100
0000
0010
0001
0010
0000
0100
1000
0001
0000
0001
0000
,  // measure 89
0100
0000
0001
1000
0001
0000
0100
0000
0001
0010
0100
1000
0001
0010
0100
1000
,  // measure 90
0001
0000
0010
0001
0000
0010
0001
0100
0001
0000
0010
0001
0000
0010
0001
0100
,  // measure 91
0010
0000
1000
0010
0000
1000
0010
0100
0010
0000
1000
0010
0000
1000
0010
0100
,  // measure 92
0001
0000
0000
0000
0000
0000
0100
0000
0000
0010
0000
0000
0100
0000
0000
0000
0000
0000
0010
0000
0000
1000
0000
0000
0001
0000
0000
0010
0000
0000
0100
0000
0000
1000
0000
0000
0001
0000
0000
0100
0000
0000
0001
0000
0010
0000
0100
0000
,  // measure 93
1000
0000
0000
1100
0000
0000
0011
0000
0000
0000
0010
0100
1000
0001
1000
0000
,  // measure 94
0001
0000
0010
0001
0000
0010
0001
0100
0001
0000
0010
0001
0000
0010
0001
0100
,  // measure 95
0001
0000
0010
0001
0000
0010
0001
0100
0001
0010
0100
1000
0001
0010
0100
1000
,  // measure 96
0001
0000
0100
0010
0100
0000
0010
1000
0010
0000
0100
0001
1000
0000
1000
0000
,  // measure 97
0010
0000
0100
0001
0100
0000
0010
0000
1000
0100
0010
0001
1000
0100
0010
0001
,  // measure 98
1000
0000
0000
0000
0000
0000
1000
0000
0000
0000
0000
0000
0001
0000
0000
0000
0000
0000
0001
0000
0000
0000
0000
0000
1000
0000
0000
0010
0000
0000
0100
0000
0000
0001
0000
0000
1000
0000
0000
0010
0000
0000
1000
0000
0100
0000
0010
0000
,  // measure 99
0001
0000
0000
0000
0000
0000
0010
0000
0011
0000
0000
0110
0000
0000
1001
0000
,  // measure 100
1000
0000
0010
0100
0010
0000
1010
0000
0001
0000
0010
0100
0010
0000
0011
0000
,  // measure 101
1000
0010
0100
0001
1000
0010
0100
0001
1000
0100
0010
0001
1000
0001
0010
0100
,  // measure 102
0010
1001
0000
0000
1001
0010
1100
2002
,  // measure 103
0000
0000
0000
3003
0000
0000
0000
0000
;
