#TITLE:Clear Tamei;
#SUBTITLE:;
#ARTIST:IGLOOGHOST;
#TITLETRANSLIT:;
#SUBTITLETRANSLIT:;
#ARTISTTRANSLIT:;
#GENRE:;
#CREDIT:;
#BANNER:Clear Tamei.png;
#BACKGROUND:Clear Tamei-bg.png;
#LYRICSPATH:;
#CDTITLE:;
#MUSIC:Clear Tamei.ogg;
#OFFSET:3.080000;
#SAMPLESTART:95.829002;
#SAMPLELENGTH:11.636000;
#LASTBEATHINT:2.814689;
#SELECTABLE:YES;
#DISPLAYBPM:83.000000:165.000000;
#BPMS:0.000000=82.500000
,136.000000=165.000000
,168.000000=82.500000
,170.500000=165.000000
,181.500000=330.000000
,183.500000=165.000000
,191.000000=82.500000
,193.000000=165.000000
,257.000000=82.500000
,353.000000=165.000000
;
#STOPS:181.500000=0.061000,
181.833328=0.061000,
182.166672=0.061000,
182.500000=0.061000,
182.833328=0.061000,
183.166672=0.061000,
183.500000=0.727000,
184.500000=0.182000
;
#BGCHANGES:0.000=Clear Tamei-bg.png=1.000=0=0=1=====,
5.000=Clear Tamei.mp4=1.000=1=0=1===CrossFade==,
484.000=Clear Tamei-bg.png=1.000=1=0=1===CrossFade==,
99999=-nosongbg-=1.000=0=0=0 // don't automatically add -songbackground-
;
#KEYSOUNDS:;
#ATTACKS:;

//---------------dance-single - ----------------
#NOTES:
     dance-single:
     sessu:
     Hard:
     16:
     0.605593,0.701119,0.091575,0.202228,0.637208,1111.000000,1087.000000,24.000000,53.000000,0.000000,0.000000,0.605593,0.701119,0.091575,0.202228,0.637208,1111.000000,1087.000000,24.000000,53.000000,0.000000,0.000000:
// measure 0
0000
0000
0000
0000
,  // measure 1
0000
0000
0000
0000
,  // measure 2
2000
0000
0000
0000
0000
0000
3100
0000
0010
0000
0001
0000
1000
0100
0000
0000
,  // measure 3
1000
0000
0010
0000
1000
0000
0001
0010
0100
0000
0010
0000
0001
1000
0001
0000
,  // measure 4
0100
0000
0000
0000
0010
1000
0010
0000
0100
0000
0001
1000
0001
0000
0000
0000
,  // measure 5
1000
0100
1000
0000
0010
0000
0100
0000
0001
0010
0100
0010
0001
1000
0100
1000
,  // measure 6
0002
0000
0000
0000
0000
0000
0103
0000
0010
0000
1000
0001
1000
0000
0000
0000
,  // measure 7
0010
0000
0100
0001
0010
0001
0100
0000
0010
0000
1000
0100
0020
0000
0100
0000
,  // measure 8
0031
0000
1000
0000
0001
0100
1000
0100
0001
0000
1000
0010
1000
0000
0001
0010
,  // measure 9
0100
0000
0100
0000
0010
0001
0010
0001
1000
0000
0010
0100
0010
0000
1000
0000
,  // measure 10
1100
0000
0000
0010
0100
1000
0001
0000
0101
0000
0010
0100
0001
0100
0010
0000
,  // measure 11
1010
0000
0001
0010
0100
0010
0001
0000
1100
0000
0001
0010
0100
0010
0001
1000
,  // measure 12
1200
0000
0000
0000
0310
0001
0010
0000
1001
0000
0100
1000
0200
0000
0000
0000
,  // measure 13
0310
0001
1000
0000
0001
0000
0100
0000
0010
1000
0100
1000
0001
0010
0100
1000
,  // measure 14
0002
0000
0000
0100
0000
0000
0013
0000
0010
0000
0100
1000
0100
0000
0000
0000
,  // measure 15
0020
0000
0031
1000
0010
1000
0001
0000
0100
0010
0100
0001
1000
0000
1000
0100
,  // measure 16
1000
0000
0100
0000
0001
0100
1000
0100
0010
0000
0001
0100
0001
0000
1000
0010
,  // measure 17
1000
0000
0100
0000
0001
0100
1000
0100
0010
0000
0001
1000
0001
0000
0100
0010
,  // measure 18
2000
0000
0000
0000
0000
0000
0000
0000
3100
0000
0010
0001
1000
0001
0100
0010
,  // measure 19
0100
0000
0000
0000
0000
0000
0000
0000
0000
0010
0000
0000
1000
0000
0000
0000
0000
0000
0100
0000
0000
0000
0000
0000
0010
0000
0000
0001
0000
0000
0010
0000
0000
0000
0000
0000
0100
0000
0000
0000
0000
0000
1000
0000
0100
0000
0001
0000
,  // measure 20
0200
0000
0000
0000
0000
0000
0000
0000
0310
0000
0001
1000
0010
1000
0100
1000
,  // measure 21
0001
0000
0000
0000
0000
0000
0000
0000
0000
1000
0000
0000
0001
0000
0000
0000
0000
0000
0100
0000
0000
0000
0000
0000
0010
0000
0000
1000
0000
0000
0010
0000
0000
0000
0000
0000
0100
0000
0000
0000
0000
0000
0001
0000
0100
0000
1000
0000
,  // measure 22
0200
0000
0000
0000
0000
0000
0000
0000
0310
0000
1000
0001
0010
0001
0100
0001
,  // measure 23
1000
0000
0010
0100
0010
0000
1000
0000
0100
0010
0100
0000
1000
0000
0001
0100
,  // measure 24
0020
0000
0000
0000
0000
0000
0000
0000
1030
0000
0100
0010
0001
0010
0100
1000
,  // measure 25
0001
0000
0000
0000
0000
0000
0100
0000
0000
0010
0000
0000
0100
0000
0000
0000
0000
0000
0001
0000
0000
0000
0000
0000
1000
0000
0000
0010
0000
0000
1000
0000
0000
0000
0000
0000
0100
0000
0000
0000
0000
0000
0010
0000
0001
0000
0010
0000
,  // measure 26
0100
1000
0001
0020
0000
0000
0000
0000
0000
0000
0000
0000
0000
0000
0000
0000
,  // measure 27
0130
1000
0001
1000
0010
0100
0002
0000
0000
0000
0000
0000
0000
0000
0000
0000
0000
0000
0000
0000
0000
0000
0000
0000
0000
0000
0000
0000
0000
0000
0000
0000
,  // measure 28
1003
0000
0100
0000
0010
0000
0001
0000
0100
0000
0010
0000
0000
1000
0000
0000
,  // measure 29
0200
0000
0320
0000
,  // measure 30
0031
0000
1000
0000
0100
0000
0010
0000
0002
0000
0000
0000
0000
0000
0000
0000
0020
0030
0000
0000
0000
0000
0000
0000
0200
0300
0000
0000
0000
0000
0000
0000
,  // measure 31
2003
0000
0000
0000
0000
0000
0000
0000
0000
0000
0000
0000
0000
0000
0000
0000
0020
0030
0000
0000
0000
0000
0000
0000
0200
0300
0000
0000
0000
0000
0000
0000
,  // measure 32
3002
0010
2003
0100
3002
0000
0203
0000
,  // measure 33
0320
1030
0002
0000
,  // measure 34
1003
0000
0010
0000
1000
0100
0010
0100
0010
0100
1000
0100
0010
0100
1000
0001
,  // measure 35
0100
0000
0100
0000
0010
1000
0001
1000
0001
1000
0010
1000
0001
1000
0010
0100
,  // measure 36
0001
0000
0001
0000
0010
0100
1000
0100
1000
0100
0010
0100
1000
0100
0010
0001
,  // measure 37
1000
0000
1000
0000
0010
0100
0001
0100
0010
0000
1000
0100
0010
0100
1000
0001
,  // measure 38
0100
0000
0100
0000
0010
1000
0100
1000
0100
1000
0010
1000
0100
1000
0010
1000
,  // measure 39
0001
0000
0001
0000
0010
0100
1000
0010
0100
0001
0010
0100
1000
0010
0100
0001
,  // measure 40
1000
0000
1000
0000
0001
0010
0100
0010
0100
0010
0001
0010
0100
0010
0001
1000
,  // measure 41
0100
0000
0100
0000
0010
0001
0100
0001
0010
0000
0001
0100
1000
0100
0001
1000
,  // measure 42
0002
0000
0000
0000
0010
0000
0000
0000
0000
0000
1003
0100
1000
0100
0010
0001
,  // measure 43
0100
0010
0100
0001
0010
0100
1000
0000
1000
0000
0010
0100
0001
0100
0001
0100
,  // measure 44
0010
1000
0100
1000
0010
0100
0001
0000
0001
0000
0010
0100
1000
0100
0010
0000
,  // measure 45
0010
0000
0000
0001
0000
0000
0100
0000
0000
0001
0000
0000
0010
0000
0000
0100
0000
0000
1000
0000
0000
0000
0010
0000
0000
0000
0001
0000
0000
0000
1000
0000
0000
0000
0100
0000
0000
0000
0001
0000
0000
0000
1000
0000
0000
0000
0000
0000
,  // measure 46
0000
0000
0101
0000
0010
1000
0100
0010
0100
1000
0010
0100
0002
0000
0000
0000
,  // measure 47
0000
0000
0000
0010
,  // measure 48
1000
0000
0000
0000
0103
0000
0000
0000
0010
1000
0001
1000
0001
1000
0010
0100
,  // measure 49
0001
0100
0010
1000
0100
0000
0000
0000
0010
0001
1000
0010
0100
0001
0010
0000
,  // measure 50
0100
0000
1000
0001
0100
0000
0100
0000
0010
1000
0001
1000
0001
1000
0010
0100
,  // measure 51
0001
0100
0010
1000
0100
0000
0000
0100
0010
0001
1000
0001
1000
0001
0010
0100
,  // measure 52
1000
0001
1000
0001
0100
0000
0000
0000
0010
1000
0001
1000
0001
1000
0010
0100
,  // measure 53
0001
0100
0010
1000
0100
0000
0000
0000
0010
0001
1000
0010
0100
0001
0010
0000
,  // measure 54
0100
0000
0100
1000
0100
0000
0000
0000
0010
0001
1000
0001
1000
0001
0010
0100
,  // measure 55
1000
0100
0010
0001
0100
0000
0000
0100
0010
1000
0001
1000
0001
1000
0010
0100
,  // measure 56
0001
1000
0001
1000
0200
0000
0000
0000
0000
0000
0000
0000
0000
0000
0000
0000
,  // measure 57
0310
0000
0001
0000
1100
0101
1200
0000
,  // measure 58
0000
0000
0310
0000
0001
0100
1000
0100
,  // measure 59
0001
0000
0010
0000
0100
1000
0001
0100
,  // measure 60
0010
1000
1200
0000
0010
0000
0301
0100
,  // measure 61
1000
0100
0010
0000
0001
1000
0001
0000
,  // measure 62
0100
0010
2010
0000
3010
0200
0001
0000
,  // measure 63
0310
1000
0001
0000
0010
0200
1000
0000
,  // measure 64
0310
0001
2100
0001
0010
0001
3100
0010
,  // measure 65
0001
0010
0100
0000
1000
0010
0001
0010
,  // measure 66
1000
0001
0200
0000
0000
0000
0310
1000
,  // measure 67
0100
1000
0010
0000
1000
0100
0001
0100
,  // measure 68
1000
0010
0200
0000
0000
0000
0301
0010
,  // measure 69
0100
0010
0001
0000
1000
0010
0001
0010
,  // measure 70
1000
0000
0102
0000
0000
0000
1003
0010
,  // measure 71
1000
0010
1000
0000
0001
0100
1000
0100
,  // measure 72
0001
0010
0200
1000
0001
1000
0310
0001
,  // measure 73
0100
0001
0010
0010
0001
0100
1000
0100
,  // measure 74
0001
1000
0001
1000
1200
0000
0000
0000
0000
0000
0000
0000
1300
0000
0010
0000
,  // measure 75
0100
0010
1000
1000
0001
0100
1000
0100
,  // measure 76
0001
0010
2001
0000
0000
0000
3010
0100
,  // measure 77
0001
0100
0010
0000
1000
0100
0001
0100
,  // measure 78
1000
0001
0000
0001
0020
0000
0000
0000
0000
0000
0000
0000
0130
0000
1000
0000
,  // measure 79
0010
1000
0001
0000
0100
0001
0010
0001
,  // measure 80
1000
0010
0102
0000
0000
0000
1000
0010
,  // measure 81
0100
0010
2003
0000
0100
0001
0010
0001
,  // measure 82
3100
0000
0000
0000
0010
0001
0010
0000
0200
0000
0000
0000
0000
0000
0000
0000
0000
0000
0000
0000
0000
0000
0000
0000
0010
0000
0000
0000
1000
0000
0000
0000
,  // measure 83
0001
1000
0320
0000
0001
0100
1000
0230
,  // measure 84
0001
0000
2300
0000
0000
0000
0010
0001
,  // measure 85
0100
0001
3020
0000
0100
1000
0100
0001
,  // measure 86
0130
0000
0000
0000
0001
1000
0001
0000
0200
0000
0000
0000
0000
0000
0000
0000
0000
0000
0000
0000
0000
0000
0000
0000
0010
0000
0000
0000
1000
0000
0000
0000
,  // measure 87
0010
0001
0310
0000
1000
0100
0001
0100
,  // measure 88
1000
0000
0000
0000
0001
0000
0000
0000
0010
0100
1000
0001
1000
0100
0010
0000
,  // measure 89
0000
0000
0000
0000
0001
0000
0000
0000
1000
0010
0100
0001
0100
0010
1000
0000
,  // measure 90
0001
0000
1000
0100
1000
0000
1000
0000
0010
0100
0001
1000
0001
0100
0010
1000
,  // measure 91
0100
1000
0010
0100
0001
0000
0000
0001
1000
0100
0010
0001
0010
0100
1000
0001
,  // measure 92
1000
0010
1000
0010
0100
0000
0000
0000
0001
0010
0100
1000
0001
1000
0100
0010
,  // measure 93
0001
1000
0100
1000
0001
0000
0000
0000
0100
0010
1000
0001
1000
0010
0100
0000
,  // measure 94
0001
0000
0001
1000
0001
0000
0000
0000
1000
0100
0010
0001
1000
0001
0010
0100
,  // measure 95
1000
0001
0100
0001
1000
0000
0000
1000
0001
0100
0010
0100
0001
1000
0100
1000
,  // measure 96
0001
0010
0001
0010
0100
0000
0000
0000
0011
0000
0100
0000
0000
0000
1001
0000
,  // measure 97
0000
0000
0000
0000
1010
0000
0000
0000
0001
0010
0100
0010
0001
1000
0001
0000
,  // measure 98
0100
0000
0100
0001
1000
0000
1000
0000
0100
0010
0001
1000
0001
0010
0100
1000
,  // measure 99
0001
0100
0010
0100
0001
0000
0000
0001
0010
0100
1000
0100
1000
0100
0010
0001
,  // measure 100
1000
0010
1000
0010
0100
0000
0000
0000
1010
0000
0100
0000
0000
0000
1001
0000
,  // measure 101
0000
0000
0000
0000
0011
0000
0000
0000
0100
1000
0001
0010
0100
0010
0001
0000
,  // measure 102
1000
0000
1000
0010
0100
0000
0000
0000
0001
0010
0100
1000
0001
1000
0100
0010
,  // measure 103
0001
1000
0010
0100
0010
0000
0000
0010
1000
0001
0010
0001
1000
0000
0100
0010
,  // measure 104
0001
1000
0001
1000
0100
0000
0100
0000
1000
0001
0100
0010
1000
0010
0100
0001
,  // measure 105
1000
0001
0010
0000
0100
0000
0100
0000
0010
0001
1000
0001
1000
0001
0010
0100
,  // measure 106
1000
0100
0010
0001
0100
0000
0100
0000
0010
1000
0001
1000
0001
1000
0010
0100
,  // measure 107
0001
0100
0010
1000
0100
0000
0100
0000
0010
0001
1000
0001
0010
0000
0100
1000
,  // measure 108
0010
1000
0001
1000
0100
0000
0100
0000
0010
0001
1000
0001
1000
0001
0010
0100
,  // measure 109
1000
0100
0010
0001
0100
0000
0100
0000
0010
1000
0001
1000
0001
1000
0010
0100
,  // measure 110
0001
0100
0010
1000
0100
0000
0100
0000
0010
0001
1000
0100
0010
0001
1000
0001
,  // measure 111
0010
0001
1000
0010
0100
0000
0100
0000
0010
1000
0001
0100
0010
0000
1000
0100
,  // measure 112
0001
0100
1000
0000
0001
0000
0000
0000
0010
0000
0100
0000
0000
0000
1000
0000
,  // measure 113
0100
0000
0020
0000
0000
0001
0000
0000
,  // measure 114
0130
1000
0001
0000
0100
0010
0000
0100
,  // measure 115
0001
0000
1000
0000
0000
0100
0000
0000
,  // measure 116
0010
0001
1100
0000
0010
0100
0000
1000
,  // measure 117
0100
0000
0010
0000
0000
0001
0000
0000
,  // measure 118
1000
0010
1000
0100
0010
0001
0100
0010
,  // measure 119
1000
0001
0100
0010
1000
0100
0010
0001
,  // measure 120
1000
0002
0000
0000
0000
0000
0000
0000
,  // measure 121
0000
0000
0000
0000
,  // measure 122
0000
0000
0003
0000
;
