#TITLE:Casin;
#SUBTITLE:;
#ARTIST:glue70;
#TITLETRANSLIT:;
#SUBTITLETRANSLIT:;
#ARTISTTRANSLIT:;
#GENRE:;
#CREDIT:;
#BANNER:;
#BACKGROUND:;
#LYRICSPATH:;
#CDTITLE:;
#MUSIC:Casin.ogg;
#OFFSET:0.000000;
#SAMPLESTART:4.607716;
#SAMPLELENGTH:18.459990;
#SELECTABLE:YES;
#BPMS:0.000000=104.000000
;
#STOPS:71.500000=0.577000
;
#BGCHANGES:;
#KEYSOUNDS:;
#ATTACKS:;

//---------------dance-single - ----------------
#NOTES:
     dance-single:
     :
     Hard:
     12:
     0.515429,0.469134,0.009420,0.018841,0.480439,383.000000,382.000000,1.000000,2.000000,0.000000,0.000000,0.515429,0.469134,0.009420,0.018841,0.480439,383.000000,382.000000,1.000000,2.000000,0.000000,0.000000:
0000
0000
0000
0000
,
0000
0000
0000
0000
,
1000
0100
0010
0001
1000
0100
0010
0001
1000
0000
0010
0000
1000
0000
0000
0000
,
0001
0000
0100
0010
0000
0000
0100
0000
0001
0000
1000
0000
0100
0000
0000
0000
,
0001
0010
0100
1000
0001
0000
0100
0001
0000
0001
0010
0000
0100
0000
1000
0000
,
0001
0100
1000
0100
0001
0010
0001
0000
,
1000
0100
0010
0001
1000
0100
0010
0001
1000
0000
0010
0000
1000
0000
0000
0000
,
0001
0000
0100
0010
0000
0000
0100
0000
0001
0000
1000
0100
1000
0000
0000
0000
,
0001
0010
0100
1000
0001
0000
0100
0010
0000
0010
1000
0000
0001
0000
1000
0000
,
0100
0010
0001
0000
0100
0010
1000
0001
,
1000
0100
0010
0001
1000
0100
0010
0001
1000
0000
0010
0100
0001
0100
0000
0000
,
0010
0000
1000
0001
0000
0000
1000
0000
0100
0000
0010
0000
0001
0000
0000
0000
,
0001
0010
0100
1000
0001
0000
0100
0001
0000
0001
0010
0000
0100
0000
1000
0100
,
0000
0000
0010
0001
0000
0000
1000
0000
0010
0000
0100
0000
0100
0000
0001
0000
,
1000
0100
0010
0001
1000
0100
0010
0001
1000
0000
0010
0000
1000
0000
0000
0000
,
0001
0000
0100
0010
0000
0000
0100
0000
0001
0000
1000
0100
1000
0000
0000
0000
,
0001
0010
0100
1000
0001
0000
0100
0010
0000
0010
1000
0000
0001
0000
1000
0000
,
0100
0010
0001
0000
0100
0010
1000
0002
,
0103
0000
0010
1000
0010
0000
0100
0001
0100
0000
0010
0000
1000
0100
0010
0000
,
0001
0000
0100
0000
0010
0000
0100
0000
0001
0100
0010
1000
0000
0000
0001
0010
,
0001
1000
0100
0010
0001
0010
1000
0010
,
0001
0000
0010
0000
1000
0000
0010
0000
0001
0000
0101
0000
1000
0100
0010
0001
,
1000
0100
0010
0001
1000
0000
0010
0000
0010
0000
1000
0000
0001
0000
0100
0010
,
0000
0000
0100
0000
0001
0000
1000
0000
0100
0000
0010
0000
0001
0010
0100
1000
,
0001
0000
0100
0001
0000
0001
0010
0000
0100
0000
1000
0001
1000
0000
0010
1000
,
0010
0000
0100
0001
0100
0000
0010
0000
1000
0000
0001
0000
1000
0100
0010
0001
,
1000
0100
0010
0001
1000
0000
0010
0000
0100
0000
0001
0000
1000
0000
0100
0010
,
0000
0000
0100
0000
1000
0000
0001
0100
0001
0000
1000
0000
0001
0010
0100
1000
,
0001
0000
0100
0010
0000
0010
1000
0000
0001
0000
1000
0000
0100
0000
0010
0000
,
0001
0000
0100
0000
1000
0000
0100
0000
0001
0000
0010
0000
1000
0100
0010
0001
,
1000
0100
0010
0001
1000
0000
0010
0100
0001
0100
0000
0000
0010
0000
1000
0001
,
0000
0000
1000
0000
0100
0000
0010
0000
0001
0000
1000
0000
0001
0010
0100
1000
,
0001
0000
0100
0001
0000
0001
0010
0000
0100
0000
1000
0100
0000
0000
0010
0001
,
0000
0000
1000
0000
0010
0000
0100
0000
0100
0000
0001
0000
1000
0100
0010
0001
,
1000
0100
0010
0001
1000
0000
0010
0000
0100
0000
0001
0000
1000
0000
0100
0010
,
0000
0000
0100
0000
1000
0000
0001
0100
0001
0000
1000
0000
0001
0010
0100
1000
,
0001
0000
0100
0010
0000
0010
1000
0000
0001
0000
1000
0000
0100
0000
0010
0000
,
0001
0000
0001
0000
0100
0000
0010
0000
1000
0000
0002
0000
1003
0100
0010
0001
,
1000
0100
0010
0001
1000
0000
0010
0000
1000
0000
0000
0000
0001
0000
0100
0010
,
0000
0000
0100
0000
0001
0000
1000
0000
0100
0000
0000
0000
0001
0010
0100
1000
,
0001
0000
0100
0001
0000
0001
0010
0000
0100
0000
1000
0000
0001
0000
0100
0000
,
1000
0100
0001
0010
0001
0000
0000
0000
;

//---------------dance-single - ----------------
#NOTES:
     dance-single:
     :
     Medium:
     8:
     0.356628,0.312756,0.000000,0.254350,0.000000,265.000000,265.000000,0.000000,27.000000,0.000000,0.000000,0.356628,0.312756,0.000000,0.254350,0.000000,265.000000,265.000000,0.000000,27.000000,0.000000,0.000000:
0000
0000
0000
0000
,
0000
0000
0000
0000
,
1000
0100
0010
0001
0100
0010
0010
0000
,
1000
0001
1000
0000
0100
0010
0200
0000
,
1300
0001
0100
0010
0100
0001
1000
1000
,
0200
0000
0310
0000
0100
1000
0001
0020
,
0031
0100
0010
1000
0100
0010
0010
0000
,
0001
1000
0001
0000
0100
0010
0200
0000
,
0301
1000
0100
0010
0100
1000
0001
0100
,
0002
0000
0013
0100
0200
0000
1300
0001
,
1000
0100
0010
0001
0100
0010
0010
0000
,
1000
0001
1000
0000
0100
0010
0200
0000
,
1300
0001
0100
0010
0100
0001
1000
1000
,
0200
0000
0310
0000
0100
1000
0001
0020
,
0031
0100
0010
1000
0100
0010
0010
0000
,
0001
1000
0001
0000
0100
0010
0200
0000
,
0301
1000
0100
0010
0100
1000
0001
0100
,
0002
0000
0013
0100
0200
0000
1300
0002
,
1003
0010
1000
0100
1000
0001
0100
0010
,
2000
0000
3001
0010
0002
0000
0103
0010
,
1000
0010
0100
0001
0100
0000
0001
1000
,
0001
0000
0010
0000
0010
0000
0001
0010
,
0100
1000
0010
0100
0100
0000
0001
1000
,
0001
0000
0010
0100
0020
0000
0031
1000
,
0010
0100
0010
1000
0001
0001
1000
0100
,
1000
0010
1000
0000
0001
0000
1000
0010
,
0100
0001
0010
0100
0100
0000
1000
0001
,
1000
0000
0010
0100
0020
0000
1030
0001
,
0010
0100
0010
0001
1000
0010
2000
0000
,
3100
0010
0020
0000
0031
0000
1000
0100
,
0010
0001
0100
0010
0010
0000
1000
0001
,
1000
0000
0100
0010
0200
0000
1300
0001
,
0100
0010
0100
0001
1000
1000
0200
0000
,
0310
0000
0100
1000
0001
0020
0031
0100
,
0010
1000
0100
0010
0010
0000
0001
1000
,
0001
0000
0100
0010
0200
0000
0301
1000
,
0100
0010
0100
1000
0001
0100
0002
0000
,
0013
0100
0200
0000
1300
0001
1000
0100
,
0010
0001
0100
0010
0010
0000
1000
0001
,
1000
0000
0100
0010
0200
0000
1300
0001
,
0100
0010
0100
0001
1000
1000
0200
0000
,
0310
0000
0100
1000
0001
0000
0000
0000
;

//---------------dance-single - ----------------
#NOTES:
     dance-single:
     :
     Easy:
     6:
     0.274536,0.254114,0.000000,0.094204,0.000000,204.000000,204.000000,0.000000,10.000000,0.000000,0.000000,0.274536,0.254114,0.000000,0.094204,0.000000,204.000000,204.000000,0.000000,10.000000,0.000000,0.000000:
0000
0000
0000
0000
,
0000
0000
0000
0000
,
1000
0100
1000
0010
0000
0100
0100
0000
,
0001
0020
0000
0000
0031
0000
0001
0000
,
1000
0100
0000
1000
0000
0010
0000
0100
,
0000
0001
0000
1000
0100
0010
0001
0000
,
1000
0100
1000
0010
0000
0100
0100
0000
,
0001
0010
0000
0000
1000
0010
0000
0000
,
0001
0100
0000
0010
0000
1000
0000
0100
,
1000
0000
0001
0010
0001
0000
0001
0000
,
1000
0100
1000
0010
0000
0100
0001
0000
,
1000
0200
0000
0000
0310
0000
0010
0000
,
0001
0100
0000
0010
0000
1000
0000
0001
,
0000
0010
0000
0001
1000
0000
0010
0010
,
1000
0100
1000
0010
0000
0100
0100
0000
,
0001
0020
0000
0000
0031
1000
0001
0000
,
1000
0100
0000
1000
0000
0010
0000
0100
,
0000
0001
0000
1000
0100
0000
0100
0000
,
0010
0000
0001
0000
0010
0000
0001
1000
,
0001
0000
0100
0010
1000
0001
0000
0010
,
0000
0001
1000
0000
0100
0000
1000
0000
,
0001
1000
2000
0000
3010
0100
0001
0100
,
0001
0010
0000
0100
0100
0000
1000
0020
,
0000
0000
0130
0001
0100
0000
0001
1000
,
0000
0100
0000
0010
0000
0001
0000
0100
,
0000
0010
1000
0000
0001
0010
0001
0100
,
0001
0010
0000
0100
0100
0000
1000
0020
,
0000
0000
0130
0001
0100
0000
0001
1000
,
0000
0100
0000
0010
0000
0001
0000
0100
,
0010
0200
0000
0301
1000
0000
0001
0100
,
0001
0010
0000
0100
0100
0000
1000
0020
,
0000
0000
0130
0001
0100
0000
0001
1000
,
0000
0100
0000
0010
0000
0001
0000
0001
,
0000
0100
0010
0000
0100
0001
1000
0100
,
1000
0010
0000
0100
0100
0000
0001
0020
,
0000
0000
0031
1000
0000
0000
0001
0100
,
0000
0010
0000
1000
0000
0001
0010
0000
,
0010
0001
0020
0000
0130
0000
1000
0100
,
1000
0010
0000
0100
0100
0000
0001
0010
,
0000
0000
0100
1000
0100
0000
0010
0001
,
0000
0100
0000
0010
0000
0100
0001
0000
,
1000
0100
1000
0000
0001
0000
0000
0000
;

//---------------dance-single - ----------------
#NOTES:
     dance-single:
     :
     Beginner:
     4:
     0.191099,0.174866,0.000000,0.188407,0.000000,142.000000,142.000000,0.000000,20.000000,0.000000,0.000000,0.191099,0.174866,0.000000,0.188407,0.000000,142.000000,142.000000,0.000000,20.000000,0.000000,0.000000:
// measure 0
0000
0000
0000
0000
,  // measure 1
0000
0000
0000
0000
,  // measure 2
1000
1000
0001
0001
,  // measure 3
0010
0001
1000
0000
,  // measure 4
0001
0001
0100
0010
,  // measure 5
2000
3100
0002
0003
,  // measure 6
1000
1000
0010
0010
,  // measure 7
1000
0001
1000
0000
,  // measure 8
0001
0010
0100
1000
,  // measure 9
0020
0130
0002
0003
,  // measure 10
1000
1000
0010
0010
,  // measure 11
0200
0301
0200
0301
,  // measure 12
1000
0100
0001
0100
,  // measure 13
2000
3001
0002
0003
,  // measure 14
0100
0010
0100
0100
,  // measure 15
0001
1000
0001
0000
,  // measure 16
1000
0100
0010
0100
,  // measure 17
2000
3010
0200
0301
,  // measure 18
0010
0010
0000
0100
,  // measure 19
0100
0001
1000
0000
,  // measure 20
0100
1000
0001
0100
,  // measure 21
1000
0100
0001
1000
,  // measure 22
1000
0001
0001
0010
,  // measure 23
0001
1000
0000
0001
,  // measure 24
0001
0100
0010
2000
,  // measure 25
3100
0002
0003
1000
,  // measure 26
1000
0010
0010
1000
,  // measure 27
0001
1000
0000
0001
,  // measure 28
0010
0100
1000
0020
,  // measure 29
0130
0002
0003
1000
,  // measure 30
1000
0010
0010
0200
,  // measure 31
0301
0200
0301
1000
,  // measure 32
0100
0001
0100
2000
,  // measure 33
3001
0002
0003
0100
,  // measure 34
0010
0100
0100
0001
,  // measure 35
1000
0001
0000
1000
,  // measure 36
0100
0010
0100
2000
,  // measure 37
3010
0200
0301
1000
,  // measure 38
0100
0001
0100
1000
,  // measure 39
1000
1000
0000
0001
,  // measure 40
0100
1000
0100
0001
,  // measure 41
0000
0001
0000
0000
;
