#TITLE:Break Stasis;
#SUBTITLE:;
#ARTIST:Hommarju & Akira Complex;
#TITLETRANSLIT:;
#SUBTITLETRANSLIT:;
#ARTISTTRANSLIT:;
#GENRE:;
#CREDIT:;
#BANNER:Break Stasis.png;
#BACKGROUND:Break Stasis-bg.png;
#LYRICSPATH:;
#CDTITLE:;
#MUSIC:Break Stasis.ogg;
#OFFSET:0.240000;
#SAMPLESTART:94.967743;
#SAMPLELENGTH:10.440002;
#SELECTABLE:YES;
#BPMS:0.000000=184.000000
;
#STOPS:
;
#BGCHANGES:1.500=Break Stasis.avi=1.000=1=0=1===CrossFade==,
356.000=Break Stasis-bg.png=1.000=1=0=1===CrossFade==,
99999=-nosongbg-=1.000=0=0=0 // don't automatically add -songbackground-
;
#KEYSOUNDS:;
#ATTACKS:;

//---------------dance-single - ----------------
#NOTES:
     dance-single:
     :
     Hard:
     14:
     0.788755,1.093608,0.155645,0.278522,0.417783,674.000000,655.000000,19.000000,34.000000,0.000000,0.000000,0.788755,1.093608,0.155645,0.278522,0.417783,674.000000,655.000000,19.000000,34.000000,0.000000,0.000000:
// measure 0
0000
0000
0000
0000
,  // measure 1
0000
0000
0000
0000
,  // measure 2
0000
0000
0000
0000
,  // measure 3
0000
0000
0000
0000
,  // measure 4
0000
0000
0000
0000
,  // measure 5
0000
0000
0000
0000
0001
0010
0001
0000
1000
0000
0000
0000
0100
0000
0010
0000
,  // measure 6
0000
0000
0000
0000
0001
0100
0001
0000
1000
0000
0000
0000
0100
0000
0010
0000
,  // measure 7
0000
0000
0000
0000
0001
1000
0001
0000
0010
0000
0000
0000
0100
0000
1000
0000
,  // measure 8
0000
0000
0000
0000
0001
1000
0001
0000
0100
0000
0000
0000
0010
0000
1000
0000
,  // measure 9
1001
0000
1000
0100
0001
0000
0100
1000
,  // measure 10
0010
1000
0001
0100
1000
0000
0100
0001
,  // measure 11
1001
0001
1000
0100
0001
0000
0100
1000
,  // measure 12
0010
0000
1000
0000
0001
0000
0100
0000
0010
0000
1000
0001
1000
0000
0000
0000
,  // measure 13
0001
0000
1000
0010
1000
0000
0001
0000
0100
0000
0010
1000
0010
0000
0100
0000
,  // measure 14
0001
0000
1000
0010
1000
0000
0001
0000
0100
0000
0010
1000
0010
0000
0100
0000
,  // measure 15
0001
0001
0010
0010
0100
0100
1000
1000
,  // measure 16
0001
0000
0000
0000
,  // measure 17
0210
0000
0000
0000
0301
1000
0001
0100
,  // measure 18
0010
0000
0000
0000
1000
0000
0001
0000
1000
0000
0100
0010
0001
0000
0000
0000
,  // measure 19
2100
0000
3002
0000
0103
0010
1000
0010
,  // measure 20
0100
0000
0000
0000
0001
0000
1000
0000
0001
0000
0010
0100
1000
0000
0000
0000
,  // measure 21
0021
0000
0000
0000
0130
1000
0001
0100
,  // measure 22
0010
0000
0000
0000
1000
0000
0001
0000
1000
0000
0100
0010
0001
0000
0000
0000
,  // measure 23
2010
0000
3002
0000
1003
0100
0010
0100
,  // measure 24
1000
0000
0000
0000
0001
0000
1000
0000
0001
0000
0100
0010
1000
0000
0001
0000
,  // measure 25
0201
0000
2300
0000
3100
0001
1000
0100
,  // measure 26
0010
0000
0000
0000
0001
0000
1000
0100
1000
0000
0001
0100
0001
0000
0000
0000
,  // measure 27
2010
0000
0000
0000
3002
0000
0000
0000
1003
0000
0100
0000
0010
0000
0001
1000
,  // measure 28
0001
0000
0000
0000
0100
0000
0010
0000
1000
0000
0001
0010
0001
0000
1000
0000
,  // measure 29
1200
0000
0000
0000
0310
0001
1000
0100
,  // measure 30
0010
0000
0000
0000
0001
0000
1000
0010
1000
0000
0001
0010
0001
0000
0000
0000
,  // measure 31
2100
0000
0000
0000
3002
0000
0000
0000
0103
0000
0010
0000
1000
0000
0001
0010
,  // measure 32
0001
0000
0000
0000
1000
0000
0100
0010
0100
0000
1000
0001
2000
0000
0000
0000
,  // measure 33
3010
0000
0000
0010
0000
0000
0100
0000
0000
0100
0000
0000
0001
0000
1000
0000
,  // measure 34
0010
0000
0000
0010
0000
0000
0100
0000
0000
0100
0000
0000
0001
0000
1000
0000
,  // measure 35
0100
0000
0000
0100
0000
0000
0010
0000
0000
0010
0000
0000
0001
0000
1000
0000
,  // measure 36
0100
0000
0000
0100
0000
0000
0010
0000
0000
0010
0000
0000
0001
0000
1000
0000
,  // measure 37
0010
0010
0100
0100
0001
0100
1000
0100
,  // measure 38
0001
0001
1000
1000
0100
0010
0001
1000
,  // measure 39
0001
0100
1000
0100
0001
0010
1000
0010
,  // measure 40
0001
1000
0001
0000
0100
0000
0010
0000
1000
0000
0001
0000
0010
0000
0100
0000
,  // measure 41
2100
0000
0000
0000
0001
0000
0000
0000
3010
0000
0100
0000
0001
0000
0010
0100
,  // measure 42
0010
0000
0000
0000
0001
0000
1000
0010
1000
0000
0001
0100
0001
0000
1000
0000
,  // measure 43
0100
0010
0001
0010
2000
0000
3001
0100
,  // measure 44
1000
0000
0100
0000
0010
0000
0001
1000
0001
0000
0100
0000
0010
0000
1000
0000
,  // measure 45
1002
0000
0010
0000
0103
0010
1000
0100
,  // measure 46
0010
0000
0000
0000
0001
0000
1000
0010
1000
0000
0001
0100
0001
0000
1000
0000
,  // measure 47
0001
0000
0010
0000
1000
0000
0010
0000
0002
0000
0000
0000
1003
0000
0100
0010
,  // measure 48
0001
0000
0000
1001
0000
0000
0101
0000
0000
0110
0000
0000
1010
0000
0000
0000
,  // measure 49
2100
0000
0000
0000
0010
0000
0000
0000
3100
0000
0010
0000
0001
0000
1000
0010
,  // measure 50
1000
0000
0000
0000
0001
0000
1000
0100
1000
0000
0001
0010
0002
0000
0000
0000
,  // measure 51
1003
0000
0010
0000
0001
0000
0010
0000
2000
0000
0000
0000
3001
0000
0100
0010
,  // measure 52
0100
0000
0001
0000
1000
0000
0100
0010
0001
0000
1000
0000
0001
0000
0000
0000
,  // measure 53
2010
0000
0000
0000
0100
0000
0000
0000
3010
0000
0100
0000
0001
0000
1000
0100
,  // measure 54
1000
0000
0000
0000
0001
0000
1000
0010
1000
0000
0001
0100
0001
0000
1000
0000
,  // measure 55
0100
0000
0010
0000
1000
0000
0010
0000
0002
0000
0000
0000
1003
0000
0010
0100
,  // measure 56
0001
0000
0100
0000
0010
0000
1000
0001
1000
0000
0100
0000
0020
0000
0000
0000
,  // measure 57
0031
1000
0100
0010
0000
0100
1000
0100
,  // measure 58
0010
0001
0100
0010
0000
0100
0001
0100
,  // measure 59
0010
1000
0100
0010
0000
0100
1000
0010
,  // measure 60
0100
0001
0001
0100
1000
0100
0002
0000
,  // measure 61
0013
0100
1000
0010
0000
0100
0001
0100
,  // measure 62
0010
0000
1000
0000
0100
0000
0010
0000
0000
0000
0100
0000
1000
0000
0001
0010
,  // measure 63
0001
1000
0100
0010
0000
0100
1000
0010
,  // measure 64
0100
0001
0001
0010
1000
0010
0002
0000
,  // measure 65
1003
0000
0100
0010
0100
0000
1000
0000
0001
0010
0000
0000
0100
0000
1000
0000
,  // measure 66
0001
0000
0100
0010
0100
0000
0001
0000
1000
0010
0000
0000
0100
0000
0001
0000
,  // measure 67
1000
0000
0100
0010
0100
0000
1000
0000
0001
0010
0000
0000
0100
0000
1000
0000
,  // measure 68
0001
0000
0100
0010
0100
0000
0001
0000
1000
0010
0000
0000
0100
0000
0001
0000
,  // measure 69
1000
0000
0100
0010
0001
0000
1000
0010
1000
0000
0001
0010
0100
0000
1000
0001
,  // measure 70
1000
0000
0100
0010
0001
0000
1000
0010
1000
0000
0001
0010
0100
0000
1000
0001
,  // measure 71
1000
0010
1000
0010
0100
0001
0100
0001
1000
0100
1000
0100
0010
0001
0010
0001
,  // measure 72
1000
0010
1000
0000
0100
0000
0001
0000
0100
0000
1000
0000
1000
0000
0001
0000
,  // measure 73
1000
0000
0001
0100
0001
0000
0020
0000
0000
0000
0130
0000
1000
0100
0010
0000
,  // measure 74
0001
0000
1000
0001
1000
0000
0020
0000
0000
0000
0130
0000
0001
0100
0010
0000
,  // measure 75
1000
0000
0001
1000
0001
0000
0020
0000
0000
0000
0130
0000
1000
0000
0010
0000
,  // measure 76
1000
0000
0001
0100
0001
0000
1000
0000
1000
0000
0100
0010
0001
0010
0100
0000
,  // measure 77
1000
0000
0001
1000
0001
0000
0200
0000
0000
0000
0310
0000
1000
0010
1000
0000
,  // measure 78
0001
0000
1000
0001
1000
0000
0200
0000
0000
0000
0310
0000
0001
0010
0001
0000
,  // measure 79
1000
0000
0001
1000
0001
0000
0200
0000
0000
0000
0310
0000
1000
0000
0010
0000
,  // measure 80
0100
0000
0001
1000
0001
0000
0010
0000
0100
1000
0100
0000
0010
0000
0001
0000
,  // measure 81
1000
0010
1000
0000
0100
0000
0010
0001
0010
0000
0100
0000
2000
0000
0000
0000
,  // measure 82
3010
0000
1000
0001
1000
0000
0100
0000
0010
0001
0010
0000
0100
0000
1000
0000
,  // measure 83
0001
0000
0100
0010
0100
0000
0001
0000
1000
0010
1000
0000
0001
0000
0010
0000
,  // measure 84
0001
0000
1000
0100
1000
0000
0001
0000
0100
0010
0100
0000
0001
0000
0000
0000
,  // measure 85
1000
0000
0001
0000
1000
0000
0100
0010
0100
0000
1000
0000
0020
0000
0000
0000
,  // measure 86
0100
0000
1030
0001
1000
0100
1000
0000
,  // measure 87
0001
0000
1000
0100
1000
0000
0001
0000
0100
0000
0010
0000
1000
0000
0010
0000
,  // measure 88
0100
0001
0100
0000
0010
0000
1000
0000
0100
0000
0010
0000
0001
0000
1000
0000
,  // measure 89
1001
0000
0000
0000
;

//---------------dance-single - ----------------
#NOTES:
     dance-single:
     :
     Medium:
     12:
     0.620238,0.656165,0.106494,0.311289,0.077822,530.000000,517.000000,13.000000,38.000000,0.000000,0.000000,0.620238,0.656165,0.106494,0.311289,0.077822,530.000000,517.000000,13.000000,38.000000,0.000000,0.000000:
0000
0000
0000
0000
,
0000
0000
0000
0000
,
0000
0000
0000
0000
,
0000
0000
0000
0000
,
0000
0000
0000
0000
,
0010
0000
1000
0000
0001
0000
0100
0010
,
0000
0000
1000
0000
0001
0000
0100
0010
,
0000
0000
1000
0000
0001
0000
0010
0001
,
0000
0000
0100
0000
1000
0000
0001
0100
,
0010
0000
1000
0001
0010
0000
0001
1000
,
0010
0100
0010
0100
0001
0000
1000
0100
,
0010
0100
0010
0100
1000
0000
0001
0100
,
0010
0100
0010
0100
0001
0000
1000
0100
,
0010
0001
0100
0001
0010
0100
1000
0000
,
0001
0010
0100
1000
0010
1000
0100
0000
,
0010
0001
1000
0001
0100
0010
1000
0001
,
0020
0000
0030
0000
,
0210
0000
0000
0000
1300
0000
0010
0100
,
1000
0000
0010
0100
1000
0100
0010
0000
,
0201
0000
2300
0000
3001
0100
0010
0100
,
0001
0000
0100
0010
0001
0010
0100
0001
,
0020
0000
0000
0000
1030
0000
0010
0100
,
1000
0000
0010
0100
1000
0100
0010
0000
,
0002
0000
2003
0000
3001
0100
0010
0100
,
0001
0000
0000
0000
1000
0000
0100
0000
0010
0000
0001
1000
0001
0000
0000
0000
,
0201
0000
0320
0000
1030
0000
0001
0010
,
0100
0000
0001
0010
0100
0010
0001
0000
,
2000
0000
3002
0000
1003
0100
0010
0100
,
1000
0000
0010
0100
1000
0100
0010
1000
,
0200
0000
0000
0000
0310
0000
0001
0100
,
1000
0000
0001
0100
1000
0100
0001
0000
,
0020
0000
0230
0000
1300
0100
0001
0100
,
1000
0000
0001
0010
1000
0010
0001
0000
,
1000
0000
0000
1000
0000
0000
0010
0000
0000
0010
0000
0000
1000
0000
0001
0000
,
0010
0000
0000
0010
0000
0000
0001
0000
0000
0001
0000
0000
1000
0000
0100
0000
,
0010
0000
0000
0010
0000
0000
1000
0000
0000
1000
0000
0000
0001
0000
0100
0000
,
0010
0000
0000
0010
0000
0000
0001
0000
0000
0001
0000
0000
1000
0000
0100
0000
,
0010
0001
0010
0001
1000
0010
1000
0010
,
0100
0001
0100
0001
1000
0100
1000
0100
,
0010
0001
0100
0001
0010
0100
1000
0010
,
0200
0000
0301
1000
0001
0010
0100
1000
,
0002
0000
0100
0000
1003
0100
0001
0100
,
1000
0000
0001
0010
0100
0010
0001
0000
,
2000
0000
3020
0000
0130
0001
0010
1000
,
0001
0000
0001
0100
1000
0100
0001
0000
,
2000
0000
0010
0000
3001
0010
1000
0010
,
0001
0000
1000
0100
0010
0100
1000
0000
,
0020
0000
0230
0000
0301
0010
1000
0100
,
0001
0000
0000
0001
0000
0000
1000
0000
0000
1000
0000
0000
0001
0000
0000
0000
,
0021
0000
0100
0000
1030
0010
0001
0100
,
1000
0000
0100
0001
0010
0001
0100
0000
,
0020
0000
2030
0000
3002
0000
0013
0100
,
1000
0000
0001
0100
1000
0100
0001
0000
,
0020
0000
0100
0000
1030
0100
0010
0001
,
0100
0000
0001
0100
1000
0100
0001
0000
,
2000
0000
3020
0000
0130
0001
1000
0100
,
0010
0000
0001
0100
1000
0010
0100
0000
,
0001
0100
0001
0010
0000
1000
0100
0010
,
0001
0100
0001
0010
0000
1000
0100
0010
,
0001
0100
0001
0010
0000
1000
0100
0010
,
0001
0010
0010
0100
2000
0000
3002
0000
,
1003
0100
1000
0010
0000
0001
0010
0100
,
1000
0100
1000
0010
0000
0001
0010
0100
,
1000
0100
1000
0010
0000
0100
0001
0100
,
0020
2030
3002
0013
,
1100
0000
0000
0100
0000
0000
0011
0000
0000
0010
0000
0000
0001
0000
1000
0000
,
1010
0000
0000
0010
0000
0000
0101
0000
0000
0001
0000
0000
1000
0000
0100
0000
,
0110
0000
0000
0010
0000
0000
1001
0000
0000
1000
0000
0000
0001
0000
0100
0000
,
0110
0000
0000
0010
0000
0000
1001
0000
0000
1000
0000
0000
0100
0000
0010
0000
,
0001
0100
0001
0000
1000
0100
1000
0000
,
0001
0010
0001
0000
1000
0010
1000
0000
,
0001
0100
0010
0001
1000
0100
0010
1000
,
0001
0001
1000
0100
1000
0010
0010
0100
,
0001
0010
0100
0001
0000
1000
0100
0001
,
1000
0010
0100
1000
0000
0001
0100
1000
,
0001
0010
0100
0001
0000
1000
0100
0010
,
1000
0001
1000
0000
0010
0001
0010
0000
,
0001
0100
1000
0001
0000
1000
0100
0001
,
1000
0001
0100
1000
0000
0100
0001
0010
,
0100
0010
0001
0100
0000
0010
1000
0001
,
0010
1000
0010
0001
1000
0010
1000
0000
,
0001
0100
0010
0000
0001
0100
0020
0000
,
1000
0000
0230
0000
0301
1000
0001
0000
,
1000
0100
0010
0100
1000
0001
0000
0010
,
0000
1000
0010
1000
0100
0001
0001
0000
,
1000
0100
0010
0010
1000
0100
0020
0000
,
0001
0000
0230
0000
1300
0001
1000
0000
,
0001
0100
0010
0001
1000
0001
0000
2000
,
0000
3100
0001
0100
0010
0001
1000
0000
,
0110
0000
0000
0000
;

//---------------dance-single - ----------------
#NOTES:
     dance-single:
     :
     Easy:
     9:
     0.392037,0.619711,0.180220,0.401399,0.000000,335.000000,313.000000,22.000000,49.000000,0.000000,0.000000,0.392037,0.619711,0.180220,0.401399,0.000000,335.000000,313.000000,22.000000,49.000000,0.000000,0.000000:
0000
0000
0000
0000
,
0000
0000
0000
0000
,
0000
0000
0000
0000
,
0000
0000
0000
0000
,
0000
0000
0000
0000
,
0002
0000
0000
0000
,
0000
0003
0000
0000
,
2000
0000
0000
3020
0000
0000
0030
0200
,
0000
0000
0000
0300
,
0001
0000
1000
0010
1000
0000
0010
1000
,
0010
1000
0010
1000
0010
0000
0100
0000
,
0001
0000
0010
0001
0010
0000
0001
0010
,
0001
0010
0001
0010
0001
0000
1000
0000
,
1010
0110
0101
0110
,
1010
1001
0011
1001
,
1000
0100
1000
0000
0001
0100
0001
0000
,
0020
0000
0000
0000
,
0230
0000
0000
0300
1001
0000
0100
0001
,
0100
0010
1001
0000
,
0010
0000
0010
0000
0001
0000
1000
0010
,
1000
0000
0001
0010
0001
0000
0001
0000
,
0200
0000
0000
0300
1001
0000
0010
1000
,
0010
0100
1001
0000
,
0010
0000
0010
0000
1000
0000
0100
0010
,
0100
0000
1000
0001
1000
0000
0010
0000
,
1020
0230
0301
1001
,
0000
0100
0100
0000
1010
0000
0000
0000
,
0002
0000
0023
0000
0130
1000
0100
0000
,
0010
0001
1000
0001
,
0220
0330
1000
1001
,
0000
0100
0100
0000
0010
0000
0001
0000
,
1000
0000
1000
0000
0010
0100
0010
0000
,
0001
0000
0001
0000
0100
0010
0100
0000
,
2000
3000
0000
0000
,
0200
0300
0000
0000
,
0002
0003
0000
0000
,
0020
0030
0000
0000
,
2000
3000
0200
0300
,
0002
0003
0020
0030
,
1000
0100
1000
0100
0001
0100
0001
0000
,
0020
1030
0001
0001
,
2100
0000
3010
0200
,
0301
0000
0001
0000
1000
0100
1000
0000
,
0020
0000
0230
0000
0301
1000
0001
0000
,
0001
0000
0010
0100
0010
0000
0001
0000
,
0021
0000
0130
2000
,
3001
0000
0100
0001
0100
0000
0100
0000
,
0010
1000
0002
0013
,
1100
0000
0000
0011
0000
0000
1100
0000
,
0002
0000
0000
0000
0003
0000
0100
0001
,
0100
0000
0100
0001
0100
0000
0100
0000
,
0010
0000
1000
0000
0001
0000
0010
0001
,
0010
0000
0100
1000
0100
0000
0100
0000
,
2000
0000
0000
0000
3000
0000
0001
0100
,
0001
0000
0001
0100
0001
0000
0001
0000
,
2000
0000
3200
0000
0310
0000
0001
1000
,
0001
0000
0100
0001
0100
0000
0100
0000
,
0020
0030
0000
0000
,
2000
3000
0000
0000
,
0200
0300
0000
0000
,
0002
0003
0000
0000
,
0020
0000
0000
1030
0000
0000
0000
0000
,
0200
0000
0000
0301
0000
0000
0000
0000
,
0020
0000
0000
0031
0000
0000
0000
0000
,
0200
0000
0000
1300
0000
0000
0000
0000
,
0002
0000
0000
0010
0000
0000
0103
0000
,
0020
0000
0000
1000
0000
0000
0130
0000
,
0002
0000
0000
0010
0000
0000
0103
0000
,
0020
0000
0000
1000
0000
0000
0130
0000
,
0001
0010
1000
0010
,
0001
0010
1000
0010
,
0001
0010
0001
0000
0010
0100
0010
0000
,
0001
0010
1000
0100
,
0001
0000
1000
0010
0000
0010
1000
0000
,
0001
0000
0100
0010
0000
0010
0100
0000
,
0001
0000
1000
0010
0000
0010
1000
0000
,
0001
0010
0100
1000
,
0001
0000
1000
0010
0000
0010
1000
0000
,
0001
0000
0100
0010
0000
0010
0100
0000
,
0001
0000
1000
0010
0000
0010
1000
0000
,
0001
0000
0010
0000
0100
1000
0100
0000
,
0020
0031
1000
0020
,
0100
0000
1030
0000
0001
1000
0000
0000
,
0100
0000
0010
0000
0001
0010
0000
0100
,
0000
1000
0001
0010
,
0002
0103
0010
2000
,
0100
0000
3001
0000
0001
1000
0000
0000
,
0001
0000
0100
0000
0010
1000
0000
0001
,
0000
0000
0010
0000
0100
0000
1000
0001
,
1000
0000
0000
0000
;

//---------------dance-single - ----------------
#NOTES:
     dance-single:
     :
     Beginner:
     4:
     0.187242,0.255175,0.008192,0.000000,0.000000,160.000000,159.000000,1.000000,0.000000,0.000000,0.000000,0.187242,0.255175,0.008192,0.000000,0.000000,160.000000,159.000000,1.000000,0.000000,0.000000,0.000000:
0000
0000
0000
0000
,
0000
0000
0000
0000
,
0000
0000
0000
0000
,
0000
0000
0000
0000
,
0000
0000
0000
0000
,
1000
0000
0000
0000
,
0000
0000
0000
0000
,
0001
0000
0001
0000
,
0100
0000
0000
0000
,
0010
0000
0010
0000
,
0010
0000
0010
0000
,
0100
0000
0100
0000
,
0100
0000
0100
0000
,
0001
0000
0001
0000
,
1000
0000
1000
0000
,
0100
0000
0010
0000
,
0001
0000
0000
0000
,
1000
0000
0010
1000
,
1000
0000
0001
0000
,
0010
0010
0010
0000
,
0001
0000
1000
0000
,
0001
0000
0010
0001
,
0001
0000
1000
0000
,
0010
0010
0010
0000
,
1000
0000
0001
0000
,
0100
0000
0001
1000
,
0001
0000
0001
0000
,
1000
1000
1000
0000
,
0100
0000
0100
0000
,
1000
0000
0000
0001
,
0001
0000
0010
0000
,
0100
0100
0100
0000
,
1000
0000
0001
0000
,
1000
0000
0000
0000
,
0010
0000
0000
0000
,
1000
0000
0000
0000
,
0001
0000
0000
0000
,
1000
0000
1000
0000
,
0100
0000
0100
0000
,
1000
0000
0010
0000
,
0100
0000
0000
0000
,
0001
0000
0000
0010
,
0010
0000
0001
0001
,
1000
0000
0010
0000
,
1000
0000
0010
0000
,
1000
0000
0000
0100
,
0100
0000
1000
1000
,
0001
0000
0100
0000
,
0010
0000
0010
0000
,
1000
0000
0000
0001
,
0001
0000
0010
0010
,
0001
0000
0100
0000
,
0001
0000
0100
0000
,
0010
0000
0000
1000
,
1000
0000
0001
0001
,
1000
0000
0100
0000
,
0010
0000
0100
0000
,
1000
0000
0000
0000
,
0010
0000
0000
0000
,
1000
0000
0000
0000
,
0100
0000
0000
0000
,
0001
0000
0000
0000
,
0010
0000
0000
0000
,
0001
0000
0000
0000
,
0100
0000
0000
0000
,
0001
0000
0001
0000
,
0010
0000
0010
0000
,
0001
0000
0001
0000
,
0100
0000
0100
0000
,
0010
0000
0010
0000
,
1000
0000
1000
0000
,
0100
0000
0010
0000
,
0001
0000
0000
0000
,
1000
0000
0000
0000
,
0100
0000
0000
0000
,
1000
0000
0000
0000
,
0010
0010
0010
0000
,
0001
0000
0000
0000
,
0100
0000
0000
0000
,
0001
0000
0000
0000
,
0010
0010
0010
0000
,
1000
0000
0100
0000
,
1000
0000
1000
0000
,
0001
0000
0100
0000
,
0010
0010
0010
0000
,
1000
0000
0100
0000
,
1000
0000
1000
0000
,
0001
0000
0100
0000
,
0010
0010
0010
0000
,
1001
0000
0000
0000
;
