#TITLE:Blackout City;
#SUBTITLE:;
#ARTIST:Anamanaguchi;
#TITLETRANSLIT:;
#SUBTITLETRANSLIT:;
#ARTISTTRANSLIT:;
#GENRE:;
#CREDIT:;
#BANNER:Blackout City.png;
#BACKGROUND:Blackout City-bg.png;
#LYRICSPATH:;
#CDTITLE:;
#MUSIC:Blackout City.ogg;
#OFFSET:0.142000;
#SAMPLESTART:6.229997;
#SAMPLELENGTH:20.479979;
#SELECTABLE:YES;
#BPMS:0.000000=187.520004
;
#STOPS:
;
#BGCHANGES:3.750=Blackout City.avi=1.000=1=0=1===CrossFade==,
392.000=Blackout City-bg.png=1.000=1=0=1===CrossFade==,
633.000=Blackout City-bg.png=1.000=1=0=1===CrossFade==,
99999=-nosongbg-=1.000=0=0=0 // don't automatically add -songbackground-
;
#KEYSOUNDS:;
#ATTACKS:;

//---------------dance-single - ----------------
#NOTES:
     dance-single:
     :
     Hard:
     12:
     0.713358,0.689444,0.250458,0.367860,0.007827,638.000000,606.000000,32.000000,47.000000,0.000000,0.000000,0.713358,0.689444,0.250458,0.367860,0.007827,638.000000,606.000000,32.000000,47.000000,0.000000,0.000000:
// measure 0
0000
0000
0000
0000
,  // measure 1
0000
0000
0000
0000
,  // measure 2
0000
0000
0000
0000
,  // measure 3
0000
0000
0000
0000
,  // measure 4
0000
0000
0000
0100
0010
0100
1000
1000
,  // measure 5
0001
0100
0020
0000
0000
0130
0000
0001
,  // measure 6
1000
0100
1000
0020
0000
0130
0001
0100
,  // measure 7
0020
0000
2030
0000
3100
0010
0100
2000
,  // measure 8
0000
3001
0010
0100
1000
0100
0010
0001
,  // measure 9
1000
0100
0020
0000
0000
0130
0000
1000
,  // measure 10
0001
0100
0010
2000
0000
3100
0010
0100
,  // measure 11
0002
0000
0103
1000
0010
0100
0001
0020
,  // measure 12
0000
0031
0010
0100
1000
0100
0010
0001
,  // measure 13
1000
0010
2000
0000
0000
3010
0000
0100
,  // measure 14
0001
1000
0100
0020
0000
0130
1000
0001
,  // measure 15
2000
0000
3020
0000
0130
0001
1000
0002
,  // measure 16
0000
0013
0100
1000
0010
1000
0100
0010
,  // measure 17
0001
0000
0001
0100
0010
1000
0000
1100
,  // measure 18
0000
0100
1000
0001
0100
1000
0100
0010
,  // measure 19
1000
0100
0001
0100
0010
0100
1000
0001
,  // measure 20
0020
0000
0100
0000
,  // measure 21
0031
1000
0010
0100
0000
1001
0000
0110
,  // measure 22
0000
1000
0100
1000
0010
0010
0100
0200
,  // measure 23
0000
0000
0301
1000
0000
1010
0000
0101
,  // measure 24
0000
0001
0100
0010
1000
1000
0001
0001
,  // measure 25
0010
1100
0010
0101
,  // measure 26
0001
0010
1000
0010
0100
0010
0001
0100
,  // measure 27
0101
0110
1010
1100
,  // measure 28
1000
0001
0100
0010
1000
0100
0010
0001
,  // measure 29
1000
0010
1000
0010
1000
0001
0010
0001
,  // measure 30
1000
0100
1000
0001
0010
0001
0010
0100
,  // measure 31
1000
0010
0100
0001
0010
0100
1000
0001
,  // measure 32
0100
0100
0010
0010
1000
0100
0010
0001
,  // measure 33
1000
0100
0001
0100
1000
0010
0000
0010
,  // measure 34
1000
0100
0001
0100
0010
0100
0010
0001
,  // measure 35
0100
0010
1000
0100
1000
0010
0100
0001
,  // measure 36
0011
0000
0000
0110
0000
0000
0100
0000
2000
0000
0000
0000
3020
0000
0000
0000
,  // measure 37
1030
0100
1000
0010
0100
0001
0000
0011
,  // measure 38
0000
1000
0100
0010
0001
0010
0100
1000
,  // measure 39
0001
0100
1000
0100
0001
1000
0100
1000
,  // measure 40
0001
0100
1000
0100
0001
1000
0100
1000
,  // measure 41
0001
0100
0001
0010
0100
1000
0000
1100
,  // measure 42
0000
1000
0100
0010
0001
0010
0100
1000
,  // measure 43
0001
0100
1000
0100
0001
1000
0100
1000
,  // measure 44
1001
0000
0000
1010
0000
0000
0010
0000
1000
0000
0000
0000
0000
0000
0000
0000
,  // measure 45
0001
0100
1000
0100
0010
0100
0001
0020
,  // measure 46
0000
0100
0000
1000
0000
0130
1000
0000
,  // measure 47
1000
0010
1000
0100
0010
0001
0100
0020
,  // measure 48
0000
1030
0100
2000
0000
3001
0100
0000
,  // measure 49
1100
0000
1000
0001
0100
0000
0101
0000
,  // measure 50
0001
1000
0100
1000
0010
0100
1000
0100
,  // measure 51
0020
0000
1000
0000
0130
0001
0010
0100
,  // measure 52
0000
1000
0100
0010
0000
0011
0000
0100
,  // measure 53
1000
0001
0100
0010
1000
0100
0010
0002
,  // measure 54
0000
0100
0000
1000
0000
0103
0010
0000
,  // measure 55
1000
0001
0100
0010
1000
0100
0010
0002
,  // measure 56
0000
0103
0010
1000
0000
1000
0010
0100
,  // measure 57
0002
0000
1003
1000
0001
0100
0010
0100
,  // measure 58
1000
0100
0001
0100
0010
1000
0100
0010
,  // measure 59
0002
0000
1000
0000
0103
0010
1000
0100
,  // measure 60
0000
0100
0010
0001
0000
0011
0000
0100
,  // measure 61
1000
0000
1100
0000
1000
0100
0010
0001
,  // measure 62
0010
0000
0011
0000
0001
0010
0100
1000
,  // measure 63
0100
0000
1100
0000
1000
0010
0100
0001
,  // measure 64
0010
0000
0011
0000
1000
0100
0001
0100
,  // measure 65
0020
0000
0001
0030
0001
0100
0010
2000
,  // measure 66
0100
0000
0001
0000
3001
0100
0010
0100
,  // measure 67
0001
0000
1000
0100
0010
0001
1000
0000
,  // measure 68
1010
0000
0101
0000
0001
0010
0100
2000
,  // measure 69
0000
3001
0010
0100
0010
0001
1000
1000
,  // measure 70
0001
0010
0010
0001
1000
0010
0100
0002
,  // measure 71
0000
1003
0100
0010
0100
1000
0010
1000
,  // measure 72
0001
0100
0010
0200
0000
0301
0010
0000
,  // measure 73
2100
0000
0010
0000
3001
0100
0010
2000
,  // measure 74
0010
0000
3100
0000
0010
0001
1000
0020
,  // measure 75
0000
0130
0001
1000
0010
1000
0100
0000
,  // measure 76
0011
0000
0102
0000
1003
0100
0000
2001
,  // measure 77
0000
3001
0010
0100
0010
0001
1000
1000
,  // measure 78
0001
0010
0010
0001
1000
0010
0000
0102
,  // measure 79
0000
1003
0010
0100
0010
1000
0001
0001
,  // measure 80
1000
0100
0010
0200
0000
1300
0010
0000
,  // measure 81
1000
0100
2000
0000
3010
0100
0001
0010
,  // measure 82
0100
1000
0100
1000
0010
0100
0001
0010
,  // measure 83
0200
0000
1300
0001
0010
0100
0010
0001
,  // measure 84
0020
0000
0031
1000
0100
1000
0001
0020
,  // measure 85
0000
0031
1000
0010
1000
0100
1000
0010
,  // measure 86
1000
0001
0100
1000
0100
0001
1000
0010
,  // measure 87
0000
0010
0000
1000
0000
1000
0000
0100
,  // measure 88
0000
0100
0010
0001
1000
1000
0010
1000
,  // measure 89
0001
0100
0002
0000
0013
0100
1000
0010
,  // measure 90
0100
0001
0100
0001
0010
0100
1000
0100
,  // measure 91
0002
0000
0103
1000
0010
0100
0010
0000
,  // measure 92
1000
0001
2000
0100
3100
0010
0001
0010
,  // measure 93
0001
1000
0001
0100
0001
0010
0001
0100
,  // measure 94
0001
1000
0010
0001
0010
1000
0001
0100
,  // measure 95
0000
0100
0000
0010
0000
0010
0000
2000
,  // measure 96
0000
3100
0010
0001
1000
0010
1000
0200
,  // measure 97
0000
0000
0000
0000
0000
0000
0000
0300
;

//---------------dance-single - ----------------
#NOTES:
     dance-single:
     :
     Medium:
     9:
     0.526632,0.536234,0.070441,0.406994,0.007827,471.000000,462.000000,9.000000,52.000000,0.000000,0.000000,0.526632,0.536234,0.070441,0.406994,0.007827,471.000000,462.000000,9.000000,52.000000,0.000000,0.000000:
// measure 0
0000
0000
0000
0000
,  // measure 1
0000
0000
0000
0000
,  // measure 2
0000
0000
0000
0000
,  // measure 3
0000
0000
0000
0000
,  // measure 4
0000
0000
0000
0000
,  // measure 5
0010
1000
0010
0000
0100
0001
0100
0000
,  // measure 6
0010
1000
0010
0000
1000
0000
1100
0000
,  // measure 7
0001
0010
0001
0000
1000
0000
1100
0000
,  // measure 8
0001
0010
0001
0000
0100
0001
0100
0000
,  // measure 9
0010
1000
0010
0000
0100
0001
0100
0000
,  // measure 10
0010
1000
0010
0000
1000
0000
1100
0000
,  // measure 11
0001
0010
0001
0000
1000
0000
1100
0000
,  // measure 12
0001
0010
0001
0000
1000
0010
1000
0000
,  // measure 13
0010
1000
0010
0000
0100
0001
0100
0000
,  // measure 14
0010
1000
0010
0000
1000
0000
1100
0000
,  // measure 15
0001
0010
0001
0000
1000
0000
1100
0000
,  // measure 16
0001
0010
0001
0000
0100
0001
0100
0000
,  // measure 17
0020
0000
1030
0100
1000
0001
0000
0010
,  // measure 18
0000
0010
0001
0000
0100
0000
0010
0000
,  // measure 19
1000
0100
1000
0000
0001
0100
0001
0000
,  // measure 20
0020
0000
0200
0330
,  // measure 21
0010
0001
1000
0100
0000
0100
0000
2000
,  // measure 22
0000
0000
3001
0000
1000
0010
1000
0000
,  // measure 23
0001
0100
0001
1000
0000
1000
0000
0020
,  // measure 24
0000
0000
0130
0000
0001
1000
0001
0000
,  // measure 25
2000
3200
0302
0203
,  // measure 26
2300
0000
3200
0000
0310
0000
0001
1000
,  // measure 27
0002
0203
0320
0230
,  // measure 28
0301
1000
0001
0000
1000
0100
1000
0000
,  // measure 29
0001
0000
0010
0000
0100
1000
0000
1000
,  // measure 30
0100
0000
0010
0000
0001
0100
0001
0000
,  // measure 31
1000
0010
1000
0000
0001
0010
0001
0000
,  // measure 32
1000
0100
1000
0000
0020
0000
0130
0000
,  // measure 33
0001
0010
0001
0010
0001
0000
0100
0000
,  // measure 34
0010
1000
0010
0000
0100
0000
0100
0000
,  // measure 35
0001
0010
0001
0000
1000
0010
1000
0000
,  // measure 36
0100
0000
0000
0010
0000
0000
0001
0000
2000
0000
0000
0000
3020
0000
0000
0000
,  // measure 37
1030
0100
1000
0000
0001
0100
0001
0000
,  // measure 38
1000
0100
1000
0000
0010
0000
0011
0000
,  // measure 39
1000
0010
1000
0000
0001
0000
0011
0000
,  // measure 40
1000
0100
1000
0000
0001
0000
0101
0000
,  // measure 41
1000
0010
1000
0000
0100
0000
0010
0000
,  // measure 42
0001
0100
0001
0000
0010
0000
0100
0000
,  // measure 43
1000
0010
1000
0000
0001
0010
0001
0000
,  // measure 44
0100
0000
0000
1000
0000
0000
0001
0000
0200
0000
0000
0000
0300
0000
0000
0000
,  // measure 45
0010
1000
0010
0000
1000
0100
1000
0000
,  // measure 46
0002
0023
0230
0310
,  // measure 47
0001
0100
0001
0000
0010
0001
0010
0000
,  // measure 48
0100
1000
0001
0200
,  // measure 49
0310
0000
1000
0100
0010
0000
0020
0000
,  // measure 50
0031
0100
0001
0000
1000
0100
1000
0000
,  // measure 51
0020
1000
0230
0000
,  // measure 52
0301
0010
0100
0010
,  // measure 53
0001
0100
0001
0000
1000
0010
1000
0000
,  // measure 54
0002
0023
0230
0320
,  // measure 55
0031
0100
0001
0000
1000
0100
1000
0000
,  // measure 56
0010
0000
0100
0001
0000
0001
0100
0000
,  // measure 57
0010
0000
1000
0100
0010
0000
0020
0000
,  // measure 58
0031
0100
0001
0000
1000
0100
1000
0000
,  // measure 59
0020
1000
0230
0000
,  // measure 60
0301
0010
0100
0010
,  // measure 61
0001
0000
0001
0000
0001
1000
0001
0000
,  // measure 62
0010
0000
0010
0000
0010
0100
0010
0000
,  // measure 63
1000
0000
1000
0000
1000
0001
1000
0000
,  // measure 64
0100
0000
0100
0000
0010
0001
0010
0001
,  // measure 65
2000
0000
0100
0000
3100
0010
0001
0020
,  // measure 66
0000
0000
0130
0000
1000
0100
0010
0002
,  // measure 67
0000
0000
1003
0010
1000
0000
0100
0000
,  // measure 68
0010
0000
0020
0000
0000
0032
0000
0103
,  // measure 69
0000
0010
1000
0000
0010
0000
0100
0001
,  // measure 70
0000
0001
0100
0000
0010
0000
1000
0100
,  // measure 71
0000
0100
1000
0000
0010
0000
0100
0001
,  // measure 72
0000
0001
0100
0000
0010
0000
1000
0000
,  // measure 73
0002
0000
0010
0000
0013
0100
1000
0200
,  // measure 74
0000
0000
0010
0000
1300
0100
0010
0002
,  // measure 75
0000
0000
1003
0010
1000
0000
0100
0000
,  // measure 76
0010
0000
0020
0000
0000
0032
0000
0103
,  // measure 77
0000
0010
1000
0000
0010
0000
0100
0001
,  // measure 78
0000
0001
0100
0000
0010
0000
1000
0100
,  // measure 79
0000
0100
1000
0000
0010
0000
0100
0000
,  // measure 80
0001
0010
0001
0010
0000
0100
1000
0000
,  // measure 81
0001
0100
0001
0000
0010
0000
0010
0000
,  // measure 82
0100
1000
0100
0000
0010
0000
0010
0000
,  // measure 83
0002
0000
0203
0000
0310
1000
0010
0000
,  // measure 84
0100
0000
0002
0000
0000
2003
0000
3010
,  // measure 85
0000
0010
1000
0000
0100
0000
0010
0000
,  // measure 86
0001
1000
0001
0000
1000
0010
1000
0001
,  // measure 87
0000
0001
0000
0100
0000
0100
0000
0010
,  // measure 88
0000
0010
1000
0000
0001
0010
0001
0000
,  // measure 89
0001
0100
0001
0000
0010
0000
0010
0000
,  // measure 90
0100
1000
0100
0000
0010
0000
0010
0000
,  // measure 91
0002
0000
0203
0000
0310
1000
0010
0000
,  // measure 92
0100
0000
0002
0000
0000
2003
0000
3010
,  // measure 93
0000
0010
1000
0000
0100
0000
0010
0000
,  // measure 94
0001
0100
0001
0000
1000
0100
1000
0010
,  // measure 95
0000
0010
0000
0100
0000
0100
0000
0001
,  // measure 96
0000
0001
1000
0100
0010
0001
0010
0200
,  // measure 97
0000
0000
0000
0000
0000
0000
0000
0300
;

//---------------dance-single - ----------------
#NOTES:
     dance-single:
     :
     Easy:
     5:
     0.376805,0.383024,0.054788,0.093922,0.000000,337.000000,330.000000,7.000000,12.000000,0.000000,0.000000,0.376805,0.383024,0.054788,0.093922,0.000000,337.000000,330.000000,7.000000,12.000000,0.000000,0.000000:
// measure 0
0000
0000
0000
0000
,  // measure 1
0000
0000
0000
0000
,  // measure 2
0000
0000
0000
0000
,  // measure 3
0000
0000
0000
0000
,  // measure 4
0000
0000
0000
0000
,  // measure 5
0001
0010
0000
0001
,  // measure 6
1000
0100
0010
0100
,  // measure 7
1000
0001
0100
0001
,  // measure 8
0000
1000
0010
0100
,  // measure 9
0001
0010
0000
0001
,  // measure 10
1000
0100
0001
0100
,  // measure 11
1000
0010
0100
0001
,  // measure 12
0000
1000
0010
1000
,  // measure 13
0001
0010
0000
0001
,  // measure 14
1000
0100
0010
0100
,  // measure 15
1000
0001
0100
0001
,  // measure 16
0000
1000
0010
0100
,  // measure 17
0001
0010
0001
0000
,  // measure 18
0100
0100
0010
0010
,  // measure 19
1000
0100
0010
0001
,  // measure 20
2000
0000
3020
0000
,  // measure 21
0130
0101
0000
0001
,  // measure 22
0010
0001
1000
0001
,  // measure 23
0100
0101
0000
1000
,  // measure 24
0010
1000
0001
1000
,  // measure 25
0100
0010
0001
0010
,  // measure 26
0100
0010
0001
1000
,  // measure 27
0010
0100
0001
0100
,  // measure 28
0010
1000
0001
0000
,  // measure 29
1000
0010
1000
0000
,  // measure 30
0100
0010
0001
0010
,  // measure 31
0001
0100
1000
0100
,  // measure 32
0001
1000
0010
1000
,  // measure 33
0100
0010
0100
0000
,  // measure 34
1000
0001
1000
0000
,  // measure 35
0010
0100
0001
0010
,  // measure 36
0110
0000
1001
0000
,  // measure 37
1000
0010
1000
0100
,  // measure 38
0000
0010
0001
0010
,  // measure 39
0001
0100
1000
0100
,  // measure 40
0001
0100
1000
0100
,  // measure 41
0001
0010
0001
0100
,  // measure 42
0000
0010
1000
0001
,  // measure 43
1000
0100
0001
0100
,  // measure 44
0010
0010
0010
0000
,  // measure 45
0001
1000
0001
0010
,  // measure 46
0100
0000
1000
0000
,  // measure 47
1000
0010
1000
0001
,  // measure 48
0000
0010
0100
1000
,  // measure 49
0001
0100
1000
0100
,  // measure 50
0001
0001
0010
0010
,  // measure 51
0110
0000
1000
0000
,  // measure 52
0010
0100
0001
1000
,  // measure 53
0001
0010
1000
0010
,  // measure 54
0001
0100
0010
1000
,  // measure 55
0001
0100
1000
0100
,  // measure 56
0001
0010
0001
0000
,  // measure 57
1000
0100
0001
0100
,  // measure 58
1000
1000
0010
0010
,  // measure 59
0110
0000
0001
0000
,  // measure 60
1000
0100
0010
0001
,  // measure 61
0010
0010
0010
0100
,  // measure 62
1000
1000
1000
0010
,  // measure 63
0100
0100
0100
0001
,  // measure 64
0010
0010
0001
1000
,  // measure 65
0002
0000
0103
0010
,  // measure 66
2000
0000
3100
0010
,  // measure 67
0001
0100
1000
0100
,  // measure 68
0001
0002
0000
0013
,  // measure 69
0100
1000
0001
1000
,  // measure 70
0100
0010
0001
0010
,  // measure 71
0100
1000
0010
1000
,  // measure 72
0001
0010
0100
1000
,  // measure 73
0002
0000
0103
0010
,  // measure 74
2000
0000
3100
0010
,  // measure 75
0001
0100
1000
0100
,  // measure 76
0001
0002
0000
0013
,  // measure 77
0100
1000
0010
1000
,  // measure 78
0001
0010
0100
0010
,  // measure 79
0001
0100
1000
0100
,  // measure 80
0001
0010
0001
0000
,  // measure 81
1000
0100
0010
0100
,  // measure 82
1000
0010
0001
0010
,  // measure 83
1000
0100
0010
0001
,  // measure 84
2000
3010
0000
0010
,  // measure 85
1000
0100
1000
0100
,  // measure 86
0010
0001
0010
0001
,  // measure 87
0100
0100
0010
0010
,  // measure 88
1000
0001
1000
0000
,  // measure 89
1000
0100
0010
0100
,  // measure 90
1000
0010
0001
0010
,  // measure 91
1000
0100
0010
0001
,  // measure 92
0200
0310
0000
1000
,  // measure 93
0001
0010
0001
0010
,  // measure 94
0100
1000
0100
1000
,  // measure 95
0010
0010
0100
0100
,  // measure 96
0001
0000
0010
0000
0100
0000
0000
2002
,  // measure 97
0000
0000
0000
0000
0000
0000
0000
3003
;

//---------------dance-single - ----------------
#NOTES:
     dance-single:
     :
     Beginner:
     2:
     0.139764,0.191757,0.000000,0.007827,0.000000,125.000000,125.000000,0.000000,1.000000,0.000000,0.000000,0.139764,0.191757,0.000000,0.007827,0.000000,125.000000,125.000000,0.000000,1.000000,0.000000,0.000000:
0000
0000
0000
0000
,
0000
0000
0000
0000
,
0000
0000
0000
0000
,
0000
0000
0000
0000
,
0000
0000
0000
0000
,
1000
0000
0000
0000
,
0010
0000
0000
0000
,
1000
0000
0001
0000
,
1000
0000
0000
0000
,
0001
0000
0000
0000
,
0010
0000
0000
0000
,
0001
0000
1000
0000
,
0001
0000
0000
0000
,
1000
0000
0000
0000
,
0100
0000
0000
0000
,
1000
0000
0010
0000
,
1000
0000
0000
0000
,
0001
0000
0001
0000
,
0010
0000
0000
0000
,
0100
0000
0100
0000
,
0010
0000
0000
0000
,
0001
0000
0000
0000
,
0100
0000
0000
0000
,
0001
0000
0000
0000
,
0100
0000
0000
0000
,
0010
0000
1000
0000
,
0010
0000
0000
0000
,
1000
0000
0001
0000
,
1000
0000
0000
0000
,
0001
0000
0000
0000
,
0010
0000
0000
0000
,
0001
0000
0001
0000
,
0100
0000
0000
0000
,
0010
0000
0000
0000
,
1000
0000
0000
0000
,
0001
0000
0010
0000
,
0001
0000
0000
0000
,
0100
0000
0100
0000
,
0100
0000
0000
0000
,
0010
0000
0000
0000
,
1000
0000
0000
0000
,
0100
0000
0100
0000
,
0100
0000
0000
0000
,
0010
0000
0000
0000
,
0001
0000
0000
0000
,
1000
0000
0010
0000
,
1000
0000
0000
0000
,
0001
0000
0010
0000
,
0001
0000
0000
0000
,
0100
0000
0100
0000
,
0010
0000
0010
0000
,
1000
0000
0000
0000
,
0001
0000
0000
0000
,
1000
0000
0100
0000
,
1000
0000
0000
0000
,
0001
0000
0100
0000
,
0001
0000
0000
0000
,
0010
0000
0010
0000
,
0100
0000
0100
0000
,
1000
0000
0000
0000
,
0010
0000
0000
0000
,
1000
0000
1000
0000
,
0001
0000
0001
0000
,
1000
0000
1000
0000
,
0001
0000
0001
0000
,
1000
0000
0000
0000
,
0100
0000
0000
0000
,
0010
0000
0000
0000
,
0001
0000
0001
0000
,
1000
0000
0000
0000
,
1000
0000
0000
0000
,
0001
0000
0000
0000
,
0001
0000
0000
0000
,
1000
0000
0000
0000
,
0010
0000
0000
0000
,
1000
0000
0010
0000
,
0001
0000
0000
0000
,
1000
0000
0000
0000
,
1000
0000
0000
0000
,
0001
0000
0000
0000
,
0001
0000
0000
0000
,
1000
0000
0010
0000
,
1000
0000
1000
0000
,
0100
0000
0000
0000
,
0010
0000
0000
0000
,
0001
0000
0000
0000
,
1000
0000
0000
0000
,
0001
0000
1000
0000
,
0001
0000
0000
0000
,
0001
0000
0010
0000
,
0001
0000
0001
0000
,
0100
0000
0000
0000
,
0010
0000
0000
0000
,
1000
0000
0000
0000
,
0100
0000
0000
0000
,
1000
0000
0001
0000
,
1000
0000
1000
0000
,
0020
0000
0000
0000
,
0030
0000
0000
0000
;
