#TITLE:Big Daddy;
#SUBTITLE:;
#ARTIST:USAO;
#TITLETRANSLIT:;
#SUBTITLETRANSLIT:;
#ARTISTTRANSLIT:;
#GENRE:;
#CREDIT:;
#BANNER:Big Daddy.png;
#BACKGROUND:Big Daddy-bg.png;
#LYRICSPATH:;
#CDTITLE:;
#MUSIC:Big Daddy.ogg;
#OFFSET:-0.916000;
#SAMPLESTART:201.743408;
#SAMPLELENGTH:11.100003;
#SELECTABLE:YES;
#BPMS:0.000000=190.000000
;
#STOPS:
;
#BGCHANGES:;
#KEYSOUNDS:;
#ATTACKS:;

//---------------dance-single - ----------------
#NOTES:
     dance-single:
     sessu:
     Hard:
     18:
     1.077456,1.189042,0.699015,0.093202,0.908719,2104.000000,1909.000000,195.000000,26.000000,9.000000,0.000000,1.077456,1.189042,0.699015,0.093202,0.908719,2104.000000,1909.000000,195.000000,26.000000,9.000000,0.000000:
// measure 0
0000
0000
0000
0000
,  // measure 1
0000
0000
0000
0000
,  // measure 2
1100
0000
0011
0000
1000
0100
0010
0001
,  // measure 3
1000
0001
0010
0100
1000
0100
0010
0001
,  // measure 4
0101
0000
1010
0000
0001
0100
0010
1000
,  // measure 5
0001
1000
0010
0100
0001
0100
0010
1000
,  // measure 6
1100
0000
0011
0000
1000
0100
0010
0001
,  // measure 7
1000
0001
0010
0100
1000
0100
0010
0001
,  // measure 8
0101
0000
1010
0000
0001
0100
0010
1000
,  // measure 9
1100
0000
0000
0000
0010
0001
0000
0001
1000
0010
0100
0000
0101
0000
0000
0000
,  // measure 10
0011
0010
0001
1000
0010
0001
0010
0000
,  // measure 11
0110
0010
1000
0100
0001
0100
1000
0001
,  // measure 12
0101
0001
0010
0100
1000
0010
0001
0010
,  // measure 13
0110
0000
0010
0000
1000
0000
0100
0000
0010
0000
0001
0000
1000
0010
0100
0001
,  // measure 14
0100
0000
0001
0010
1000
0010
0001
0000
,  // measure 15
0101
0100
0010
1000
0100
0001
0100
1000
,  // measure 16
0010
0100
0010
0100
0001
0100
0001
0100
0010
1000
0001
0010
0100
1000
0100
0010
,  // measure 17
0001
0000
0000
0000
,  // measure 18
1100
0010
1100
0000
1001
0000
1001
0000
,  // measure 19
0101
0000
0101
0010
1000
0001
0010
0001
,  // measure 20
0101
0010
0101
0000
1001
0000
1001
0000
,  // measure 21
1100
0000
0000
0000
0110
0000
0011
0000
1001
0000
0000
0000
1001
0000
1000
0100
,  // measure 22
1000
0001
1010
0000
1001
0000
1001
0000
,  // measure 23
0011
0100
0011
0001
1000
0000
0010
0100
,  // measure 24
0101
0010
0101
0001
1001
0000
1001
0000
,  // measure 25
1000
0100
0010
0001
0010
0001
1000
0010
0100
0001
0010
0001
1000
0000
0000
0000
,  // measure 26
0101
0000
0010
0000
0100
0000
0001
0000
1000
0100
0010
0000
0010
0100
1000
0000
,  // measure 27
0001
0100
1000
0100
0001
0010
0110
0000
,  // measure 28
0011
0000
0001
1000
0001
0000
1000
0000
0010
0000
0100
0000
0001
0000
0010
0000
,  // measure 29
0100
1000
0100
0010
0001
0010
0100
1000
0100
0000
0000
0000
0010
0000
0010
0000
,  // measure 30
0011
0000
0001
0000
0100
0000
0010
0000
1000
0001
0010
0000
0001
1000
0100
0000
,  // measure 31
1000
0001
0100
0000
0001
1000
0010
0000
1000
0000
0100
0000
0110
0000
0000
0000
,  // measure 32
0011
0000
0001
1000
0001
0000
1000
0000
0010
0000
0010
0000
0010
0000
0010
0000
,  // measure 33
1000
0001
0010
0100
0010
0000
0001
1000
0001
0000
0100
0000
0010
0000
1000
0001
,  // measure 34
1000
0000
1000
0000
0001
0010
0100
1000
0001
0010
0100
1000
0001
0010
0100
1000
,  // measure 35
0001
0100
0010
1000
0001
0100
0010
1000
0001
0100
0010
1000
0001
0000
0100
0000
,  // measure 36
0101
0000
0000
0000
1000
0100
0010
0001
1000
0100
0010
0001
1000
0100
0010
0001
,  // measure 37
1000
0010
0100
0010
1000
0010
0100
0010
1000
0001
0010
0100
0010
0000
0001
0000
,  // measure 38
1001
0000
0000
0000
0100
0001
0100
0001
0010
0100
0010
0100
1000
0010
1000
0010
,  // measure 39
0100
0001
0100
0001
1000
0100
1000
0100
0010
0001
1000
0010
1000
0000
0001
0000
,  // measure 40
0101
0000
0000
0000
0010
0100
0010
0100
0001
0010
0100
0010
0001
0010
0100
0010
,  // measure 41
0001
1000
0010
0100
0001
0000
0010
0100
1000
0001
1000
0000
1001
0000
0000
0000
,  // measure 42
1002
0000
0100
0100
0000
0100
0000
0010
,  // measure 43
0000
0010
0000
0010
0000
1000
0103
0010
,  // measure 44
2001
0000
0100
0100
0000
0100
0000
0010
,  // measure 45
0000
0010
0000
0010
3100
0000
0101
0000
,  // measure 46
1001
0000
0000
0000
0001
0010
0100
0010
0001
0010
0100
0010
0001
0100
0010
1000
,  // measure 47
0001
0100
0010
0100
0001
0100
0010
0100
0001
1000
0100
0010
0002
0000
0000
0000
,  // measure 48
1003
0010
0100
0001
0100
0001
0010
0100
1000
0001
1000
0001
0100
0010
1000
0100
,  // measure 49
1000
0001
0010
0100
0010
0001
1000
0010
0100
0001
0100
0010
1000
0000
0000
0000
,  // measure 50
1010
0000
0000
0000
0001
0010
0100
1000
0001
0010
0100
1000
0001
0010
0100
1000
,  // measure 51
0001
0100
1000
0100
0001
0100
1000
0100
0001
0010
0100
0010
0001
0000
0000
0000
,  // measure 52
0011
0000
0000
0000
1000
0010
0100
0001
1000
0010
0100
0001
1000
0010
0100
0001
,  // measure 53
1000
0100
0001
0100
1000
0100
0001
0100
1000
0010
0100
0010
1000
0000
0000
0000
,  // measure 54
1010
0000
0000
0000
0010
0100
0010
0100
0001
0010
0100
1000
0010
0100
0010
0100
,  // measure 55
0001
0010
0100
1000
0100
0010
0001
1000
0020
0000
0000
0000
0130
0000
0000
0000
,  // measure 56
1001
0000
0000
0000
0001
0100
0010
1000
0100
0000
0001
0000
0100
0000
0000
0000
,  // measure 57
1001
0000
0000
0000
0010
0100
1000
0010
0100
0000
0000
0000
0101
0000
0000
0000
,  // measure 58
1010
0000
0000
0000
0010
1000
0100
1000
0010
1000
0100
1000
0010
1000
0100
1000
,  // measure 59
0010
0100
0001
1000
0001
0010
0100
1000
0001
1000
0010
0100
0001
0000
0000
0000
,  // measure 60
0101
0000
0000
0000
0010
1000
0100
1000
0010
1000
0100
1000
0010
1000
0100
1000
,  // measure 61
0001
0010
0100
1000
0001
0100
0010
1000
0100
0010
0001
1000
0001
0000
0000
0000
,  // measure 62
1001
0000
0000
0000
0001
0010
0100
1000
0001
0010
0100
1000
0001
0010
0100
1000
,  // measure 63
0001
0100
0010
0100
0001
0100
0010
0100
0001
0000
0000
0000
0101
0000
0000
0000
,  // measure 64
0011
0100
1100
0000
1100
0000
1100
0000
,  // measure 65
0010
0001
0100
0001
0010
0000
0100
1000
0001
1000
0010
0000
0120
0000
0000
0000
,  // measure 66
1030
0000
0000
0001
0000
0000
0010
0000
0000
0001
0000
0000
1000
0000
0000
0000
0000
0000
0010
0000
1000
0000
0000
0000
0000
0000
0000
0000
0000
0000
0001
0000
0010
0000
0000
0000
0000
0000
0000
0000
0000
0000
0100
0000
0000
0010
0000
0000
,  // measure 67
0100
0000
1000
0000
0010
0000
0100
0000
0001
0010
0100
1000
0100
0000
0010
0000
,  // measure 68
0011
0000
0100
0000
1000
0000
1010
0000
0100
0000
0001
0000
0010
0100
0010
0000
,  // measure 69
0011
0000
0000
0000
1100
0000
0000
0000
1001
0000
0000
0000
1001
0000
0010
0100
,  // measure 70
1000
0000
0000
0001
0000
0000
0010
0000
0000
0001
0000
0000
1000
0000
0000
0000
0000
0000
0010
0000
1000
0000
0000
0000
0000
0000
0000
0000
0000
0000
0001
0000
0010
0000
0000
0000
0000
0000
0000
0000
0000
0000
0100
0000
0000
0010
0000
0000
,  // measure 71
0100
0000
1000
0000
0010
0000
0100
0000
0001
0010
0100
1000
0100
0000
0010
0000
,  // measure 72
0011
0000
0100
0000
1000
0000
1010
0000
0100
0000
0001
0000
0010
0100
1000
0001
,  // measure 73
1000
0010
0110
0101
0001
0010
1001
0000
,  // measure 74
0001
0000
0000
1000
0000
0000
0010
0000
0000
1000
0000
0000
0001
0000
0000
0000
0000
0000
0010
0000
0001
0000
0000
0000
0000
0000
0000
0000
0000
0000
1000
0000
0010
0000
0000
0000
0000
0000
0000
0000
0000
0000
0100
0000
0000
0010
0000
0000
,  // measure 75
0100
0000
0001
0000
0010
0000
0100
0000
1000
0010
0100
0001
0100
0000
0001
1000
,  // measure 76
0010
0000
0100
0000
0001
0000
0010
0000
0001
0000
0100
0000
0010
1000
0100
1000
,  // measure 77
0010
0000
0100
0001
1000
0000
0100
1000
0001
0000
0010
0000
0001
0010
0100
1000
,  // measure 78
0001
0000
0000
1000
0000
0000
0010
0000
0000
1000
0000
0000
0001
0000
0000
0000
0000
0000
0010
0000
0001
0000
0000
0000
0000
0000
0000
0000
0000
0000
1000
0000
0010
0000
0000
0000
0000
0000
0000
0000
0000
0000
0100
0000
0000
0010
0000
0000
,  // measure 79
0100
0000
0001
0000
0010
0000
0100
0000
1000
0010
0100
0001
0100
0000
0001
1000
,  // measure 80
0010
0100
0010
0100
0001
0010
0001
0010
0100
1000
0100
1000
0010
0100
0010
0100
,  // measure 81
0001
0000
0011
0100
1000
0001
2000
0000
,  // measure 82
3001
0100
0010
0001
0010
0100
0001
1000
,  // measure 83
0100
0100
0100
0100
0010
0010
0010
0010
,  // measure 84
0001
0100
0010
0001
0010
0100
0001
0010
,  // measure 85
1000
0000
1000
0000
1000
0000
1000
0000
0010
0000
0010
0000
0010
0100
1000
0001
,  // measure 86
1000
0010
0100
1000
0100
0010
1000
0001
,  // measure 87
0010
0010
0010
0010
0100
0100
0100
0100
,  // measure 88
1000
0010
0100
1000
0100
0010
1000
0100
,  // measure 89
0001
0000
0001
0000
0001
0000
0001
0000
0100
0000
0100
0000
0100
0010
0001
1000
,  // measure 90
0001
0100
0010
0100
0001
0000
1000
0010
0100
0010
1000
0000
0001
0000
0100
0000
,  // measure 91
1000
1000
1000
1000
0100
0100
0100
0100
,  // measure 92
0001
0010
0100
0010
0001
0010
0100
0010
0001
0100
0010
0100
0001
0100
0010
0100
,  // measure 93
0001
0000
0001
0000
0001
0000
0001
0000
1000
0000
1000
0000
1000
0010
0100
0001
,  // measure 94
1000
0100
0010
0100
1000
0000
0001
0010
0100
0010
0001
0000
1000
0000
0100
0000
,  // measure 95
0001
0001
0001
0001
0100
0100
0100
0100
,  // measure 96
1000
0010
0100
0001
1000
0010
0100
0001
1000
0100
0010
0001
1000
0100
0010
0001
,  // measure 97
0200
0320
2030
3001
,  // measure 98
1001
0100
1000
0000
1001
0100
1000
0000
,  // measure 99
1001
0100
0001
0000
1001
0100
0001
0000
,  // measure 100
1001
0010
1000
0000
1001
0010
1000
0000
,  // measure 101
1000
0001
1000
0001
1000
0001
1000
0001
1000
0000
0100
0000
0001
0000
0000
0000
,  // measure 102
1001
0100
0001
0010
1000
0010
0001
0100
,  // measure 103
1001
0100
1000
0010
0001
0010
1000
0100
,  // measure 104
0010
0001
0100
0010
0100
0010
1000
0100
0010
0001
0010
0001
0100
0010
1000
0001
,  // measure 105
2000
3000
0200
0300
0020
0030
0002
0003
,  // measure 106
1100
0000
0000
0000
0000
0000
0010
0000
0000
0000
0000
0000
0001
0000
0000
0000
0000
0000
0100
0000
0010
0000
0000
0000
0000
0000
0000
0000
0000
0000
1000
0000
0010
0000
0000
0000
0000
0000
0000
0000
0000
0000
0100
0000
0000
0001
0000
0000
,  // measure 107
0100
0010
0000
0010
1000
0000
0001
0010
0000
0010
0100
0000
2000
0000
3001
0010
,  // measure 108
0001
0000
0000
0000
0000
0000
0100
0000
0000
0000
0000
0000
0010
0000
0000
0000
0000
0000
1000
0000
0010
0000
0000
0000
0000
0000
0000
0000
0000
0000
0001
0000
0010
0000
0000
0000
0000
0000
0000
0000
0000
0000
0100
0000
0000
0010
0000
0000
,  // measure 109
0200
0000
0000
0000
,  // measure 110
2300
3000
0000
0000
M000
0000
0000
0000
0000
0000
0000
0000
0000
0000
0000
0000
,  // measure 111
0000
0000
0000
0000
,  // measure 112
0000
0000
0000
0000
,  // measure 113
0000
0000
0000
0000
,  // measure 114
MMMM
0000
0000
0000
,  // measure 115
0000
0000
0000
0000
,  // measure 116
00M0
00M0
00M0
00M0
0000
0000
0000
0000
0000
0000
0000
0000
,  // measure 117
0001
0000
1000
0000
0000
0001
0010
0000
,  // measure 118
0000
1000
0010
0000
0000
0001
0010
0000
,  // measure 119
2100
3000
0000
0000
0101
0000
0000
0000
1100
0000
0000
0000
0101
0000
0000
0000
,  // measure 120
1100
0101
1100
0101
,  // measure 121
2010
3000
0000
0000
0011
0000
0000
0000
1010
0000
0000
0000
0011
0000
0000
0000
,  // measure 122
1010
0000
0011
0000
1010
0000
0011
0100
,  // measure 123
2100
3000
0000
0000
0101
0000
0000
0000
1100
0000
0000
0000
0101
0000
0000
0000
,  // measure 124
1100
0101
1100
0101
,  // measure 125
2010
3000
0000
0000
0011
0000
0000
0000
1010
0000
0000
0000
0011
0000
0000
0000
,  // measure 126
0210
0300
0000
0000
1000
0000
1100
0000
0000
0000
0001
0000
0101
0000
0001
1000
,  // measure 127
0002
0003
0010
0000
0100
0000
0010
0000
0001
0000
1000
0000
0001
0000
0000
0000
,  // measure 128
0101
0000
1100
0000
0101
0000
1100
0100
,  // measure 129
2000
3000
0010
0000
0100
0000
0010
0000
1000
0000
0001
0000
1000
0000
0000
0000
,  // measure 130
1010
0000
0011
0000
1010
1000
0011
0001
,  // measure 131
2000
3000
0100
0000
0010
0000
0100
0000
1000
0000
0001
0000
1000
0000
0000
0000
,  // measure 132
1001
0000
0001
0100
1000
0100
0001
0010
,  // measure 133
0100
0100
0100
0010
0010
0010
0001
1000
,  // measure 134
0001
0100
0010
1000
0010
1000
0100
0010
0001
0010
0100
1000
0001
0000
0000
0000
,  // measure 135
1001
0100
1000
0100
0001
0010
0100
0000
,  // measure 136
1100
0000
1000
0100
0001
0100
1000
0001
,  // measure 137
0100
0100
0100
0010
0010
0010
0100
0001
,  // measure 138
1000
0000
0000
0000
0001
0000
0100
0000
0010
0000
0100
0000
0001
0010
0100
1000
,  // measure 139
0001
0100
1000
0100
0001
0010
0100
0000
,  // measure 140
0110
0000
0100
0000
1000
0000
0000
0000
0001
0000
0100
0000
0001
0010
0100
1000
,  // measure 141
0001
0001
0001
1000
1000
1000
0010
0100
,  // measure 142
0010
1000
0100
0010
0100
1000
0010
0100
0001
0010
0001
0100
0010
0000
1000
0001
,  // measure 143
1000
0000
0000
0100
0000
0000
0010
0000
0000
0100
0000
0000
1000
0000
0000
0000
0000
0000
0001
0000
0010
0000
0000
0000
0000
0000
0000
0000
0000
0000
0001
0000
1000
0000
0000
0000
0000
0000
0000
0000
0000
0000
0001
0000
0000
0100
0000
0000
,  // measure 144
0001
0010
0100
1000
0001
0100
0010
1000
,  // measure 145
1100
0000
0010
0000
0001
0000
0101
0000
0010
0000
1000
0000
0100
0000
0010
0001
,  // measure 146
1000
0000
0010
0000
0001
0000
0010
0000
1000
0000
1000
0000
0001
0010
0100
1000
,  // measure 147
0001
0000
0000
0000
0000
0000
0100
0000
0000
0000
0000
0000
0010
0000
0000
0000
0000
0000
1000
0000
0010
0000
0000
0000
0000
0000
0000
0000
0000
0000
1000
0000
0001
0000
0000
0000
0000
0000
0000
0000
0000
0000
1000
0000
0000
0100
0000
0000
,  // measure 148
1000
0010
0100
0001
1000
0100
0010
0001
,  // measure 149
0101
0010
1000
0100
0010
0100
1000
0010
,  // measure 150
0100
0001
1000
0001
0100
0000
0010
1000
0001
0010
0001
0000
0011
0000
0000
0000
,  // measure 151
1000
0100
0010
1000
0010
0100
1000
0001
,  // measure 152
1000
0000
0010
0000
0001
0000
0010
0000
0100
0000
0010
0000
1000
0000
0001
0010
,  // measure 153
0001
0100
0010
0001
0010
0100
0001
1000
,  // measure 154
0101
0000
0000
0000
1100
0000
0000
0000
0011
0000
0000
0000
1010
0000
0010
1000
,  // measure 155
0001
0001
0100
0100
1000
1000
0010
0010
,  // measure 156
0001
0001
0100
0100
1000
1000
0010
0010
,  // measure 157
0001
0100
0001
0100
0010
1000
0010
1000
0100
0010
0001
1000
0001
0100
0010
1000
,  // measure 158
0001
0010
0000
0010
0100
0000
1000
0010
0000
0010
0100
0000
0110
0000
0000
0000
,  // measure 159
0001
0100
0010
0100
0001
0000
1000
0100
0010
0000
0001
0000
1000
0000
0010
0100
,  // measure 160
0010
0000
1000
0000
0001
0010
0100
0000
1000
0010
0100
0000
0001
0010
0100
1000
,  // measure 161
0010
0100
0100
0001
0100
0100
0010
1000
,  // measure 162
0001
0010
0001
0000
1000
0010
0100
0001
1000
0010
0100
0001
2000
0000
0000
0000
,  // measure 163
3001
0010
0100
0010
0001
0000
1000
0010
0100
0000
0001
0000
1000
0000
0100
0010
,  // measure 164
0100
0000
1000
0000
0001
0010
0100
0000
1000
0010
0100
0000
0001
0010
0100
1000
,  // measure 165
0010
0100
0001
0010
0100
1000
0010
0100
,  // measure 166
0001
0100
0010
1000
0010
1000
0100
0010
0001
0010
0100
1000
0001
0000
0000
0000
,  // measure 167
0101
0000
1100
0000
0101
0000
1000
0100
0010
0000
0001
0000
1000
0000
0010
0100
,  // measure 168
0010
0000
1000
0000
0001
0010
0100
0000
1000
0010
0100
0000
0001
0010
0100
1000
,  // measure 169
0010
0100
0100
0001
0100
0100
0010
1000
,  // measure 170
0001
0010
0001
0000
1000
0010
0100
0001
1000
0010
0100
0001
2000
0000
0000
0000
,  // measure 171
3001
0010
0100
0010
0001
0000
1000
0010
0100
0000
0001
0000
1000
0000
0100
0010
,  // measure 172
0100
0000
1000
0000
0001
0010
0100
0000
1000
0010
0100
0000
0001
0010
0100
1000
,  // measure 173
0010
0100
0010
0100
0001
0010
0001
0010
0100
1000
0100
1000
0010
0100
0010
0100
,  // measure 174
0001
0000
1000
0101
0000
0001
1100
1100
,  // measure 175
1000
0100
0010
0001
0100
0000
0010
1000
0010
0000
0100
0001
0100
0000
0010
0000
,  // measure 176
1000
0010
0100
0000
0001
0010
0100
0000
1000
0010
0100
0000
0001
0010
0100
1000
,  // measure 177
0001
0100
0010
0100
0010
1000
0001
0100
0010
0100
0010
1000
0001
0010
0100
1000
,  // measure 178
0001
0000
0100
0000
0101
0000
0001
0000
1000
0000
0100
0000
1000
0010
0100
0001
,  // measure 179
1000
0100
0010
0001
0100
0000
0010
1000
0010
0000
0100
0001
0100
0000
0010
0000
,  // measure 180
1000
0010
0100
0000
0001
0010
0100
0000
1000
0010
0100
0000
0001
0010
0100
1000
,  // measure 181
0001
0100
0010
0100
0010
1000
0001
0100
0010
0100
0010
1000
0001
0010
0100
1000
,  // measure 182
0001
0000
0100
0000
0101
0000
0010
1000
0000
1000
0100
0000
0010
0001
0010
0100
,  // measure 183
1000
0100
0010
0001
0100
0000
1000
0100
0001
0000
1000
0100
0001
0000
0100
0000
,  // measure 184
1000
0010
0100
0000
0001
0010
0100
0000
1000
0010
0100
0000
0001
0010
0100
1000
,  // measure 185
0001
0100
0010
1000
0100
1000
0010
0100
0001
0100
0010
1000
0100
0010
0001
0100
,  // measure 186
0001
0000
0010
0000
0110
0000
0100
0000
1100
0000
1000
0000
1000
0010
0100
0001
,  // measure 187
1000
0100
0010
0001
0100
0000
1000
0100
0001
0000
1000
0100
0001
0000
0100
0000
,  // measure 188
1000
0010
0100
0000
0001
0010
0100
0000
1000
0010
0100
0000
0001
0010
0100
1000
,  // measure 189
0001
0100
0010
1000
0100
1000
0010
0100
0001
0100
0010
1000
0100
0010
0001
0100
,  // measure 190
0001
0000
0010
0000
0100
0000
1100
0000
0000
0000
0000
0000
1000
0010
0100
0001
,  // measure 191
1000
0010
1100
0000
1001
0000
1001
0000
,  // measure 192
0101
0000
0101
0010
1000
0001
0010
0001
,  // measure 193
0101
0000
0001
0100
0001
0000
0000
0000
1001
0000
0000
0000
1001
0000
0000
0000
,  // measure 194
1100
0000
0100
0000
0010
0000
0001
0000
0101
0000
0000
0000
1001
0000
1000
0100
,  // measure 195
1000
0000
0001
0000
0010
0001
0100
0000
0010
1000
0100
0000
0010
0001
0100
0000
,  // measure 196
0010
1000
0100
1000
0001
0000
0010
0001
0100
0001
1000
0000
0001
0010
0100
1000
,  // measure 197
0001
0100
0010
1000
0001
0100
0010
1000
0001
0010
0100
1000
0001
0010
0100
1000
,  // measure 198
0001
0000
0000
0011
0000
0000
1010
0000
0000
0011
0000
0000
1100
0000
0000
0000
,  // measure 199
1001
0000
0000
0000
1001
0000
0001
0000
1000
0010
1000
0000
0001
0100
0001
0000
,  // measure 200
1000
0010
1000
0000
0001
0100
0001
0000
1000
0010
1000
0000
0100
0000
0000
0000
,  // measure 201
1100
0000
0000
0000
0001
0010
0001
0000
1000
0010
1000
0000
0001
0010
0001
0000
,  // measure 202
1000
0010
1000
0000
0001
0100
0001
0000
1000
0010
1000
0000
0100
0000
0000
0000
,  // measure 203
1100
0000
0000
0000
0001
0010
0001
0000
1000
0010
1000
0000
0001
0010
0001
0000
,  // measure 204
1000
0010
0100
0000
0001
0010
0100
0000
1000
0010
0100
0000
0001
0000
0000
0000
,  // measure 205
0101
0000
0000
0000
1000
0010
1000
0000
0001
0010
0001
0000
0100
0010
0100
0000
,  // measure 206
0101
0011
1010
1100
,  // measure 207
1001
0000
1010
0000
0101
0010
1000
0000
,  // measure 208
1100
0010
0001
0000
0101
0010
1000
0000
,  // measure 209
1100
0000
0011
0000
1100
0010
0001
0000
,  // measure 210
0101
0010
1000
0000
1100
0010
0001
0000
,  // measure 211
1001
0000
0110
0000
0101
0010
1000
0000
,  // measure 212
1100
0010
0001
0000
0101
0010
1000
0000
,  // measure 213
1100
0000
0011
0000
1100
0010
0001
0000
,  // measure 214
1001
0000
0000
0000
;
