#TITLE:Auto Click;
#SUBTITLE:;
#ARTIST:KAN TAKAHIKO;
#TITLETRANSLIT:;
#SUBTITLETRANSLIT:;
#ARTISTTRANSLIT:;
#GENRE:;
#CREDIT:;
#BANNER:Auto Click.png;
#BACKGROUND:Auto Click-bg.png;
#LYRICSPATH:;
#CDTITLE:;
#MUSIC:Auto Click.ogg;
#OFFSET:-2.859999;
#SAMPLESTART:18.344000;
#SAMPLELENGTH:15.484000;
#SELECTABLE:YES;
#BPMS:0.000000=124.000000
;
#STOPS:
;
#BGCHANGES:;
#KEYSOUNDS:;
#ATTACKS:;

//---------------dance-single - ----------------
#NOTES:
     dance-single:
     :
     Hard:
     12:
     0.497693,0.492514,0.033579,0.067159,0.486900,415.000000,411.000000,4.000000,8.000000,0.000000,0.000000,0.497693,0.492514,0.033579,0.067159,0.486900,415.000000,411.000000,4.000000,8.000000,0.000000,0.000000:
0000
0000
0000
0000
,
0000
0000
0000
0000
,
0000
0000
0000
0000
,
0000
0000
0000
0000
,
0002
0000
0000
0000
0013
0000
0000
0010
0000
0010
0000
0001
0020
0000
0000
0000
,
0230
0000
0000
0000
1300
0000
0000
1000
0000
1000
0000
0100
1000
0000
0001
0000
,
0002
0000
0000
0000
0103
0000
0000
0100
0000
0100
0000
0001
0200
0000
0000
0000
,
0320
0000
0000
0000
1030
0000
0000
0000
0001
0000
0001
0000
0010
0001
0000
0000
,
1000
0000
0100
0000
0010
0000
0001
1000
0000
0000
0100
0000
0010
0000
0100
0000
,
1000
0000
0010
0000
0100
0000
0001
1000
0000
0000
0001
0000
0010
0000
0001
0000
,
1000
0000
0100
0000
0010
0000
0001
0100
0000
0001
0010
0000
0100
0000
1000
0000
,
0001
0000
0100
0000
0010
0000
1000
0010
0000
0010
1000
0000
0001
0000
0000
0000
,
0001
0000
0010
0000
0100
0000
1000
0001
0000
0000
1000
0000
0100
0000
0010
0000
,
0001
0000
1000
0000
0010
0000
0100
0001
0000
0000
1000
0000
0010
0000
1000
0000
,
0001
0000
0010
0000
0001
0000
1000
0010
0000
0100
0001
0000
1000
0000
0001
0000
,
0010
0000
0100
0000
1000
0000
0100
0000
0010
0001
1000
0001
0000
0000
0000
0000
,
0001
0100
0010
1000
0001
0000
0100
0000
0000
0100
0001
0000
1000
0000
0010
0000
,
1000
0000
0100
0010
0001
0000
1000
0000
0000
0000
0100
0000
0010
0000
0001
0000
,
1000
0000
0100
0010
0001
0000
0100
0000
0000
0100
0001
0000
1000
0000
0010
0000
,
1000
0000
0100
0010
0001
0000
1000
0000
0000
1000
0100
0010
0001
0010
0100
0000
,
1000
0000
0100
0010
0001
0000
1000
0000
0000
1000
0100
0000
0010
0000
0001
0000
,
1000
0000
0100
0010
0001
0000
0100
0000
0000
0100
0001
0000
1000
0000
0010
0000
,
1000
0000
0100
0010
0001
0000
1000
0000
0000
1000
0100
0000
0010
0000
0100
0000
,
1000
0000
0000
0001
0010
0001
0000
1000
0000
0001
0100
0000
0010
0000
1000
0000
,
0002
0000
0000
0000
0013
0000
0000
0010
0000
0010
0000
0001
0010
0000
0000
0000
,
1000
0000
0100
0000
0010
0000
0100
1000
0000
1000
0000
0100
0010
0000
0001
0000
,
1000
0000
0001
0000
0010
0000
0100
1000
0000
1000
0000
0100
0010
0000
0001
0000
,
0100
0000
0001
0000
0010
0000
0100
1000
0000
1000
0000
0100
0010
0000
0001
0000
,
0001
0000
0100
0000
0010
0000
0100
0001
0000
0001
0000
0100
0010
0000
1000
0000
,
0001
0000
1000
0000
0010
0000
0100
0001
0000
0001
0000
0100
0010
0000
1000
0000
,
0100
0000
1000
0000
0010
0000
0100
0001
0000
0001
0000
0100
0010
0000
1000
0000
,
1001
0110
1001
0011
,
1000
0000
0010
1000
0000
0001
0000
0000
0010
0000
0000
0010
0000
0010
0100
0000
,
1000
0000
0010
1000
0000
0001
0000
0000
0010
0000
0000
0010
0000
0010
0100
0000
,
1000
0000
0001
0100
0000
0001
0000
0000
1000
0000
0000
1000
0000
1000
0100
0000
,
0010
0000
0001
0100
0000
0001
0000
0000
1000
0000
0000
0100
0000
0100
0010
0000
,
0001
0000
1000
0001
0010
0000
0100
0000
0000
0000
0100
0000
0010
0000
0100
0000
,
1000
0000
0001
1000
0010
0000
0100
0000
0000
0000
0100
0000
0010
0000
0100
0000
,
0001
0000
1000
0001
0010
0000
0100
0000
0000
0000
0100
0000
0010
0000
0100
0000
,
1000
0100
0010
0001
0010
0100
1000
0001
0100
0010
0000
0000
,
1000
0000
0100
0000
0010
0000
0001
1000
0000
0000
0100
0000
0010
0000
0100
0000
,
1000
0000
0001
0000
0100
0000
0010
1000
0000
0000
0001
0000
0010
0000
0001
0000
,
1000
0000
0100
0000
0010
0000
0001
1000
0000
1000
0001
0000
0010
0000
0001
0000
,
1000
0000
0010
0000
0100
0000
0001
1000
0000
1000
0010
0000
1000
0000
0000
0000
,
0001
0000
0010
0000
0100
0000
1000
0001
0000
0000
0010
0000
0100
0000
0010
0000
,
0001
0000
1000
0000
0010
0000
0100
0001
0000
0000
1000
0000
0010
0000
1000
0000
,
0001
0000
0010
0000
0001
0000
1000
0100
0000
0100
0010
0000
0001
0000
1000
0000
,
0010
0000
0100
0000
0001
0000
0100
0010
0000
0010
1000
0000
0002
0000
0000
0000
,
0103
0000
0010
0000
0000
1000
0000
0000
0010
0000
0000
1000
0000
0000
0001
0000
,
0100
0000
0010
0000
0000
1000
0000
0000
0010
0000
0000
1000
0000
0000
0001
0000
,
1000
0000
0100
0000
0000
0010
0000
0000
0100
0000
0000
0010
0000
0000
0001
0000
,
1000
0000
0100
0000
0000
0010
0000
0000
0001
0000
0010
0001
0000
0000
1000
0000
,
0001
0000
0100
0000
0000
0010
0000
0000
0100
0000
0000
0010
0000
0000
1000
0000
,
0001
0000
0100
0000
0000
0010
0000
0000
0100
0000
0000
0010
0000
0000
1000
0000
,
0001
0000
0010
0000
0000
0100
0000
0000
0010
0000
0000
0100
0000
0000
1000
0000
,
0001
0000
0010
0000
0000
0100
0000
0000
1000
0000
0001
1000
0000
0000
0010
0000
;

//---------------dance-single - ----------------
#NOTES:
     dance-single:
     :
     Medium:
     9:
     0.345387,0.351796,0.025184,0.209871,0.134317,288.000000,285.000000,3.000000,25.000000,0.000000,0.000000,0.345387,0.351796,0.025184,0.209871,0.134317,288.000000,285.000000,3.000000,25.000000,0.000000,0.000000:
0000
0000
0000
0000
,
0000
0000
0000
0000
,
0000
0000
0000
0000
,
0000
0000
0000
0000
,
2010
0000
3001
0000
0010
0100
0020
0000
,
0032
0000
1003
0000
0010
0100
0010
0000
,
2010
0000
3001
0000
0010
0100
0020
0000
,
0032
0203
0320
1030
,
1000
0100
0010
0100
0000
1000
0100
0010
,
0001
0010
0100
1000
0000
0001
0010
0001
,
1000
0010
0100
0010
0000
1000
0010
0100
,
0001
0100
0010
0000
1000
0001
1000
0000
,
0001
0010
0100
0010
0000
0001
0010
0100
,
1000
0100
0010
0001
0000
1000
0010
1000
,
0001
0100
0010
0100
0000
0001
0100
0010
,
2000
0000
3001
0000
0010
0100
0020
0000
,
0031
0000
1000
0000
0000
0010
0000
0000
1000
0000
0000
0010
0000
0000
0100
0000
,
0001
0000
1000
0000
0000
0010
0000
0000
1000
0000
0000
0010
0000
0000
1000
0000
,
0001
0000
0010
0000
0000
0100
0000
0000
0010
0000
0000
0100
0000
0000
1000
0000
,
0001
0000
0010
0000
0000
0100
0000
0000
1000
0000
0000
1000
0000
0000
0010
0000
,
1000
0000
0100
0000
0000
0010
0000
0000
0100
0000
0000
0010
0000
0000
0001
0000
,
1000
0000
0100
0000
0000
0010
0000
0000
0100
0000
0000
0010
0000
0000
0001
0000
,
1000
0000
0001
0000
0000
0100
0000
0000
0001
0000
0000
0100
0000
0000
0010
0000
,
1000
0000
0001
0000
0000
0100
0000
0000
0010
0000
0000
0010
0000
0000
1000
0000
,
0200
0000
0310
0000
0001
1000
0002
0000
,
1003
0000
0100
0000
0010
0001
0010
0000
,
0100
0000
1000
0000
0001
0100
0001
0000
,
1000
0000
0001
0000
0100
0010
0100
0001
,
1000
0000
0100
0000
0010
0001
0010
0000
,
0100
0000
1000
0000
0001
0100
0001
0000
,
1000
0000
0001
0000
0100
0010
0100
0001
,
2000
3200
0320
0032
,
2003
3000
0000
0000
,
0200
0300
0000
0000
,
0002
0003
0000
0000
,
0020
0030
0000
0000
,
2000
0000
0010
0000
3001
0100
0010
0000
,
0002
0000
0010
0000
1003
0100
0010
0000
,
2000
0000
0010
0000
3001
0100
0010
0000
,
1000
0100
0001
0011
,
1000
0100
0010
0100
0000
1000
0100
0010
,
0001
0010
0100
1000
0000
0001
0010
0001
,
1000
0010
0100
0010
0000
1000
0010
0100
,
0001
0100
0010
0000
1000
0001
1000
0000
,
0001
0010
0100
0010
0000
0001
0010
0100
,
1000
0100
0010
0001
0000
1000
0010
1000
,
0001
0100
0010
0100
0000
0001
0100
0010
,
2000
0000
3001
0000
0010
0100
0020
0000
,
0031
0000
1000
0000
0000
0010
0000
0000
1000
0000
0000
0010
0000
0000
0100
0000
,
0001
0000
1000
0000
0000
0010
0000
0000
1000
0000
0000
0010
0000
0000
1000
0000
,
0001
0000
0010
0000
0000
0100
0000
0000
0010
0000
0000
0100
0000
0000
1000
0000
,
0001
0000
0010
0000
0000
0100
0000
0000
1000
0000
0000
1000
0000
0000
0010
0000
,
1000
0000
0100
0000
0000
0010
0000
0000
0100
0000
0000
0010
0000
0000
0001
0000
,
1000
0000
0100
0000
0000
0010
0000
0000
0100
0000
0000
0010
0000
0000
0001
0000
,
1000
0000
0001
0000
0000
0100
0000
0000
0001
0000
0000
0100
0000
0000
0010
0000
,
1000
0000
0001
0000
0000
0100
0000
0000
0010
0000
0000
0010
0000
0000
1000
0000
;

//---------------dance-single - ----------------
#NOTES:
     dance-single:
     :
     Easy:
     5:
     0.218265,0.230858,0.000000,0.083948,0.000000,182.000000,182.000000,0.000000,10.000000,0.000000,0.000000,0.218265,0.230858,0.000000,0.083948,0.000000,182.000000,182.000000,0.000000,10.000000,0.000000,0.000000:
// measure 0
0000
0000
0000
0000
,  // measure 1
0000
0000
0000
0000
,  // measure 2
0000
0000
0000
0000
,  // measure 3
0000
0000
0000
0000
,  // measure 4
0010
1000
0000
1000
,  // measure 5
0001
0010
0000
0010
,  // measure 6
0100
1000
0000
1000
,  // measure 7
0001
0010
0100
1000
,  // measure 8
0001
0000
0010
0000
0000
0001
0010
0000
,  // measure 9
0100
0000
1000
0000
0000
0100
1000
0000
,  // measure 10
0001
0000
0100
0000
0000
0001
0100
0000
,  // measure 11
0010
0000
1000
0000
0010
0010
1000
0000
,  // measure 12
0001
0000
0010
0000
0000
0001
0010
0000
,  // measure 13
0001
0000
1000
0000
0000
0001
1000
0000
,  // measure 14
0010
0000
0100
0000
0000
0010
0100
0000
,  // measure 15
0001
0001
0010
0000
,  // measure 16
0200
1300
0000
1000
,  // measure 17
0001
1000
0000
1000
,  // measure 18
0100
0010
0000
0010
,  // measure 19
0001
0000
0010
0000
0100
1000
0100
0000
,  // measure 20
1000
0010
0000
0010
,  // measure 21
0100
0010
0000
0010
,  // measure 22
0001
0010
0000
0010
,  // measure 23
1000
0000
0100
0000
0010
0001
0010
0000
,  // measure 24
0200
1000
0310
0000
,  // measure 25
0001
0000
1000
0000
0000
0001
1000
0000
,  // measure 26
0010
0000
1000
0000
0000
0010
1000
0000
,  // measure 27
0001
0000
0010
0000
0000
0001
0010
0000
,  // measure 28
0100
0000
1000
0000
0000
0100
1000
0000
,  // measure 29
0001
0000
0100
0000
0000
0001
0100
0000
,  // measure 30
0010
0000
0100
0000
0000
0010
0100
0000
,  // measure 31
0001
0010
0100
0010
,  // measure 32
0002
0003
0000
0000
,  // measure 33
0200
0300
0000
0000
,  // measure 34
2000
3000
0000
0000
,  // measure 35
0200
0300
0000
0000
,  // measure 36
0002
0010
0000
0013
,  // measure 37
0200
1000
0000
1300
,  // measure 38
0020
1000
0000
1030
,  // measure 39
0001
0100
1000
0020
,  // measure 40
0031
0000
0100
0000
0000
0100
0001
0000
,  // measure 41
1000
0000
0100
0000
0000
0100
1000
0000
,  // measure 42
0001
0000
0010
0000
0000
0010
0001
0000
,  // measure 43
1000
0000
0010
0000
1000
0001
1000
0000
,  // measure 44
1000
0000
0100
0000
0000
0100
1000
0000
,  // measure 45
0001
0000
0100
0000
0000
0100
0001
0000
,  // measure 46
0010
0000
0001
0000
0000
0001
0010
0000
,  // measure 47
0100
0100
0100
1000
,  // measure 48
0001
0100
1000
0100
,  // measure 49
0001
1000
0001
0001
,  // measure 50
1000
0100
0001
0100
,  // measure 51
1000
0001
1000
0000
,  // measure 52
0010
0100
0001
0100
,  // measure 53
0010
1000
0010
0010
,  // measure 54
1000
0100
0010
0100
,  // measure 55
1000
0000
0000
0000
;

//---------------dance-single - ----------------
#NOTES:
     dance-single:
     :
     Beginner:
     1:
     0.086347,0.138515,0.000000,0.008395,0.000000,72.000000,72.000000,0.000000,1.000000,0.000000,0.000000,0.086347,0.138515,0.000000,0.008395,0.000000,72.000000,72.000000,0.000000,1.000000,0.000000,0.000000:
// measure 0
0000
0000
0000
0000
,  // measure 1
0000
0000
0000
0000
,  // measure 2
0000
0000
0000
0000
,  // measure 3
0000
0000
0000
0000
,  // measure 4
0001
0000
0000
0000
,  // measure 5
0100
0000
0000
0000
,  // measure 6
0010
0000
0000
0000
,  // measure 7
1000
0000
1000
0000
,  // measure 8
0001
0000
0000
0000
,  // measure 9
0010
0000
0000
0000
,  // measure 10
0001
0000
0000
0000
,  // measure 11
1000
1000
1000
0000
,  // measure 12
0010
0000
0000
0000
,  // measure 13
0100
0000
0000
0000
,  // measure 14
0010
0000
0000
0000
,  // measure 15
1000
1000
1000
0000
,  // measure 16
0001
0000
0001
0000
,  // measure 17
1000
0000
1000
0000
,  // measure 18
0001
0000
0001
0000
,  // measure 19
1000
0000
0000
0000
,  // measure 20
0010
0000
0010
0000
,  // measure 21
1000
0000
1000
0000
,  // measure 22
0010
0000
0010
0000
,  // measure 23
1000
0000
0000
0000
,  // measure 24
0002
0000
0003
0000
,  // measure 25
1000
0000
0000
0000
,  // measure 26
0100
0000
0000
0000
,  // measure 27
0010
0000
0000
0000
,  // measure 28
0001
0000
0000
0000
,  // measure 29
0100
0000
0000
0000
,  // measure 30
0010
0000
0000
0000
,  // measure 31
1000
1000
1000
0000
,  // measure 32
0100
0000
0000
0000
,  // measure 33
0100
0000
0000
0000
,  // measure 34
0010
0000
0000
0000
,  // measure 35
0010
0000
0000
0000
,  // measure 36
0100
0000
0100
0000
,  // measure 37
1000
0000
1000
0000
,  // measure 38
0100
0000
0100
0000
,  // measure 39
0010
0000
0000
0000
,  // measure 40
0001
0000
0000
0000
,  // measure 41
0100
0000
0000
0000
,  // measure 42
0010
0000
0000
0000
,  // measure 43
0100
0100
0100
0000
,  // measure 44
0001
0000
0000
0000
,  // measure 45
0010
0000
0000
0000
,  // measure 46
0100
0000
0000
0000
,  // measure 47
0010
0010
0010
0000
,  // measure 48
0001
0000
0000
0000
,  // measure 49
1000
0000
0000
0000
,  // measure 50
0010
0000
0000
0000
,  // measure 51
1000
0000
0000
0000
,  // measure 52
0001
0000
0000
0000
,  // measure 53
0010
0000
0000
0000
,  // measure 54
0100
0000
0000
0000
,  // measure 55
1000
0000
0000
0000
;
