#TITLE:Acquire;
#SUBTITLE:;
#ARTIST:ryhki;
#TITLETRANSLIT:;
#SUBTITLETRANSLIT:;
#ARTISTTRANSLIT:;
#GENRE:;
#CREDIT:;
#BANNER:Acquire.png;
#BACKGROUND:Acquire-bg.png;
#LYRICSPATH:;
#CDTITLE:;
#MUSIC:Acquire.ogg;
#OFFSET:-0.017639;
#SAMPLESTART:96.033043;
#SAMPLELENGTH:12.000000;
#SELECTABLE:YES;
#BPMS:0.000000=155.000000
;
#STOPS:
;
#BGCHANGES:3.250=Acquire.mp4=1.000=1=0=0=StretchNoLoop==CrossFade==,
99999=-nosongbg-=1.000=0=0=0 // don't automatically add -songbackground-
;
#KEYSOUNDS:;
#ATTACKS:;

//---------------dance-single - ----------------
#NOTES:
     dance-single:
     :
     Hard:
     14:
     0.655193,0.796242,0.525520,0.278685,0.473764,576.000000,510.000000,66.000000,35.000000,0.000000,0.000000,0.655193,0.796242,0.525520,0.278685,0.473764,576.000000,510.000000,66.000000,35.000000,0.000000,0.000000:
0000
0000
0000
0000
,
0000
0000
0000
0000
,
0000
0000
0000
0000
,
0000
0000
0000
0000
,
0000
0000
0000
0000
,
1000
1010
0001
0011
,
1000
0100
0001
0000
0001
0010
1000
0000
,
0001
0100
0001
0100
0010
1000
0010
1000
,
0001
0010
0001
0010
0100
1000
0100
1000
0001
0100
0010
1000
0001
0010
0100
1000
,
0010
0000
0200
0000
0301
0000
1000
0001
,
0000
0000
0010
0000
0010
0000
0010
0000
0010
0000
0100
1000
0010
0000
0010
0000
,
0101
1100
0011
1010
,
1001
0000
0000
0000
1001
0000
0000
0000
0110
0000
0000
0010
1000
0000
1000
0000
,
0011
0000
1100
0000
0101
0000
1010
0110
,
1001
0000
0000
0000
1001
0000
0010
0100
1000
0000
0000
1001
0000
1000
0100
0010
,
0001
0000
0100
0000
0001
0010
0000
0100
1000
0000
0001
0000
1000
0010
0000
0100
,
0001
0000
1000
0000
0001
0010
0000
0100
1000
0000
0001
0000
1000
0010
0000
0010
,
1000
0000
0100
0000
0010
0001
0000
1000
0001
0000
0010
0000
0100
1000
0000
0001
,
1000
0000
0100
0000
0001
0000
0100
0000
0010
0001
0010
0001
2000
0000
0000
0000
,
3001
0000
0100
0010
0100
0000
0101
0000
0000
0000
1001
0000
0000
0110
0000
0000
,
1001
0000
0100
0010
0100
0000
0101
0000
0000
1001
0000
1000
0010
1000
0002
0000
,
1003
0000
0100
0010
0100
0000
1100
0000
0000
0000
1001
0000
0000
0011
0000
0100
,
1000
0000
0100
0010
0100
0000
1100
0000
0000
0011
0000
0100
2000
0000
0000
0000
,
3001
0000
0100
0000
1000
0000
0100
0000
0001
0000
1000
0100
0000
0100
0010
0001
,
1000
0000
0100
0000
0001
0000
0100
0000
1000
0000
0001
0100
0000
0100
0010
1000
,
0001
0010
0001
0000
0100
0000
0100
0000
1000
0010
1000
0000
0100
0000
0100
0000
,
0001
0010
0001
0000
1000
0010
1000
0000
0001
0010
0100
1000
0100
0010
0001
1000
,
0002
0000
0000
0000
,
0003
0000
0000
0000
,
0100
0200
0000
0000
,
0000
0000
0000
0000
,
0310
0020
0000
0000
,
0000
0000
0000
0000
,
1030
2000
0100
0000
,
0010
0000
0100
0000
,
3001
0002
0100
0000
,
0010
0000
0100
0000
,
1003
0100
0001
0000
0022
0000
0033
0000
,
0001
0010
0001
0010
0100
1000
0100
0000
2002
0000
0000
0000
3003
0000
0000
0000
,
0001
0100
1000
0000
2020
0000
3030
0000
,
1000
0010
1000
0010
0100
0000
0001
0000
2000
0000
0000
0000
3100
0000
0000
0000
,
1000
0010
0001
0000
2020
0000
3030
0000
,
0010
1000
0010
1000
0100
0010
0100
0000
0022
0000
0000
0000
0033
0000
0000
0000
,
0001
0010
1000
0000
0022
0000
0033
0000
,
0200
0000
0000
0300
,
1001
0000
0000
0000
0010
0000
1000
0000
0100
0000
0001
0000
0100
0000
1000
0100
,
0010
0000
0000
0000
0010
0000
0000
0001
1000
0000
0100
0000
1000
0000
0001
0000
,
0010
0000
0100
0000
0010
0000
0001
0000
1000
0000
0000
1010
0000
0000
0100
0001
,
0010
0000
0000
0010
0000
0000
0010
0000
0200
0000
0000
0000
1300
0000
0000
0000
,
0011
1010
0101
1100
,
0001
0010
1000
0000
0001
0100
1000
0000
,
0010
0100
0010
0100
0001
1000
0001
1000
,
0001
0010
0001
0010
0100
1000
0100
1000
0001
0100
0001
0100
0010
1000
0010
1000
,
0200
0000
0000
0000
0320
0000
0000
0030
,
0000
0000
0001
0000
0001
0000
1000
0000
0010
0000
0100
0001
1000
0000
0100
0000
,
0110
0000
0000
0000
0110
0000
0000
0000
0110
0000
0000
0010
0001
0000
1000
0000
,
0001
0100
0001
0000
0010
0000
0100
0000
1000
0000
0001
0100
0010
0000
0000
0000
,
0110
0000
0000
0000
0110
0000
0000
0000
0110
0000
0000
0010
1000
0000
0001
0000
,
1000
0100
0000
0100
0010
0001
1000
0000
0001
0100
0000
0100
0010
0000
1000
0000
,
0001
0000
0010
0000
0100
1000
0000
1000
0001
0000
0010
0000
0100
1000
0000
1000
,
0001
0000
1000
0100
0000
0001
0100
0000
0010
0001
0010
0001
1000
0000
0000
0000
,
0101
0000
1100
0000
0101
0000
0000
0000
0110
0000
0000
0110
0000
0000
0110
0000
,
0000
0000
0010
0000
0010
0000
0010
0000
0010
0000
1000
0100
1000
0000
0001
0000
,
0011
0000
0000
0000
0010
0000
0001
0000
1000
0000
0100
0000
1000
0000
0001
0100
,
0010
0000
0000
0000
0010
0000
0000
1000
0001
0000
0100
0000
0001
0000
1000
0001
,
0010
0000
0100
0000
0010
0000
0001
0000
1000
0000
0000
1000
0010
0000
0100
0001
,
1000
0000
0000
1001
0000
0000
0010
0000
0200
0000
0000
0000
0301
0000
1001
0000
,
0000
0000
0010
0100
0010
0000
0001
0000
0100
0000
1000
0000
0100
0000
0001
0100
,
0010
0000
0000
0000
0010
0000
0000
1000
0001
0000
0100
0000
0001
0000
1100
0000
,
0010
0000
0100
0000
0010
0000
0001
0000
1000
0000
0000
1000
0010
0000
0100
0001
,
1000
0000
0001
0010
0001
0000
1000
0100
2000
0000
3010
0000
0200
0000
0301
0000
,
1000
0000
0000
0000
0010
0000
1000
0000
0001
0000
0100
0000
0001
0000
1000
0100
,
1000
0010
0200
0000
0302
0010
1003
0001
,
1000
0000
0100
0000
0001
0000
0100
0000
1000
0000
0000
1100
0000
0000
0001
0100
,
0001
0010
0010
0100
2000
0000
3002
0000
,
0003
0000
0101
0000
0110
0000
1010
0000
1001
0000
0100
0000
0001
0000
1000
0100
,
0010
0000
0001
0010
0000
0001
0010
0000
0100
0000
1000
0000
1010
0000
0010
0000
,
0100
0000
0001
0000
0100
0000
0010
1000
0001
0000
0000
0011
0000
0000
0010
0100
,
1000
0000
0000
1010
0000
0000
0110
0000
1000
0000
0001
0100
0001
0000
0000
0000
,
2002
0000
0000
0000
,
3003
0000
0000
0000
;
