#TITLE:ANARCHY;
#SUBTITLE:;
#ARTIST:Ary Warnaar x Ben Aqua;
#TITLETRANSLIT:;
#SUBTITLETRANSLIT:;
#ARTISTTRANSLIT:;
#GENRE:;
#CREDIT:;
#BANNER:ANARCHY.png;
#BACKGROUND:ANARCHY-bg.png;
#LYRICSPATH:;
#CDTITLE:;
#MUSIC:ANARCHY.ogg;
#OFFSET:-0.080000;
#SAMPLESTART:80.947746;
#SAMPLELENGTH:11.759995;
#SELECTABLE:YES;
#BPMS:0.000000=163.199997
;
#STOPS:
;
#BGCHANGES:0.000=ANARCHY.avi=1.000=1=0=1===CrossFade==,
428.000=ANARCHY-bg.png=1.000=1=0=1===CrossFade==,
99999=-nosongbg-=1.000=0=0=0 // don't automatically add -songbackground-
;
#KEYSOUNDS:;
#ATTACKS:;

//---------------dance-single - ----------------
#NOTES:
     dance-single:
     :
     Hard:
     15:
     0.604744,1.009555,0.270473,0.503205,0.629006,673.000000,630.000000,43.000000,80.000000,0.000000,0.000000,0.604744,1.009555,0.270473,0.503205,0.629006,673.000000,630.000000,43.000000,80.000000,0.000000,0.000000:
// measure 0
0000
0000
0000
0000
,  // measure 1
0000
0000
0000
0000
,  // measure 2
0010
1000
0001
1000
,  // measure 3
0010
0000
1000
0000
0001
0010
0000
0000
,  // measure 4
0100
1000
0001
1000
,  // measure 5
0010
0000
0100
0000
0001
0010
0000
0000
,  // measure 6
0001
0000
0000
0100
0000
0000
0001
0000
0001
1000
0100
0010
,  // measure 7
0001
0100
1000
0100
0001
0010
0100
0000
,  // measure 8
2000
0100
0001
0010
,  // measure 9
3001
0000
0000
0100
0000
0000
1000
0000
0000
0100
0000
0000
0001
0000
0000
0000
,  // measure 10
1000
0000
0010
1000
0000
0010
1000
0000
0001
0000
0010
0001
0000
0010
0001
0000
,  // measure 11
0100
0000
0001
0100
0000
0001
0100
0000
0010
0000
1000
0000
0100
0000
0010
0000
,  // measure 12
0001
0000
0100
0001
0000
0100
0001
0000
1000
0000
0100
1000
0000
0100
1000
0000
,  // measure 13
0001
0000
0010
0001
0000
0010
0001
0000
0100
0000
0100
0000
0010
0000
1000
0000
,  // measure 14
1010
0000
0010
1000
0000
0010
1000
0000
0001
0000
0010
0001
0000
0010
0001
0000
,  // measure 15
1000
0000
0100
1000
0000
0100
1000
0000
0001
0000
0100
0001
0000
0100
0001
0000
,  // measure 16
1000
0001
0000
0100
0000
0000
1000
0000
0000
0100
0000
0000
0001
0000
1000
0000
,  // measure 17
1010
0000
0000
1001
0000
0000
0101
0000
0000
0000
0000
0000
0000
0000
0000
0000
,  // measure 18
1000
0100
0010
0001
,  // measure 19
1000
0100
0010
0001
0100
0010
1000
0100
0010
0001
0100
0010
1000
0010
0100
0001
,  // measure 20
1000
0000
0010
0000
0100
0000
0001
0000
0010
0001
1000
0001
0100
0010
1000
0001
,  // measure 21
1000
0100
1000
0000
0001
0000
1000
0000
0010
0000
0100
0000
0001
0000
1000
0000
,  // measure 22
2010
0000
0000
0001
0000
0000
0001
0000
0000
0001
0000
0000
3100
0000
0010
0000
,  // measure 23
0002
0000
0000
0100
0000
0000
0100
0000
0000
0100
0000
0000
2003
0000
0000
0000
,  // measure 24
3001
0100
0001
0100
0001
0000
0020
0000
0130
2000
0000
0000
3001
0000
0010
0000
,  // measure 25
0002
0000
0000
1000
0000
0000
0100
0000
0000
0103
0000
0000
1010
0000
0000
0000
,  // measure 26
0020
0000
0000
1000
0000
0000
1000
0000
0000
1000
0000
0000
0130
0000
0001
0000
,  // measure 27
2000
0000
0000
0100
0000
0000
0100
0000
0000
0100
0000
0000
3002
0000
0000
0000
,  // measure 28
1003
0100
1000
0100
1000
0000
0020
0000
0130
0001
0000
0000
1000
0000
0010
0000
,  // measure 29
0200
0000
0000
0310
0000
0000
2000
0000
0000
3001
0000
0000
0010
0000
0100
0000
,  // measure 30
1000
1000
1000
1010
,  // measure 31
0101
0000
0000
0110
0000
0000
1010
0000
0000
0110
0000
0000
0101
0000
0000
0000
,  // measure 32
1000
0100
1000
0100
1000
0000
0010
0000
0100
0001
0000
0000
1000
0000
0010
0000
,  // measure 33
2000
0000
0000
3200
0000
0000
0302
0000
0000
0203
0000
0000
1300
0000
0000
0000
,  // measure 34
0001
0000
0000
0010
0000
0000
1000
0000
0000
0010
0000
0000
0001
0000
1000
0000
,  // measure 35
1010
0000
0000
1001
0000
0000
0101
0000
0000
1001
0000
0000
1100
0000
0000
0000
,  // measure 36
0001
0100
0001
0100
0001
0000
0020
0000
0130
1000
0000
0000
0001
0000
0010
0000
,  // measure 37
0001
0000
0000
0100
0000
0000
1000
0000
0000
0100
0000
0000
1001
0000
0000
0000
,  // measure 38
0020
0000
0000
0000
,  // measure 39
2030
0000
0000
0000
0000
3200
0000
0000
,  // measure 40
0320
0000
0000
0000
0000
0032
0000
0000
,  // measure 41
0203
0000
0000
0000
,  // measure 42
0320
0000
0000
0000
0000
0230
0000
0000
,  // measure 43
0302
0023
2030
3020
,  // measure 44
0032
0000
0203
0000
,  // measure 45
0320
0000
2030
0000
,  // measure 46
3200
0000
0000
0300
,  // measure 47
0200
0000
0000
0300
,  // measure 48
0200
0000
0000
0300
,  // measure 49
0200
0000
0000
0300
,  // measure 50
0200
0000
0000
0310
,  // measure 51
0000
0000
0000
0010
,  // measure 52
0000
0000
0000
0010
,  // measure 53
0001
0100
0010
1000
0001
0010
0100
1000
0001
0100
0010
1000
0001
0000
0000
0000
,  // measure 54
0000
0000
0000
0000
,  // measure 55
1000
0100
0010
0100
1000
0000
0001
0000
0100
0010
0000
0100
0010
0000
1000
0000
,  // measure 56
0100
0000
0010
0001
1000
0000
0010
1000
0001
0100
0010
0100
0002
0000
0000
0000
,  // measure 57
1003
0100
0001
0100
1000
0000
0010
0000
0100
0001
0010
0001
0100
0000
0010
0000
,  // measure 58
1000
0000
0001
0010
0000
0100
1000
0000
1000
0010
0000
0010
0100
0000
0001
0000
,  // measure 59
1000
0100
0010
0100
1000
0000
0001
0000
0100
0010
0000
0100
0010
0000
1000
0000
,  // measure 60
0100
0000
0010
0001
1000
0000
0010
1000
0001
0100
0010
0100
0001
0000
0000
0000
,  // measure 61
1000
0100
0001
0100
1000
0000
0010
0000
0100
0001
0000
0000
1000
0000
0010
0000
,  // measure 62
0101
0000
0000
1010
0000
0000
0011
0000
0000
1100
0000
0000
0101
0000
0000
0000
,  // measure 63
0001
0000
0100
0001
0000
0100
0001
0000
1000
0000
0100
1000
0000
0100
1000
0000
,  // measure 64
0010
0000
1000
0010
0000
1000
0010
0000
0100
0001
0100
0010
1000
0000
0001
1000
,  // measure 65
0001
0000
0010
0001
0000
0010
0001
0000
1000
0000
0010
1000
0000
0010
1000
0000
,  // measure 66
0100
0000
0010
0100
0000
0010
0100
1000
0100
0010
0001
1000
0002
0000
0000
0000
,  // measure 67
0013
0000
0100
0010
0000
0100
0010
0000
0001
0000
1000
0001
0000
1000
0001
0000
,  // measure 68
0101
0000
0000
0110
0000
0000
1010
0000
0000
0110
0000
0000
0102
0000
0000
0000
,  // measure 69
1003
0010
1000
0100
1000
0000
0010
0000
0100
0001
1000
0001
0100
0000
0010
0000
,  // measure 70
1000
0100
1000
0100
0010
0001
0010
0001
1000
0010
0100
0001
0010
0100
1000
0010
,  // measure 71
2000
0000
0000
0000
3010
0100
0001
0100
0010
1000
0100
0010
0001
0010
0100
1000
,  // measure 72
0001
0000
0000
0100
0000
0000
1000
0000
0000
0000
0000
0000
0000
0000
0000
0000
,  // measure 73
1000
0000
0010
1000
0000
0010
1000
0000
0001
0000
0010
0001
0000
0010
0001
0000
,  // measure 74
0100
0000
0010
0100
0000
0010
0100
0000
0010
1000
0010
0000
0100
0000
0001
1000
,  // measure 75
0001
0000
0100
0001
0000
0100
0001
0000
1000
0000
0100
1000
0000
0100
1000
0000
,  // measure 76
0010
0000
0100
0010
0000
0100
0010
0000
1000
0000
0001
0000
0010
0000
0100
1000
,  // measure 77
0001
0100
0010
0100
0001
0000
1000
0000
0001
0100
0000
0000
1010
0000
0000
0000
,  // measure 78
2001
0000
0000
3010
0000
0000
0201
0000
0000
1000
0000
0000
0310
0000
0000
0000
,  // measure 79
1000
0000
0010
1000
0000
0010
1000
0000
0001
0000
0100
0001
0000
0100
0001
0000
,  // measure 80
1000
0000
0100
1000
0000
0100
1000
0000
0001
0100
0001
0000
0010
0000
0001
1000
,  // measure 81
0001
0000
0100
0001
0000
0100
0001
0000
1000
0000
0100
1000
0000
0100
1000
0000
,  // measure 82
0010
0000
0100
0010
0000
0100
0010
1000
0001
0000
1100
0000
0011
0000
0000
0000
,  // measure 83
0010
0000
0100
0010
0000
0100
0010
0000
0001
0000
0100
0001
0000
0100
0001
0000
,  // measure 84
0010
0000
0000
1100
0000
0000
0101
0000
0000
0110
0000
0000
1001
0000
0000
0000
,  // measure 85
1000
0100
0001
0100
1000
0000
0010
0000
0100
0001
0000
0000
0011
0000
0000
0000
,  // measure 86
1100
0000
0000
0101
0000
0000
0110
0000
0000
0101
0000
0000
1100
0000
0000
0000
,  // measure 87
0020
0000
0000
0000
,  // measure 88
2030
0000
0000
0000
0000
3200
0000
0000
,  // measure 89
2300
0000
0000
0000
0000
3020
0000
0000
,  // measure 90
0230
0000
0000
0000
,  // measure 91
0302
0000
0000
0000
0000
2003
0000
0000
,  // measure 92
3200
0320
0032
2003
,  // measure 93
3002
0000
0203
0000
,  // measure 94
0320
0000
2030
0000
,  // measure 95
3002
0000
0000
0000
,  // measure 96
0023
0000
0000
0000
0000
0230
0000
0000
,  // measure 97
2300
0000
0000
0000
0000
3020
0000
0000
,  // measure 98
0230
0000
0000
0000
,  // measure 99
0302
0000
0000
0000
0000
2003
0000
0000
,  // measure 100
3002
0023
2030
3020
,  // measure 101
0032
0000
0203
0000
,  // measure 102
0320
0000
2030
0000
,  // measure 103
3200
0000
0000
0300
,  // measure 104
0200
0000
0000
0300
,  // measure 105
0200
0000
0000
0000
,  // measure 106
0000
0000
0000
0000
,  // measure 107
0300
0000
0000
0000
;

//---------------dance-single - ----------------
#NOTES:
     dance-single:
     :
     Medium:
     10:
     0.359432,0.538429,0.062901,0.452884,0.147816,400.000000,390.000000,10.000000,72.000000,0.000000,0.000000,0.359432,0.538429,0.062901,0.452884,0.147816,400.000000,390.000000,10.000000,72.000000,0.000000,0.000000:
0000
0000
0000
0000
,
0000
0000
0000
0000
,
1000
1000
1000
1000
,
0000
0000
0000
0000
,
0100
0100
0100
0100
,
0000
0000
0000
0000
,
0010
0010
0010
0010
,
0000
0000
0000
0000
,
0002
0000
0000
0000
,
0203
0000
0000
0310
,
1000
1000
1000
1000
,
0100
0000
0010
0000
0100
1000
0000
0000
,
0001
0001
0001
0001
,
0100
0000
0010
0000
0100
0001
0000
0000
,
0011
0010
0010
0010
,
0100
0000
1000
0000
0001
0010
0000
0000
,
0100
1000
0100
1000
,
0001
0000
0100
0000
0001
0010
0000
0000
,
0001
0010
0100
1000
,
0001
0010
0100
1000
0010
0100
0001
0000
,
1000
0010
1000
0010
0100
0001
0100
0001
,
2000
0000
3100
0010
,
0001
0000
0000
0010
0000
0000
0100
0000
0000
0010
0000
0000
0001
0000
1000
0000
,
0100
0000
0000
0010
0000
0000
0001
0000
0000
0010
0000
0000
0100
0000
0000
0000
,
1000
0010
2000
0000
3001
0010
0002
0000
,
0103
0000
0000
0010
0000
0000
1000
0000
0000
0001
0000
0000
1000
0000
0000
0000
,
1000
0000
0000
0100
0000
0000
0010
0000
0000
0100
0000
0000
1000
0000
0001
0000
,
0100
0000
0000
0010
0000
0000
1000
0000
0000
0010
0000
0000
0100
0000
0000
0000
,
0001
0010
0100
1000
0001
0010
0002
0000
,
0103
0000
0000
0010
0000
0000
1000
0000
0000
0010
0000
0000
0100
0000
0001
0000
,
0010
0010
0010
1001
,
0010
0000
0000
0100
0000
0000
0001
0000
0000
0100
0000
0000
0010
0000
0000
0000
,
1000
0100
1000
0001
1000
0100
0020
0000
,
0031
0000
0000
0100
0000
0000
1000
0000
0000
0100
0000
0000
0001
0000
0000
0000
,
1000
0000
0000
0100
0000
0000
0001
0000
0000
0100
0000
0000
1000
0000
0001
0000
,
1000
0000
0000
0010
0000
0000
0001
0000
0000
0010
0000
0000
1000
0000
0000
0000
,
0001
0100
0001
1000
0001
0100
0020
0000
,
1030
0000
0000
0001
0000
0000
0100
0000
0000
0010
0000
0000
0100
0000
0000
0000
,
0002
0000
0000
0000
,
0023
0000
0000
0000
0000
0230
0000
0000
,
2300
0000
0000
0000
0000
3020
0000
0000
,
0230
0000
0000
0000
,
0302
0000
0000
0000
0000
2003
0000
0000
,
3200
0320
0032
2003
,
3002
0000
0203
0000
,
2300
0000
3200
0000
,
0302
0000
0000
0003
,
2000
0000
0000
3000
,
0002
0000
0000
0003
,
2000
0000
0000
3000
,
0002
0000
0000
0013
,
0000
0000
0000
0010
,
0000
0000
0000
0010
,
0000
0000
0000
0010
,
0000
0000
0000
0000
,
0011
0000
0000
0000
0100
0000
0000
0000
1000
0000
0000
0010
0000
0000
1000
0000
,
0001
0000
0000
0000
0100
0000
0000
0000
0001
0000
0000
0001
0020
0000
0000
0000
,
0130
0000
0000
0000
1000
0000
0000
0000
0001
0000
0000
0010
0000
0000
0001
0000
,
1000
0000
0000
0000
0010
0000
0000
0000
1000
0000
0000
0001
0000
0000
0100
0000
,
0001
0000
0000
0000
0010
0000
0000
0000
0001
0000
0000
0100
0000
0000
0001
0000
,
1000
0000
0000
0000
0100
0000
0000
0000
0010
0000
0000
0010
0002
0000
0000
0000
,
1003
0010
1000
0100
,
0010
0000
0000
0001
0000
0000
1000
0000
0000
0010
0000
0000
1000
0000
0000
0000
,
0001
0010
0001
0000
0010
0100
0010
0000
,
0100
1000
0100
0000
1000
0010
0100
0001
,
0010
0100
0010
0000
0100
1000
0100
0000
,
1000
0001
1000
0000
0010
0100
0002
0000
,
1003
0010
1000
0000
0010
0100
0010
0000
,
0100
0000
0000
0001
0000
0000
0010
0000
0000
0100
0000
0000
1001
0000
0000
0000
,
1000
0010
1000
0000
0100
0010
0002
0000
,
1003
0000
0000
0100
0000
0000
0001
0000
0000
0100
0000
0000
1000
0000
0000
0000
,
0002
1000
1000
1003
,
0001
0000
0000
0100
0000
0000
1000
0000
0000
0000
0000
0000
0000
0000
0000
0000
,
0101
0001
1100
1000
,
0001
0000
0000
0010
0000
0000
1000
0000
0000
0010
0000
0000
0001
0000
0000
0000
,
1000
0010
1000
0000
0010
0100
0010
0000
,
0100
0000
0000
0001
0000
0000
1000
0000
0000
0100
0000
0000
0011
0000
0000
0000
,
1000
0000
0010
0000
1000
0000
0001
0000
0000
0010
0000
0000
0110
0000
0000
0000
,
0010
0000
0000
0001
0000
0000
1000
0000
0000
0001
0000
0000
0200
0000
0000
0000
,
0301
0010
0001
0000
0010
0100
0010
0000
,
0100
1000
0100
0000
1000
0010
0100
0001
,
0010
0100
0010
0000
0100
1000
0100
0000
,
1000
0001
1000
0000
0010
0100
0002
0000
,
1003
0010
1000
0000
0010
0100
0010
0000
,
0100
0000
0000
0001
0000
0000
0010
0000
0000
0100
0000
0000
1001
0000
0000
0000
,
1000
0000
0010
0000
1000
0000
0001
0000
0000
0010
0000
0000
0210
0000
0000
0000
,
1300
0000
0000
0010
0000
0000
0001
0000
0000
0010
0000
0000
1000
0000
0000
0000
,
0002
0000
0000
0000
,
0023
0000
0000
0000
0000
0230
0000
0000
,
2300
0000
0000
0000
0000
3020
0000
0000
,
0230
0000
0000
0000
,
0302
0000
0000
0000
0000
2003
0000
0000
,
3200
0320
0032
2003
,
3002
0000
0203
0000
,
2300
0000
3200
0000
,
0302
0000
0000
0000
,
0023
0000
0000
0000
0000
0230
0000
0000
,
2300
0000
0000
0000
0000
3020
0000
0000
,
0230
0000
0000
0000
,
0302
0000
0000
0000
0000
2003
0000
0000
,
3200
0320
0032
2003
,
3002
0000
0203
0000
,
2300
0000
3200
0000
,
0320
0000
0000
0030
,
0020
0000
0000
0030
,
0020
0000
0000
0000
,
0000
0000
0000
0000
,
0030
0000
0000
0000
;

//---------------dance-single - ----------------
#NOTES:
     dance-single:
     :
     Easy:
     6:
     0.274965,0.403822,0.037740,0.471754,0.069191,306.000000,300.000000,6.000000,75.000000,0.000000,0.000000,0.274965,0.403822,0.037740,0.471754,0.069191,306.000000,300.000000,6.000000,75.000000,0.000000,0.000000:
0000
0000
0000
0000
,
0000
0000
0000
0000
,
1000
0100
0010
0001
,
0000
0000
0000
0000
,
1000
0100
0010
0001
,
0000
0000
0000
0000
,
1000
0100
0010
0001
,
0000
0000
0000
0000
,
2000
0000
0000
0000
,
3020
0000
0000
0000
,
1030
0100
0001
0100
,
1000
0000
0010
0000
,
0001
0100
1000
0100
,
0001
0000
0010
0000
,
1000
0100
0010
0001
,
1000
0000
0010
0000
,
0002
0000
1000
0000
,
0203
0000
0310
0000
,
1000
0100
0010
0001
,
1000
0010
0100
0001
,
0010
0100
0010
0000
0001
1000
0001
0000
,
0100
0000
0000
0000
,
0020
0000
0000
1030
,
0002
0000
0000
0013
,
0100
1000
0100
0000
0010
0000
0001
0000
,
2000
0000
0000
3010
,
0002
0000
0000
0103
,
0020
0000
0000
1030
,
0001
0100
0001
0000
0010
0000
0100
0000
,
2000
0000
3002
0000
,
1003
0100
0010
0001
,
0200
0000
0000
0310
,
1000
0100
0001
0100
,
1000
0010
0001
0010
,
2000
0100
0001
3010
,
0200
0001
0010
0301
,
1000
0010
1000
1000
,
0001
0010
0001
0001
,
0200
0000
0000
0000
,
0320
0000
0000
0000
0000
2030
0000
0000
,
3002
0000
0000
0000
0000
0023
0000
0000
,
0230
0000
0000
0000
,
0320
0000
0000
0000
0000
0032
0000
0000
,
2003
3020
0230
0302
,
0203
0000
0320
0000
,
2030
0000
3200
0000
,
0320
0000
0000
0030
,
0020
0000
0000
0030
,
0020
0000
0000
0030
,
0020
0000
0000
0030
,
0020
0000
0000
0031
,
0000
0000
0000
1000
,
0000
0000
0000
0001
,
0000
0000
0000
1000
,
0000
0000
0000
0000
,
1000
0000
0000
0000
0100
0000
0000
0000
0010
0000
0000
0001
0000
0000
1000
0000
,
0010
0100
0010
1001
,
1000
0100
0001
0100
,
1000
0010
0001
0010
,
1000
0000
0000
0000
0100
0000
0000
0000
0010
0000
0000
0001
0000
0000
1000
0000
,
0010
0100
0010
1001
,
1000
0100
0001
0100
,
1000
0000
0000
0010
0000
0000
0100
0000
0000
0010
0000
0000
1000
0000
0000
0000
,
0001
0001
0010
0010
,
0001
0000
0001
0000
1000
0010
1000
0000
,
0100
0100
0010
0010
,
0100
0000
0100
0000
1000
0001
2000
0000
,
3010
0010
0100
0100
,
0001
0000
0000
0010
0000
0000
0100
0000
0000
0010
0000
0000
0001
0000
0000
0000
,
1000
0010
0001
0010
,
1000
0000
0000
0100
0000
0000
0010
0000
0000
0001
0000
0000
0010
0000
0000
0000
,
0002
0000
0000
0000
,
0203
0000
0000
0310
,
1000
0001
0010
0001
,
1000
0000
0000
0010
0000
0000
0100
0000
0000
0001
0000
0000
1000
0000
0000
0000
,
0001
0001
0100
0100
,
0010
0000
0000
1000
0000
0000
0001
0000
0000
1000
0000
0000
0100
0000
0000
0000
,
0010
0010
0001
0001
,
0100
0000
0000
0010
0000
0000
1000
0000
0000
0010
0000
0000
0100
0000
0000
0000
,
0001
0011
1000
1010
,
0001
0000
0000
0100
0000
0000
0010
0000
0000
0100
0000
0000
0001
0000
0000
0000
,
1000
0100
0001
0100
,
1000
0000
0000
0010
0000
0000
0100
0000
0000
0001
0000
0000
0100
0000
0000
0000
,
0001
0011
1000
1010
,
1000
0000
0000
0001
0000
0000
0100
0000
0000
0001
0000
0000
1000
0000
0000
0000
,
0002
0103
2000
3100
,
0001
0000
0000
0010
0000
0000
0100
0000
0000
0100
0000
0000
1000
0000
0000
0000
,
0020
0000
0000
0000
,
0230
0000
0000
0000
0000
0302
0000
0000
,
2003
0000
0000
0000
0000
3200
0000
0000
,
0320
0000
0000
0000
,
0230
0000
0000
0000
0000
2300
0000
0000
,
3002
0203
0320
2030
,
3020
0000
0230
0000
,
0302
0000
2003
0000
,
3020
0000
0000
0000
,
0230
0000
0000
0000
0000
0302
0000
0000
,
2003
0000
0000
0000
0000
3200
0000
0000
,
0320
0000
0000
0000
,
0230
0000
0000
0000
0000
2300
0000
0000
,
3002
0203
0320
2030
,
3020
0000
0230
0000
,
0302
0000
0023
0000
,
0230
0000
0000
0300
,
0200
0000
0000
0300
,
0200
0000
0000
0000
,
0000
0000
0000
0000
,
0300
0000
0000
0000
;

//---------------dance-single - ----------------
#NOTES:
     dance-single:
     :
     Beginner:
     3:
     0.124903,0.235563,0.000000,0.044030,0.000000,139.000000,139.000000,0.000000,7.000000,0.000000,0.000000,0.124903,0.235563,0.000000,0.044030,0.000000,139.000000,139.000000,0.000000,7.000000,0.000000,0.000000:
0000
0000
0000
0000
,
0000
0000
0000
0000
,
0010
0000
0010
0000
,
0000
0000
0000
0000
,
1000
0000
1000
0000
,
0000
0000
0000
0000
,
0100
0000
0100
0000
,
0000
0000
0000
0000
,
0002
0000
0000
0000
,
2003
0000
0000
0000
,
3001
0000
0001
0000
,
0000
0000
0000
0000
,
0010
0000
0010
0000
,
0000
0000
0000
0000
,
0100
0000
0100
0000
,
1000
0000
0000
0000
,
0020
0000
0000
0000
,
0130
0000
0000
0000
,
0001
0000
0001
0000
,
0010
0000
0010
0000
,
0001
0000
1000
0000
,
0001
0000
0000
0000
,
0010
0000
0000
0000
,
0100
0000
0000
0000
,
0010
0000
0010
0000
,
0001
0000
0000
0000
,
0100
0000
0000
0000
,
0010
0000
0000
0000
,
0100
0000
0100
0000
,
0001
0000
1000
0000
,
0002
0000
0000
0000
,
0103
0000
0000
0000
,
0010
0000
0010
0000
,
1000
0000
0000
0000
,
0200
0000
0000
0000
,
0310
0000
0000
0000
,
0001
0000
1000
0000
,
0001
0000
0001
0000
,
0100
0000
0000
0000
,
0010
0000
0000
0000
,
1000
0000
0000
0000
,
0010
0000
0000
0000
,
1000
0000
0000
0000
,
0100
0000
0000
0000
,
0010
0000
0000
0000
,
0001
0000
0000
0000
,
1000
0000
0000
0000
,
1000
0000
0000
0000
,
1000
0000
0000
0000
,
1000
0000
0000
0000
,
1000
0000
0000
0000
,
0000
0000
0000
0000
,
0000
0000
0000
0000
,
0000
0000
0000
0000
,
0000
0000
0000
0000
,
0100
0100
0100
0000
,
0010
0010
0010
0000
,
0001
0000
1000
0000
,
0001
0000
0000
0000
,
0100
0100
0100
0000
,
0010
0010
0010
0000
,
1000
0000
0001
0000
,
1000
0000
0000
0000
,
0001
0000
0001
0000
,
0010
0000
0010
0000
,
1000
0000
1000
0000
,
0010
0000
0000
0000
,
0001
0000
0001
0000
,
0100
0000
0100
0000
,
1000
0000
0000
0000
,
0001
0000
0000
0000
,
0020
0000
0000
0000
,
0130
0000
0000
0000
,
1000
1000
1000
0000
,
0010
0010
0010
0000
,
1000
0000
0000
0000
,
0001
0000
0000
0000
,
0010
0010
0010
0000
,
0001
0000
0000
0000
,
1000
0000
1000
0000
,
0010
0000
0010
0000
,
1000
0000
1000
0000
,
0100
0000
0000
0000
,
0001
0000
0001
0000
,
0010
0000
0000
0000
,
0001
0000
0000
0000
,
1000
0000
0000
0000
,
0010
0000
0000
0000
,
0100
0000
0000
0000
,
0001
0000
0000
0000
,
1000
0000
0000
0000
,
0001
0000
0000
0000
,
0010
0000
0010
0000
,
0001
0000
0000
0000
,
0100
0000
0000
0000
,
0010
0000
0000
0000
,
1000
0000
0000
0000
,
0001
0000
0000
0000
,
1000
0000
0000
0000
,
0100
0000
0000
0000
,
0010
0000
0010
0000
,
0001
0000
1000
0000
,
0001
0000
1000
0000
,
0100
0000
0000
0000
,
0100
0000
0000
0000
,
0200
0000
0000
0000
,
0000
0000
0000
0000
,
0300
0000
0000
0000
;
