#TITLE:Xronièr;
#SUBTITLE:;
#ARTIST:かめりあ as "fluX Xroisé";
#TITLETRANSLIT:;
#SUBTITLETRANSLIT:;
#ARTISTTRANSLIT:;
#GENRE:;
#CREDIT:;
#BANNER:Xronier.png;
#BACKGROUND:Xronier-bg.png;
#LYRICSPATH:;
#CDTITLE:;
#MUSIC:Xronier.ogg;
#OFFSET:-0.588582;
#SAMPLESTART:73.707848;
#SAMPLELENGTH:12.319996;
#SELECTABLE:YES;
#BPMS:0.000000=234.000000
;
#STOPS:
;
#BGCHANGES:;
#KEYSOUNDS:;
#ATTACKS:;

//---------------dance-single - ----------------
#NOTES:
     dance-single:
     :
     Challenge:
     19:
     1.245837,1.586501,0.553334,0.849485,1.441787,1119.000000,1048.000000,71.000000,109.000000,0.000000,0.000000,1.245837,1.586501,0.553334,0.849485,1.441787,1119.000000,1048.000000,71.000000,109.000000,0.000000,0.000000:
0000
0000
0000
0000
,
0000
0000
0000
0000
,
1000
0100
0010
0001
1000
0010
0100
0001
,
0100
0010
1000
2200
3300
0000
2002
3003
,
0101
0000
0001
1000
0001
0000
0010
0000
0200
0000
0000
0000
0300
0000
0011
0000
,
0000
1100
1000
0001
0100
0020
0000
0030
,
2010
0000
0000
0000
0000
0000
3001
0100
0010
0000
0000
1000
0000
0000
0001
0000
,
0012
0000
0000
0000
0003
0000
1000
0100
0010
0000
0001
1000
0100
1000
0001
0000
,
1000
0000
0000
0010
0000
0000
0110
0000
0001
0000
0000
0010
0000
0000
0110
0000
,
1000
0000
0000
1001
0000
0000
1000
0100
1000
0000
0010
0100
0001
0100
0010
1000
,
0200
0000
0000
0000
,
0310
0000
0100
0000
1000
0100
0011
0000
,
0001
0010
0100
0010
0001
0000
1000
0100
0010
0000
0001
0000
0100
0000
0001
0000
,
0010
0000
0100
1000
0001
0000
0100
0001
1000
0100
1000
0000
0010
0100
0001
1000
,
0001
0000
0100
0010
1000
0000
0010
0100
0001
0000
1000
0000
0100
0000
0010
0000
,
0001
0010
0100
0010
0001
1000
0100
1000
0001
0010
0100
1000
0000
0000
1020
0000
,
0030
0000
1000
0010
0100
0000
0001
0100
0010
0000
1000
0000
0100
0000
0010
0000
,
0001
0000
0100
0010
1000
0000
0010
0100
0001
0000
1000
0100
0010
0001
1000
0001
,
0100
0010
0100
0000
0010
1000
0010
0000
1000
0001
1000
0001
0100
0010
0100
0010
,
1000
0000
0100
0000
0010
0000
0001
0000
0010
0000
0100
0000
1000
0000
0000
0010
0000
0000
0200
0000
0000
0000
0000
0000
,
0301
1000
0010
1000
0001
0000
0100
0010
1000
0000
0100
0000
0010
0000
0012
0000
,
0000
0000
1003
0100
1000
0000
0001
0100
0001
0000
1000
0010
0000
0010
0200
0000
,
0000
0000
0301
0000
1000
0100
0010
0100
1000
0000
0001
0000
0100
0000
0120
0000
,
0000
0000
1030
0100
0010
0001
0010
0100
1000
0000
0001
0010
0000
0001
1000
0000
,
0200
0000
0000
0000
1300
0000
0010
0000
1000
0000
1010
0000
0000
0110
0000
0000
,
0102
0000
0000
0000
0000
0000
0000
0000
0000
0000
0000
0000
1003
0000
0000
0100
0000
0000
1000
0000
0000
0100
0000
0000
0010
0000
0000
0000
0001
0000
0000
0000
0100
0000
0000
0000
0010
0000
0000
0000
1000
0000
0000
0000
0100
0000
0000
0000
,
0010
0001
0000
0011
0000
0010
0000
0100
1000
0001
0000
0100
,
0020
0000
0100
0000
1030
0100
0011
0000
,
0001
0010
0100
1000
,
0001
0010
0100
1000
,
0001
0100
0010
1000
,
0001
0000
0000
0000
0100
0000
0000
0000
0010
0000
0000
1000
0000
0000
0100
0000
,
1000
0100
0010
0001
,
1000
0000
0000
0000
0100
0000
0000
0000
0010
0000
0010
0000
0001
0000
1000
0010
,
0100
0010
1000
1100
0100
0010
0011
0001
,
0100
0110
0010
1000
1001
0000
0110
0000
,
0001
0000
0010
0000
0100
0000
1000
0000
0001
0000
0010
0000
0100
0000
1000
0001
,
1000
0000
0010
0000
0100
0000
0001
0000
1000
0000
0010
0000
0100
0001
1000
0001
,
0010
0000
0100
1000
0100
0000
1000
0001
1000
0000
0001
0100
0001
0000
0100
0010
,
0100
0000
0010
1000
0010
0000
1000
0001
1000
0000
0000
0010
0000
0000
1000
0000
,
0002
0000
1003
0100
1000
0100
1000
0000
0010
0000
0100
0010
0000
0100
0010
0000
,
0010
0000
1000
0100
1000
0100
1000
0000
0010
0000
0100
0010
0000
0100
0001
0000
,
0011
0000
0000
0110
0000
0000
1100
0000
0011
0000
0000
0110
0000
0000
1100
0000
,
0002
0000
0000
0023
0000
0000
0230
0000
0000
2300
0000
0000
3001
0100
0010
0100
,
0002
0000
0000
0000
,
0000
0000
0000
0000
,
0013
0000
0000
0000
,
0000
0000
0000
0000
,
0010
0001
1000
0001
0010
0000
0100
1000
0001
1000
0100
0000
0010
0001
0000
1001
,
0000
0101
0000
0010
1000
0000
0010
0100
0000
0001
1000
0100
0020
0000
0000
0000
,
0031
1000
0100
1000
0001
0000
0010
0100
1000
0100
0010
0000
0001
1000
0000
1010
,
0000
0000
0000
1000
0000
0000
0001
0000
0000
0000
0000
0000
1000
0000
0100
0000
0010
0000
0002
0000
0000
0000
0000
0000
1003
0000
0100
0000
0010
0000
0002
0000
0000
0000
0000
0000
0103
0000
0000
0001
0000
0000
0100
0000
0000
0001
0000
0000
,
1000
0100
0010
0100
1000
0000
0001
0010
0100
0010
0001
0000
1000
0010
0000
1010
,
0000
1001
0000
0001
0100
0000
0001
1000
0000
0001
0010
0100
1000
0000
0001
0100
,
0000
0100
0010
0000
1010
0000
1000
0100
0000
0100
0010
0000
0011
0000
0001
1000
,
0000
1000
0001
0100
0020
0000
1030
0100
2000
0000
3001
0100
0010
0100
0001
0000
,
2000
0000
0000
0000
,
3000
0000
0000
2200
3300
0000
2002
3003
,
0101
0000
0001
1000
0001
0000
0010
0000
0200
0000
0000
0000
0300
0000
0011
0000
,
0000
0000
1100
0000
1000
0000
0001
0100
0001
0100
0020
0000
1030
0001
0100
0001
,
2000
0000
0000
0000
3000
0000
0100
0010
0001
0000
0000
0011
0000
0000
0110
0000
,
2000
0000
0000
0000
3000
0000
0001
0100
0010
0000
1000
0010
0100
0010
1000
0001
,
1000
0000
0000
1100
0000
0000
0110
0000
0011
0000
0000
1001
0000
0000
1010
0000
,
0101
0000
0000
0110
0000
0000
0010
1000
0001
0000
0010
0100
1000
0100
0010
0001
,
2000
0000
3020
0000
,
0032
0000
0203
0000
,
2300
0000
3200
0000
,
0302
0000
0023
0000
,
2030
0000
3100
0010
,
0002
0000
0103
0010
,
2000
0000
3001
0010
,
0100
0000
0000
0000
1000
0000
0001
0010
0001
0010
0100
1000
0001
0010
0100
0010
,
0001
0100
0010
1000
0002
0000
1003
0100
0010
0001
2000
0000
3001
0100
0010
0100
,
0002
0000
0013
0100
2000
0000
3100
1000
0020
0000
0130
0001
1000
0100
1000
0001
,
0200
0000
0301
0100
0020
0000
1030
0000
0001
0100
0020
0000
1030
0100
0010
0001
,
2000
0000
3001
0100
0020
0000
1030
0010
0200
0000
0302
0000
2003
0000
3001
0010
,
0001
0000
1000
0100
0020
0000
0031
1000
0001
0100
0020
0000
1030
0001
0100
0010
,
2000
0000
3001
0000
1000
0010
2000
0000
3001
0010
0100
1000
0010
0100
0001
1000
,
0001
0000
0100
0000
0001
0000
0100
0000
0010
0000
1000
0001
0000
1000
0200
0000
,
0000
0000
0000
0000
0000
0000
0310
0000
0000
0000
0000
0000
0001
0000
0010
0000
0100
0000
1000
0000
0000
0000
0000
0000
0010
0000
0000
0000
0000
0000
1000
0000
0000
0000
0000
0000
1000
0000
0000
0000
0000
0000
0001
0000
0000
0100
0000
0000
,
0001
1000
0100
0010
0002
0000
1003
0001
0010
0100
2000
0000
3001
0100
0010
0100
,
0002
0000
0023
0000
0130
1000
0001
0201
,
0000
0000
0310
1000
0002
0000
1003
0100
0010
0100
2000
0000
3001
0100
0010
1000
,
0002
0000
0203
0000
0310
1000
0100
0012
,
0000
0000
1003
0100
0020
0000
0130
0000
1000
0100
0020
0000
0031
0000
0100
0010
,
2000
0000
3001
0000
0100
0010
2000
0000
3001
0100
0010
1000
0001
1000
0100
0010
,
0002
0000
0013
0100
1000
0000
0002
0000
0103
0010
1000
0000
0200
0000
0320
0000
,
0230
2300
3002
0203
2300
3200
0302
0023
,
0031
0000
1000
0010
1000
0000
0100
0000
1000
0010
1000
0000
0001
0000
0010
0100
,
1000
0000
0001
0000
1000
0000
0010
0100
0001
0000
1000
0100
1000
0001
0010
0100
,
2000
0000
3010
0100
0001
0000
2000
0000
3100
0010
0001
0000
1000
0010
1000
0010
,
0100
0000
0001
1000
0000
0001
0010
0000
0110
0000
0100
1000
0000
0001
1000
0000
,
1020
0000
0000
0000
,
0130
0000
0001
0000
0010
0100
1001
0000
,
0001
0000
1000
0010
1000
0000
0001
0010
0001
0000
1000
0000
0100
0000
0010
0000
,
0001
0000
1000
0010
0100
0010
1000
0000
0001
0010
0100
1000
0000
1000
0100
0010
,
0001
0100
0001
0100
0000
0010
1000
0000
0100
0010
0001
0000
,
1000
0000
0001
1000
0010
0000
0010
1000
0001
0100
0010
1000
0001
0100
0010
2000
,
0000
3000
0001
0010
0001
0000
1000
0010
1000
0000
0001
0000
0010
0000
0100
0000
,
1000
0000
0000
0000
0000
0000
0001
0000
0000
0100
0000
0000
0001
0000
0000
0000
0000
0000
1000
0000
0000
0100
0000
0000
1000
0000
0000
0000
0000
0000
0010
0000
0000
0000
0000
0000
1000
0000
0100
0000
0010
0000
0001
0000
0000
1000
0000
0000
,
0001
0010
0002
0000
0013
0100
0020
0000
0130
1000
0100
1000
0001
0100
0020
0000
,
1030
0100
0010
0001
0010
0100
2000
0000
0000
3000
0000
0000
,
1000
0100
0010
0100
1000
0100
0010
0100
1000
0100
0010
0100
1000
0100
0010
0001
,
1000
0010
0100
0010
1000
0010
0100
0010
1000
0010
0100
0010
1000
0001
1000
0001
,
0010
0100
1000
0100
0010
0100
1000
0100
0010
0100
1000
0100
0010
0001
1000
0001
,
0100
0010
1000
0000
0100
0010
0001
0000
0011
0000
0100
0010
0000
0100
0010
0000
,
2200
0000
0000
0000
3300
0000
0000
0000
0000
0000
0101
0000
0000
0101
0000
0000
,
0101
0000
0000
0000
0000
0000
0001
0010
0100
1000
0100
0010
,
0001
0100
0000
0110
0000
1010
0000
1000
0100
0010
0000
0001
,
0200
0000
0320
1030
,
1000
0100
0010
0100
1000
0000
0001
0010
0100
0010
0001
0000
1000
0010
0000
1010
,
0000
0110
0000
0100
0001
0000
0001
0100
0000
0010
1000
0001
0020
0000
0230
0000
,
1300
0001
0010
0001
1000
0000
0100
0010
0001
0010
0100
0000
1000
0001
0000
0101
,
0000
0000
0000
0001
0000
0000
1000
0000
0000
0000
0000
0000
0001
0000
0010
0000
0100
0000
1000
0000
0000
0000
0000
0000
1000
0000
0100
0000
0010
0000
0001
0000
0000
0000
0000
0000
1000
0000
0000
0010
0000
0000
1000
0000
0000
0010
0000
0000
,
0100
0001
1000
0001
0100
0000
0010
1000
0001
1000
0010
0000
1000
0001
0000
0011
,
0000
0110
0000
0100
1000
0000
1000
0100
0000
0010
0001
1000
0010
0000
0100
0001
,
0000
0001
0100
0000
0110
0000
1000
0001
0000
0001
1000
0000
1100
0000
0010
0001
,
0000
0001
0010
0100
1000
0001
0100
0001
1000
0000
0001
1000
0100
1000
0001
0000
,
0202
0000
0000
0000
,
0303
0000
0000
0000
,
0000
0000
0000
0000
,
1000
0100
0010
0001
0100
0010
1000
0010
0100
0001
0010
0100
1000
0100
0010
0001
,
0100
0010
1000
0010
0100
0001
0010
0100
1000
0100
0010
0001
0100
0010
1000
0010
,
0200
0000
0000
0300
0000
0000
0000
0000
;

//---------------dance-single - ----------------
#NOTES:
     dance-single:
     :
     Hard:
     18:
     1.135616,1.586501,0.381879,0.631269,1.133946,1020.000000,971.000000,49.000000,81.000000,0.000000,0.000000,1.135616,1.586501,0.381879,0.631269,1.133946,1020.000000,971.000000,49.000000,81.000000,0.000000,0.000000:
0000
0000
0000
0000
,
0000
0000
0000
0000
,
0220
0000
0000
0330
,
0000
0000
0000
1001
0000
0000
0011
0000
,
1100
0100
0010
0001
2000
0000
3000
1010
,
0000
0101
0001
1000
0100
0020
0000
0030
,
0011
0000
0010
0000
0001
0000
1000
0010
1000
0000
0000
0010
0000
0000
0100
0000
,
0101
0000
0001
0000
0010
0000
0100
1000
0100
0000
0010
0001
0000
0010
0001
0000
,
0200
0000
0000
0310
0000
0000
1010
0000
2000
0000
0000
3100
0000
0000
0110
0000
,
0020
0000
0000
0031
0000
0000
1000
0010
1000
0000
0001
0100
0001
1000
0010
0000
,
0200
0000
0000
0000
,
0302
0000
0023
0000
0130
1000
1010
0000
,
1000
0000
0001
0100
0001
0000
1000
0100
1000
0000
0001
0000
0010
0000
0001
0000
,
1000
0000
0001
0100
0001
0000
1000
0100
1000
0000
0010
0000
0100
0001
0100
0001
,
1000
0000
0001
0100
0001
0000
1000
0100
1000
0000
0001
0000
0010
0000
0100
0000
,
1000
0100
1000
0100
1000
0001
1000
0001
1000
0010
1000
0010
0000
0000
2010
0000
,
0000
0000
3001
0010
0001
0000
1000
0010
1000
0000
0001
0000
0100
0000
0001
0000
,
1000
0000
0001
0010
0001
0000
1000
0010
1000
0000
0001
0000
0010
0100
0010
0100
,
1000
0100
0010
0000
0001
1000
0001
0000
0100
0000
0010
0000
2000
0000
0000
0000
,
3001
0010
0001
0100
0010
0100
0002
0000
0000
0013
0000
0000
,
0100
1000
0100
1000
0100
0000
0010
0001
0010
0000
0001
0000
0100
0000
0020
0000
,
0000
0000
1030
0100
1000
0000
0001
0100
0001
0000
0010
0100
0010
0100
2000
0000
,
0000
0000
3010
0000
0100
0001
0100
0001
0100
0000
0010
0000
1000
0000
0002
0000
,
0000
0000
0013
0100
1000
0000
0001
0000
0010
0000
0001
1000
0000
0001
0100
0000
,
0020
0000
0000
0000
1030
0000
0100
0000
1000
0000
0010
0000
0000
0110
0000
0000
,
0102
0000
0000
0000
0000
0000
1003
0000
0000
0010
0000
0000
1000
0000
0100
0000
0010
0000
0001
0000
0100
0000
0010
0000
,
1000
0001
0000
0010
0000
0001
0000
1000
0010
1000
0000
0001
,
0200
0000
0302
0000
1003
0100
0010
0000
,
0001
0100
1000
0100
0001
0100
1000
0100
,
0001
0010
0100
0010
0001
0010
0100
0000
,
1000
0100
0001
0100
1000
0100
0001
0100
,
1000
0000
0010
0000
0100
0000
0010
0000
0001
0000
0000
0010
0000
0000
1000
0000
,
0100
0010
0001
0010
0100
0010
0001
0010
,
0100
0000
1000
0000
0010
0000
1000
0000
0100
0000
0100
0000
0010
0000
0001
0100
,
0001
0010
0100
2200
3300
0000
2020
3030
,
0000
0220
0330
0000
0101
0001
2000
0000
,
3100
0000
0010
0000
0100
0000
0010
0000
0100
0000
0010
0000
0100
0000
0010
0001
,
1000
0000
0010
0000
1000
0000
0010
0000
1000
0000
0010
0000
1000
0001
0100
0001
,
1000
0000
0100
0000
1000
0000
0100
0000
1000
0000
0100
0000
1000
0000
0100
0010
,
0001
0000
0100
0000
0001
0000
0100
0000
0010
0000
0000
1010
0000
0000
1001
0000
,
0001
0000
1000
0100
1000
0100
1000
0000
0010
0000
0100
0001
0000
0100
0001
0000
,
0010
0000
0100
1000
0100
1000
0100
0000
0010
0000
0001
1000
0000
0001
1000
0000
,
0010
0000
0000
0110
0000
0000
0100
0000
0001
0000
0000
0011
0000
0000
0010
0000
,
0200
0000
0000
2300
0000
0000
3020
0000
0000
0230
0000
0000
0301
1000
0001
1000
,
0200
0000
0000
0000
,
0000
0000
0000
0000
,
0000
0000
0000
0000
,
0300
0000
0000
0000
,
0001
0100
0001
0100
0001
0000
1000
0100
1000
0100
1000
0000
0001
0010
0000
0100
,
0000
0100
0000
0010
0001
0000
1000
0010
0000
0100
0001
0100
0020
0000
0000
0000
,
1030
0100
1000
0100
1000
0000
0001
0100
0001
0100
0001
0000
1000
0010
0000
0100
,
0000
0100
0001
0000
2000
0000
3000
0000
0002
0000
0003
0000
1000
0100
0010
0001
,
1000
0100
1000
0100
1000
0000
0001
0100
0001
0100
0001
0000
0010
0100
0000
1000
,
0000
1000
0000
0100
0010
0000
0001
0010
0000
0100
1000
0100
0020
0000
0031
1000
,
0000
1000
0010
0000
0100
0000
0010
1000
0000
1000
0001
0000
0010
0000
0100
1000
,
0000
1000
0001
0100
0020
0000
0130
0001
0100
0000
0020
0000
1030
0001
1000
0000
,
0200
0000
0000
0000
,
0300
0000
0000
0011
0000
0000
0110
0000
,
1100
0100
0010
0001
2000
0000
3000
1010
,
0000
0000
0101
0000
0001
0000
1000
0100
1000
0100
0020
0000
0130
1000
0100
1000
,
0001
0000
0010
0000
0001
0000
1000
0010
1000
0000
0000
0010
0000
0000
0100
0000
,
0101
0000
0001
0000
0010
0000
0100
1000
0100
0000
0010
0001
0000
0010
0001
0000
,
0200
0000
0000
0310
0000
0000
1010
0000
2000
0000
0000
3100
0000
0000
0110
0000
,
0020
0000
0000
0031
0000
0000
1000
0010
1000
0000
0001
0100
0001
1000
0010
0000
,
2000
0000
3000
0001
0010
0000
0100
0000
,
0002
0003
1000
0000
,
0200
0300
0010
0001
,
2000
3000
0002
0103
,
0020
0000
0030
0001
1000
0000
0100
0000
,
2000
3000
0001
0100
,
0020
0030
1000
0001
,
0010
0010
0010
1001
,
1000
0100
1000
0100
0010
0000
0100
1000
0100
1000
0001
0000
0010
0100
0010
0100
,
1000
0010
0100
0001
0100
0010
1000
0100
,
0010
0000
0001
1000
0001
0000
0100
0000
0010
1000
0010
0000
0100
0001
1000
0001
,
0010
0100
1000
0100
0010
0001
0100
0010
,
1000
0000
0100
0010
0001
0000
1000
0000
0001
0010
0100
0000
1000
0001
1000
0001
,
0100
0000
0010
0000
1000
0000
0010
0000
0100
0001
0100
0001
1000
0100
1000
0100
,
0010
0000
0001
0000
0010
0000
0001
0000
1000
0000
0010
0100
0000
0100
0002
0000
,
0000
1003
0100
1000
0010
0100
0001
0010
,
0001
0100
0001
0100
0010
0000
0100
0001
0100
0001
1000
0000
0010
0100
0010
0100
,
0001
0000
0011
0000
1100
1001
0000
0102
,
0000
0000
1003
0100
0010
0000
0001
0000
0010
0100
1000
0000
0001
0100
0001
0100
,
0010
0000
1010
0000
0101
1001
0000
2100
,
0000
0000
3001
0010
0001
0000
0100
0000
0010
1000
0010
0000
0100
0000
0001
1000
,
0010
0000
0100
0000
0001
0000
0100
0000
0010
1000
0010
1000
0001
0010
0001
0010
,
0200
0000
1300
0001
1000
0000
0020
0000
1030
0001
1000
0000
0200
0000
0320
0000
,
0032
2003
3002
0023
0230
2300
3001
0100
,
0001
0000
1000
0010
1000
0000
0001
0000
1000
0010
1000
0000
0100
0000
0010
0001
,
1000
0100
0001
1000
0010
0001
1000
0001
,
0020
0000
0130
1000
0100
0000
0020
0000
0031
1000
0001
0000
0200
0000
0310
0000
,
1000
0000
0000
1001
0000
0000
0101
0000
0001
0000
0000
0110
0000
0000
1100
0000
,
2000
0000
0000
0000
,
3010
0000
0010
0000
0010
0100
1001
0000
,
0001
0000
1000
0010
1000
0000
0001
0010
0001
0000
1000
0000
0100
0000
0010
0000
,
0001
0000
1000
0010
1000
0010
1000
0000
0100
0010
0100
0010
0000
0001
0010
0100
,
1000
0001
1000
0010
0000
0010
0100
0000
0100
0001
1000
0000
,
0001
0000
1000
0100
1000
0000
0001
0100
0001
0000
0010
0000
0100
1000
0100
2000
,
0000
0000
3001
0100
0001
0000
1000
0100
1000
0000
0001
0000
0010
0000
0100
0000
,
1000
0000
0001
0010
0001
0000
1000
0010
1000
0000
0010
0000
0100
0000
0100
0000
,
0001
0010
0001
0000
0010
0100
0010
0000
0100
1000
0100
0000
1000
0001
1000
0000
,
0001
0010
0100
1000
0100
0010
0002
0000
0000
0103
0000
0000
,
0010
1000
0010
0000
1000
0001
1000
0000
0001
0010
0001
0000
1000
0001
1000
0000
,
0010
0100
0010
0000
0100
0001
0100
0000
0010
0100
0010
0000
1000
0010
1000
0000
,
0001
0010
0001
0000
1000
0100
1000
0000
0001
0010
0001
0000
1000
0100
1000
0000
,
0001
0100
0001
0000
1000
0010
1000
0000
0010
0000
0100
0010
0000
0100
0010
0000
,
0200
0000
0000
0000
0300
0000
0000
0000
0000
0000
0101
0000
0000
1001
0000
0000
,
1100
0000
0000
0000
0000
0000
1000
0010
1000
0001
0010
0001
,
1000
0100
0000
1100
0000
0011
0000
0001
1000
0010
0000
0010
,
0200
0000
0320
1030
,
0001
0100
0001
0100
0001
0000
1000
0100
1000
0100
1000
0000
0001
0010
0000
0100
,
0000
0100
0000
0010
0001
0000
1000
0010
0000
0100
0001
0100
0020
0000
0000
0000
,
1030
0100
1000
0100
1000
0000
0001
0100
0001
0100
0001
0000
1000
0010
0000
0100
,
0000
0100
0001
0000
2000
0000
3000
0000
0002
0000
0003
0000
1000
0100
0010
0001
,
1000
0100
1000
0100
1000
0000
0001
0100
0001
0100
0001
0000
0010
0100
0000
1000
,
0000
1000
0000
0100
0010
0000
0001
0010
0000
0100
1000
0100
0020
0000
0031
1000
,
0000
1000
0010
0000
0100
0000
0010
1000
0000
1000
0001
0000
0010
0000
0100
1000
,
0000
1000
0001
0100
0020
0000
1030
0001
1000
0000
0010
0000
0100
0000
0001
0000
,
2000
0000
0000
0000
,
0000
0000
0000
0000
,
3000
0000
0000
0000
,
0001
0010
0001
0010
0001
0010
0001
0010
0001
0010
0001
0010
0001
0010
0001
0010
,
0100
1000
0100
1000
0100
1000
0100
1000
0100
1000
0100
1000
0100
1000
0100
1000
,
0200
0000
0000
0300
0000
0000
0000
0000
;

//---------------dance-single - ----------------
#NOTES:
     dance-single:
     :
     Medium:
     14:
     0.855052,0.913440,0.296151,0.452020,0.233803,768.000000,730.000000,38.000000,58.000000,0.000000,0.000000,0.855052,0.913440,0.296151,0.452020,0.233803,768.000000,730.000000,38.000000,58.000000,0.000000,0.000000:
0000
0000
0000
0000
,
0000
0000
0000
0000
,
0220
0000
0000
0330
,
0000
0000
0000
1001
0000
0000
1010
0000
,
0100
0010
0100
0001
2000
0000
3000
0011
,
0000
1100
0000
1000
0001
0100
0000
0000
,
2010
0000
0000
0000
0000
0000
3001
0010
0001
0000
0000
0100
0000
0000
0010
0000
,
2000
0000
0000
0000
0000
0000
3001
0010
0001
0000
0000
0100
0000
0000
0010
0000
,
1000
0000
0000
0100
0000
0000
0010
0000
0001
0000
0000
0100
0000
0000
0010
0000
,
1000
0000
0000
0100
0000
0000
1000
0000
0001
0000
0100
0000
1000
0000
0100
0000
,
0020
0000
0000
0000
,
0130
0100
0100
1001
,
1000
0100
0001
0100
1000
0001
1000
0010
,
1000
0100
0001
0100
1000
0010
0200
0000
,
0301
0100
1000
0100
0001
1000
0001
0010
,
0001
0001
1000
1000
0010
0100
0000
0102
,
0000
0103
1000
0100
0001
0010
0001
1000
,
0100
0010
0001
0010
0100
1000
0010
0100
,
0001
0001
1000
1000
0100
0100
0010
0001
,
1000
0010
1000
0001
0010
0001
0200
0000
0000
0310
0000
0000
,
1000
0100
1000
0010
0100
0001
0010
0012
,
0000
1003
0100
0001
1000
0010
0001
2001
,
0000
3010
0100
0001
0010
0001
0100
0120
,
0000
1030
0100
1000
0001
0010
0001
0000
,
0201
0000
0000
0000
0310
0000
1000
0000
1000
0000
0001
0000
0000
0010
0000
0000
,
0012
0000
0000
0000
0000
0000
1003
0000
0000
0010
0000
0000
1000
0000
0100
0000
1000
0000
0001
0000
0100
0000
0001
0000
,
0020
0000
0000
0032
0000
0000
0103
0000
0100
0020
0000
0000
,
1030
0000
1000
0000
0100
0010
0001
1000
,
0020
0100
1000
0100
,
0001
0000
0100
0000
1030
0001
0010
0100
,
2000
0010
0001
0100
,
0001
0000
0000
0000
0010
0000
0000
0000
3001
0000
0000
0100
0000
0000
0010
0000
,
0200
1000
0001
0010
,
0001
0000
0000
0000
1000
0000
0000
0000
0310
0000
1000
0000
0001
0000
0010
0100
,
0010
0000
0000
0011
0000
0000
1010
0000
,
0000
0101
0000
0000
2100
0000
3010
0000
,
0100
0000
0100
0000
0001
0000
0001
0000
1000
0000
1000
0000
0100
0000
0010
0001
,
1000
1000
0010
0010
0100
0100
0001
0001
,
0100
0010
1000
0100
0001
0100
1000
0010
,
0100
0000
0001
0000
0010
0000
0100
0000
1000
0000
0000
0010
0000
0000
0100
0000
,
0001
0000
0010
0000
1000
0000
0010
0000
0001
0000
0000
0100
0000
0000
0010
0000
,
1000
0000
0100
0000
0001
0000
0100
0000
1000
0000
0000
0010
0000
0000
0100
0000
,
0102
0000
0000
1000
0000
0000
0013
0000
0200
0000
0000
1000
0000
0000
0310
0000
,
0002
0000
0000
0203
0000
0000
0320
0000
0000
2030
0000
0000
3001
0000
0010
0000
,
0200
0000
0000
0000
,
0000
0000
0000
0000
,
0310
0000
0000
0000
,
0001
0000
1000
0000
,
0010
1000
0100
0010
0001
0100
0010
1000
,
0100
0010
0001
0100
0010
1000
1200
0000
,
0310
0001
1000
0010
1000
0001
0010
0001
,
1000
0010
1000
0100
0010
0001
0201
0000
,
0310
1000
0100
0001
0100
1000
0010
0100
,
0001
0010
0001
0100
0010
1000
0001
0001
,
1000
0100
0001
0100
1000
0001
0010
0001
,
0200
0000
0310
1000
0001
1000
0100
0010
,
0022
0000
0000
0000
,
0033
0000
0000
1001
0000
0000
1010
0000
,
0100
0010
0100
0001
2000
0000
3000
0011
,
0000
1100
0000
1000
0001
0100
0000
0000
,
2010
0000
0000
0000
0000
0000
3001
0010
0001
0000
0000
0100
0000
0000
0010
0000
,
2000
0000
0000
0000
0000
0000
3001
0010
0001
0000
0000
0100
0000
0000
0010
0000
,
1000
0000
0000
0100
0000
0000
0010
0000
0001
0000
0000
0100
0000
0000
0010
0000
,
1000
0000
0000
0100
0000
0000
1000
0000
0001
0000
0000
0100
0000
0000
0001
0000
,
0020
0000
0031
0100
,
2000
0000
3100
0000
,
0002
0000
0013
0100
,
2000
0000
3002
0000
,
0203
0000
0310
1000
,
0002
0000
0013
0100
,
2000
0000
3001
0000
,
0100
0100
0100
1001
,
0001
0100
0010
1000
0100
0010
0001
0100
,
1000
0100
0001
0100
1000
0001
0010
1000
,
0001
0010
0100
1000
0100
0010
0001
1000
,
0010
1000
0100
1000
0001
0010
0100
1000
,
0001
0100
1000
0100
0010
1000
0100
0010
,
0001
1000
0010
1000
0100
0010
0001
1000
,
0001
0100
0010
0100
0001
0100
0010
2010
,
0000
3100
0010
0001
1000
0010
1000
0010
,
1000
0100
0010
0001
0100
0010
1000
0100
,
0110
0000
1001
0000
0010
1000
0001
0200
,
0000
0000
0301
1000
0001
0000
0010
0000
0100
0000
0010
0000
0001
0000
0100
0000
,
0110
0000
1001
0000
0010
0001
1000
0020
,
0000
0130
0001
1000
0100
0010
0100
1000
,
0001
0010
0100
0010
0001
1000
0010
0100
,
0001
0010
0100
1000
0100
0010
0001
0100
,
0001
1000
0010
1000
0100
1000
0010
1000
,
0001
0100
0100
0010
0100
0100
0001
1000
,
0001
0010
1000
0010
0100
0010
0001
1000
,
0010
0100
0001
0010
0100
1000
0010
1000
,
0001
0000
0000
0100
0000
0000
0010
0000
1000
0000
0000
0100
0000
0000
0010
0000
,
0002
0000
0000
0000
,
0103
0100
0100
1001
,
0001
0100
1000
0100
0001
0100
1000
0100
,
0001
0010
0001
0100
0001
1000
0010
0100
,
0001
0000
0001
0010
0000
0010
0100
0000
0010
0000
0001
0000
,
1000
0010
0100
0010
1000
0100
0010
0002
,
0000
1003
0010
1000
0001
0010
0100
1000
,
0001
0100
1000
0100
0001
1000
0100
0100
,
0010
0001
0010
0100
0010
0001
0100
0010
,
1000
0100
1000
0001
0100
0001
0020
0000
0000
0000
0000
0000
,
0130
1000
0010
1000
0100
1000
0010
1000
,
0100
1000
0010
1000
0100
1000
0010
1000
,
0001
0100
1000
0100
0001
0100
1000
0100
,
0001
0000
0100
0000
0010
0000
1000
0000
0001
0000
0010
0001
0000
0010
0001
0000
,
2000
0000
0000
0000
3000
0000
0000
0000
0000
0000
1010
0000
0000
0110
0000
0000
,
0101
0000
0000
0000
0000
0000
0001
0010
0001
1000
0010
1000
,
0001
0100
0000
0100
0000
0100
0000
0010
1000
0001
0000
0001
,
0020
0000
0130
1000
,
0001
0100
0001
1000
0100
1000
0001
0010
,
0001
1000
0010
1000
0001
0100
0210
0000
,
0301
0010
0001
1000
0010
1000
0001
0100
,
0001
1000
0020
0130
0002
0103
0201
0000
,
0301
0010
0001
1000
0010
1000
0001
0100
,
0001
0010
0100
1000
0010
0100
0001
0010
,
0100
0010
0001
0100
0010
1000
0100
0010
,
0001
0100
1000
0001
0010
1000
0001
0010
,
0200
0000
0000
0000
,
0000
0000
0000
0000
,
0300
0000
0000
0000
,
1000
0100
0001
1000
0010
0001
1000
0100
,
0001
0000
1000
0000
0010
0000
0001
0000
1000
0000
0100
0000
0010
0001
0010
0001
,
0200
0000
0000
0300
0000
0000
0000
0000
;

//---------------dance-single - ----------------
#NOTES:
     dance-single:
     :
     Easy:
     10:
     0.640176,0.814804,0.522161,0.054554,0.007793,575.000000,508.000000,67.000000,7.000000,0.000000,0.000000,0.640176,0.814804,0.522161,0.054554,0.007793,575.000000,508.000000,67.000000,7.000000,0.000000,0.000000:
0000
0000
0000
0000
,
0000
0000
0000
0000
,
1000
0010
0100
0010
,
1000
0000
0010
0100
0000
0000
0101
0000
,
1001
0000
0000
0000
0000
0000
0000
1100
,
0000
1100
0000
0000
0000
0000
0000
0000
,
0011
0000
0010
0100
1000
0000
0000
0000
,
1010
0000
0010
0100
0001
0000
0000
0000
,
1001
0010
0101
0010
,
1000
0100
1000
0000
0001
0000
1000
0000
,
0002
0000
0000
0000
,
0013
0010
0010
0011
,
1000
0100
0010
0100
1000
0000
0001
0000
,
1000
0010
1000
0000
0001
0000
0101
0000
,
0001
0100
0010
0100
0001
0000
1000
0000
,
0001
0010
0001
0000
1000
0000
0000
0011
,
0000
0000
1000
0000
0001
0100
0001
0000
,
0010
0100
0010
0100
1000
0000
0001
0000
,
1000
0010
1000
0000
0001
0010
0001
0000
,
0100
0000
0010
0000
1000
0001
1000
0000
,
1001
0000
0001
0010
0100
1000
0000
1010
,
0000
1000
0001
0100
0010
1000
0000
1100
,
0000
0010
0001
0010
0100
1000
0000
1001
,
0000
1000
0100
0010
0001
1000
0001
0000
,
0101
0000
0010
1000
0010
0000
0000
0000
,
1100
0000
0010
0001
0010
0000
0000
0000
,
0010
0000
0000
1000
0000
0000
0100
0000
0000
0010
0000
0010
,
0002
0000
0103
0010
,
1000
0100
0010
0001
,
1000
0000
0100
0000
0010
0000
0001
0100
,
0001
0010
0100
1000
,
0001
0000
0000
0000
0010
0000
0000
0000
0100
0000
0000
1000
0000
0000
0001
0000
,
1000
0010
0100
0001
,
1000
0010
0100
0001
,
0011
0000
0000
0110
0000
0000
1100
0000
,
0000
1010
0000
0000
0101
0000
0010
0000
,
1000
0000
0100
0000
0010
0001
0010
0100
,
1000
0000
0001
0000
1000
0010
0100
0001
,
1000
0100
1000
0000
0001
0100
0001
0000
,
1000
0010
1000
0000
0001
0010
0001
0000
,
0101
0100
0010
1000
,
1100
0100
0010
0001
,
0101
0010
1001
0010
,
1100
0000
0010
0000
0100
0000
0001
1000
,
0002
0000
0000
0000
,
0000
0000
0000
0000
,
0103
0000
0000
0000
,
0010
0000
1000
0000
,
0001
0010
0001
0000
0100
0000
0010
0000
,
1000
0100
0010
0001
0100
0000
1001
0000
,
1000
0010
1000
0000
0100
0000
0010
0000
,
0001
1000
0010
1000
0001
0000
0110
0000
,
1000
0010
1000
0000
0100
0000
0010
0000
,
0001
0100
0001
0000
0010
0100
1000
0000
,
0010
0100
0010
0000
0010
0100
0010
0000
,
1000
0000
0001
0000
1000
0100
0010
0000
,
1001
0010
0001
0010
,
0100
0000
0000
1100
0000
0000
0011
0000
,
1001
0000
0000
0000
0000
0000
0000
0101
,
0000
0101
0000
0010
0000
1000
0001
0000
,
0011
0000
0010
0100
1000
0000
0000
0000
,
1010
0000
0010
0100
0001
0000
0000
0000
,
1001
0010
0101
0010
,
1000
0100
1000
0000
0001
0100
0010
1000
,
0001
0000
0010
0000
,
0100
0000
0010
0000
,
0001
0000
1000
0000
,
0100
0000
1000
0000
,
0010
0000
0100
0000
,
0001
0000
0100
0000
,
0010
0000
1000
0000
,
0100
0010
0001
1001
,
0001
0100
0001
0000
1000
0100
1000
0000
,
0001
0010
0100
1000
,
0001
0100
0010
0000
1000
0100
0010
0000
,
0001
0000
0010
0000
0100
1000
0010
0000
,
0001
0100
0001
0000
1000
0100
1000
0000
,
0010
0100
0001
0010
,
1100
0000
0011
0000
,
0100
0000
0010
0000
1000
0100
0010
0100
,
1000
0000
0010
0000
0100
0001
0100
0000
,
1010
0000
1100
0000
1001
0000
0000
0101
,
0000
0000
0010
0000
0001
0100
0010
0000
,
1010
0000
0110
0000
0101
0000
0000
1100
,
0000
0001
0010
0100
,
1000
0100
0010
0001
,
1000
0010
0100
0000
0001
0010
0100
0000
,
1000
0000
0100
0000
0010
0001
0010
0001
,
1000
0000
1000
0000
0010
0100
0010
0000
,
0001
0000
0001
0000
0010
0100
0010
0000
,
1000
0100
1000
0001
0010
0001
1000
0000
,
1010
0101
0011
1100
,
1001
0000
0000
0000
,
0010
0010
0010
0011
,
0001
0100
0010
1000
,
0100
0000
1000
0000
0010
0100
0001
0000
,
1000
0100
1000
0000
0010
0000
0100
0000
,
0101
1001
1100
1001
,
0000
0100
0001
0000
0010
0100
0010
0000
,
0001
0100
0010
1000
,
1000
0100
1000
0000
0001
0010
0001
0000
,
0100
0010
1001
0000
,
1000
0000
0100
0000
0010
0001
0010
0001
,
1000
0000
0100
0000
0010
0001
0100
0001
,
1000
0000
0010
0000
0100
0001
0100
0001
,
1000
0000
0010
0000
0100
0001
0010
0001
,
1000
0000
0100
0010
0100
0000
0000
0000
,
0101
0000
1000
0010
1000
0000
0000
0000
,
1001
0100
0011
0100
,
1001
0000
0100
0010
,
1000
0100
1000
0000
0001
0100
0001
0000
,
0010
0100
1000
0011
,
1000
0100
1000
0000
0001
0100
0001
0000
,
0010
0100
2000
0000
3002
0000
0013
0000
,
0001
0100
0001
0000
1000
0100
1000
0000
,
0010
0100
0001
1010
,
1000
0100
0001
0010
,
1000
0100
1000
0000
0001
0100
0001
0010
,
0200
0000
0000
0000
,
0000
0000
0000
0000
,
0000
0000
0000
0000
,
0020
0000
0000
0000
,
0000
0000
0000
0000
0000
0000
0000
0330
,
0001
0000
0000
0000
;

//---------------dance-single - ----------------
#NOTES:
     dance-single:
     :
     Beginner:
     5:
     0.325098,0.479297,0.109108,0.070141,0.000000,292.000000,278.000000,14.000000,9.000000,0.000000,0.000000,0.325098,0.479297,0.109108,0.070141,0.000000,292.000000,278.000000,14.000000,9.000000,0.000000,0.000000:
// measure 0
0000
0000
0000
0000
,  // measure 1
0000
0000
0000
0000
,  // measure 2
0000
0000
0000
0000
,  // measure 3
0000
0000
0000
0000
,  // measure 4
0001
0000
0000
0000
,  // measure 5
0000
0000
0000
0000
,  // measure 6
0100
0000
0010
0010
,  // measure 7
1000
0000
0001
0001
,  // measure 8
0010
0000
0100
0000
,  // measure 9
0010
0000
0100
0000
,  // measure 10
1001
0000
0000
0000
,  // measure 11
0010
0010
0010
0000
,  // measure 12
0001
0001
0100
0000
,  // measure 13
1000
1000
0100
0000
,  // measure 14
0001
0001
0010
0000
,  // measure 15
1000
1000
0010
0000
,  // measure 16
1001
0000
0100
0000
,  // measure 17
0010
0000
1000
0000
,  // measure 18
0001
0010
0001
0000
,  // measure 19
1000
0010
1000
0000
,  // measure 20
0100
0100
0100
0000
,  // measure 21
1000
0001
1000
0000
,  // measure 22
0010
0010
0010
0000
,  // measure 23
0100
0001
1000
0000
,  // measure 24
1001
0000
0000
0000
,  // measure 25
1001
0000
0000
0000
,  // measure 26
0001
0000
0100
0000
,  // measure 27
0010
0000
0000
0000
,  // measure 28
1000
0100
1000
0000
,  // measure 29
0001
0100
0001
0000
,  // measure 30
1000
0100
1000
0000
,  // measure 31
0001
0100
0001
0000
,  // measure 32
0010
0010
0010
0000
,  // measure 33
0100
0100
0100
0000
,  // measure 34
1000
0000
0001
0000
,  // measure 35
1000
0000
1001
0000
,  // measure 36
0001
0001
0001
0000
,  // measure 37
1000
1000
1000
0000
,  // measure 38
0010
0100
0010
0100
,  // measure 39
0001
1000
0001
0000
,  // measure 40
0010
0000
0110
0000
,  // measure 41
0001
0000
1001
0000
,  // measure 42
1000
0000
0010
0000
,  // measure 43
0100
0000
0001
0000
,  // measure 44
2000
0000
0000
0000
,  // measure 45
0000
0000
0000
0000
,  // measure 46
3100
0000
0000
0000
,  // measure 47
0010
0000
0000
0000
,  // measure 48
0001
0001
0010
0010
,  // measure 49
0001
0001
0010
0000
,  // measure 50
0100
0100
1000
1000
,  // measure 51
0100
1000
0001
0000
,  // measure 52
0100
0100
0010
0010
,  // measure 53
0100
0001
1000
0000
,  // measure 54
0100
0100
1000
0000
,  // measure 55
0001
0100
0001
0000
,  // measure 56
1001
0000
0000
0000
,  // measure 57
0000
0000
0000
0000
,  // measure 58
0001
0000
0000
0000
,  // measure 59
0000
0000
0000
0000
,  // measure 60
0100
0000
0010
0010
,  // measure 61
1000
0000
0001
0001
,  // measure 62
0010
0000
0100
0000
,  // measure 63
0010
0000
0100
0000
,  // measure 64
2000
0000
0000
0000
,  // measure 65
3002
0000
0000
0000
,  // measure 66
0023
0000
0000
0000
,  // measure 67
0032
0000
0000
0000
,  // measure 68
2003
0000
0000
0000
,  // measure 69
3020
0000
0000
0000
,  // measure 70
2030
0000
0000
0000
,  // measure 71
3100
0100
0100
0000
,  // measure 72
1000
0010
1000
0000
,  // measure 73
0001
0000
0010
0000
,  // measure 74
0001
0100
0001
0000
,  // measure 75
1000
0000
0100
0000
,  // measure 76
0010
0010
0010
0000
,  // measure 77
0100
0100
0100
0000
,  // measure 78
1000
0000
0010
0100
,  // measure 79
0000
0100
0010
0000
,  // measure 80
1000
0000
0100
0000
,  // measure 81
0001
0100
1000
0000
,  // measure 82
0001
0000
0100
0000
,  // measure 83
1000
0100
0001
0000
,  // measure 84
1000
0000
0010
0000
,  // measure 85
0100
0001
1000
0001
,  // measure 86
0010
0000
0100
0000
,  // measure 87
1000
0001
1000
0000
,  // measure 88
0010
0010
0010
0000
,  // measure 89
0100
0100
0100
0000
,  // measure 90
0001
0000
0010
0000
,  // measure 91
0100
0000
1000
0000
,  // measure 92
1001
0000
0000
0000
,  // measure 93
0100
0100
0100
0000
,  // measure 94
1000
0010
1000
0010
,  // measure 95
0100
0001
1000
0000
,  // measure 96
1001
0000
1001
0000
,  // measure 97
1001
0000
0010
0100
,  // measure 98
0000
0100
0001
0001
,  // measure 99
1000
0100
1000
1000
,  // measure 100
0010
0000
0100
0000
,  // measure 101
0001
1000
0001
0000
,  // measure 102
0010
0100
0010
0100
,  // measure 103
0010
0100
0010
0010
,  // measure 104
0001
1000
0001
1000
,  // measure 105
0001
1000
0001
0001
,  // measure 106
1001
0000
0000
0000
,  // measure 107
1001
0000
0000
0000
,  // measure 108
1000
0000
0010
0000
,  // measure 109
0100
0001
0100
0000
,  // measure 110
1000
0100
1000
0001
,  // measure 111
1000
0000
0010
0000
,  // measure 112
0100
0001
1000
0001
,  // measure 113
0010
0000
0100
0000
,  // measure 114
0010
0001
0010
0000
,  // measure 115
0100
1000
0100
0000
,  // measure 116
1000
0000
0001
0000
,  // measure 117
0100
0010
0100
0000
,  // measure 118
0001
0000
0000
0000
,  // measure 119
0000
0000
0000
0000
,  // measure 120
0000
0000
0000
0000
,  // measure 121
2000
0000
0000
0000
,  // measure 122
0000
0000
0000
0000
,  // measure 123
3100
0000
0000
0000
;
