#TITLE:Unicorn Tail;
#SUBTITLE:;
#ARTIST:DJ Yoshitaka;
#TITLETRANSLIT:;
#SUBTITLETRANSLIT:;
#ARTISTTRANSLIT:;
#GENRE:;
#CREDIT:;
#BANNER:Unicorn Tail.png;
#BACKGROUND:Unicorn Tail-bg.png;
#LYRICSPATH:;
#CDTITLE:;
#MUSIC:Unicorn Tail.ogg;
#OFFSET:-0.056000;
#SAMPLESTART:36.759998;
#SAMPLELENGTH:11.300000;
#SELECTABLE:YES;
#BPMS:0.000000=170.000000
;
#STOPS:64.000000=2.824000,
223.000000=0.353000
;
#BGCHANGES:;
#KEYSOUNDS:;
#ATTACKS:;

//---------------dance-single - ----------------
#NOTES:
     dance-single:
     :
     Hard:
     14:
     0.766393,0.842660,0.063614,0.120159,0.374614,759.000000,750.000000,9.000000,17.000000,0.000000,0.000000,0.766393,0.842660,0.063614,0.120159,0.374614,759.000000,750.000000,9.000000,17.000000,0.000000,0.000000:
// measure 0
0000
0000
0000
0000
,  // measure 1
0000
0000
0000
0000
,  // measure 2
0000
0000
0000
0000
,  // measure 3
0000
0000
0000
0000
,  // measure 4
0010
0100
0001
1000
0010
0100
0001
1000
,  // measure 5
0010
0100
0001
1000
0000
0010
0000
1000
,  // measure 6
0010
0100
0001
1000
0010
0100
0001
1000
,  // measure 7
1001
0000
0000
0000
,  // measure 8
1000
0000
0100
0000
0010
0000
0001
0100
0001
0000
1000
0000
0020
0000
0000
0000
,  // measure 9
1030
0000
0100
0000
0010
0000
0001
0100
0001
0000
1000
0000
0100
0000
1000
0000
,  // measure 10
0001
0000
0100
0000
0010
0000
1000
0100
1000
0000
0001
0000
0020
0000
0000
0000
,  // measure 11
0031
0000
0100
0000
0010
0000
1000
0100
1000
0000
0010
0000
0001
0000
0010
0000
,  // measure 12
1000
0000
0100
0000
0010
0000
0001
0100
0001
0000
1000
0000
0020
0000
0000
0000
,  // measure 13
1030
0000
0100
0000
0010
0000
0001
0100
0001
0000
1000
0000
0100
0000
0100
0000
,  // measure 14
1000
0000
0001
0010
0100
1000
0100
1000
0001
0000
0100
0000
0020
0000
0000
0000
,  // measure 15
1030
0000
0001
1000
0000
0000
0000
0000
0000
0010
0000
0000
1000
0000
0000
0100
0000
0000
0110
0000
0000
0000
0000
0000
,  // measure 16
1100
0100
0010
0100
1000
0000
0100
0010
,  // measure 17
0000
0001
0000
0100
0000
1000
0100
0010
,  // measure 18
0001
1000
0010
1000
0100
0000
0001
0010
,  // measure 19
0000
0001
0000
1000
0000
0010
1000
0001
,  // measure 20
1000
0100
0010
0100
1000
0000
0001
0100
,  // measure 21
0000
0010
0000
1000
0000
0100
1000
0100
,  // measure 22
0010
0000
0100
0010
0001
0000
0001
1000
,  // measure 23
0010
0000
1000
0000
0100
0000
1000
0000
0001
0100
0001
0100
0020
0000
0000
0000
,  // measure 24
1030
0000
0100
0000
0010
0000
0001
0100
0001
0100
0001
0000
1000
0000
0010
0000
,  // measure 25
1000
0000
0100
0000
1000
0000
0001
0000
0010
0100
0010
0000
0001
0000
0001
0000
,  // measure 26
1000
0000
0100
0000
0010
0000
0001
0100
0001
0100
0001
0000
1000
0000
0010
0000
,  // measure 27
1000
0100
1000
0000
0001
0010
0001
0010
0100
1000
0100
0000
0010
0001
0010
0001
,  // measure 28
1000
0000
0100
0000
0010
0000
0001
0100
0001
0100
0001
0000
1000
0000
0010
0000
,  // measure 29
1000
0010
1000
0000
0100
0000
0010
0000
0001
0010
0001
0000
0200
0000
0000
0000
,  // measure 30
0301
0000
0010
0000
0100
0000
1000
0100
1000
0100
1000
0000
0001
0000
1000
0100
,  // measure 31
1000
0000
0001
0100
0010
1000
0010
0000
1000
0100
1000
0000
0001
0000
0001
0000
,  // measure 32
1000
0000
0100
0000
0010
0000
0001
0100
0001
0100
0001
0000
1000
0000
0010
0000
,  // measure 33
1000
0000
0100
0000
1000
0000
0001
0000
0010
0100
0010
0000
0001
0000
0001
0000
,  // measure 34
1000
0000
0100
0000
0010
0000
0001
0100
0001
0100
0001
0000
1000
0000
0010
0000
,  // measure 35
1000
0100
0010
0000
0012
0000
0000
0000
,  // measure 36
1003
0000
0100
0000
0010
0000
0001
0100
0001
0100
0001
0000
1000
0000
0010
0000
,  // measure 37
1000
0010
1000
0000
0100
0000
0010
0000
0001
1000
0001
0000
0200
0000
0000
0000
,  // measure 38
0301
0100
1000
0001
0010
1000
0001
1000
,  // measure 39
0100
0000
0100
0000
0010
0000
0010
0000
0001
1000
0001
1000
0200
0000
0000
0000
,  // measure 40
1300
0001
0010
0001
1000
0100
1000
0010
,  // measure 41
0001
0010
0100
0001
0100
0010
1000
0100
,  // measure 42
0010
0100
0001
0100
1000
0100
0010
0001
,  // measure 43
0100
1000
0100
0001
0100
0010
1000
0001
,  // measure 44
1000
0100
0010
0100
1000
0001
1000
0010
,  // measure 45
0001
0010
0100
0001
0100
0010
1000
0100
,  // measure 46
0010
0001
1000
0010
0100
0001
1000
0010
,  // measure 47
0001
0010
1000
0100
0001
0100
1000
0001
,  // measure 48
1000
0000
0100
0000
0010
0000
0001
0100
0001
0000
0010
0000
0100
0000
0010
0000
,  // measure 49
1000
0000
0010
0000
0100
0000
1000
0010
1000
0000
0001
0000
1000
0000
0100
0000
,  // measure 50
0010
0000
0100
0000
1000
0000
0001
0010
0001
0000
0100
0000
0010
0000
1000
0000
,  // measure 51
0100
0000
0001
0000
0100
0000
0010
0001
0010
0000
0100
0000
1000
0000
0001
0000
,  // measure 52
1000
0000
0100
0000
0010
0000
0001
1000
0001
0000
1000
0000
0100
0000
0010
0000
,  // measure 53
1000
0000
0010
0000
0100
0000
1000
0001
1000
0000
0010
0000
1000
0000
0100
0000
,  // measure 54
0010
0000
0001
0010
0001
1000
0001
1000
0010
0000
0100
0000
0002
0000
0000
0000
,  // measure 55
1003
0010
1000
0000
0000
0000
0010
0000
0100
0001
0100
0001
2000
0000
3100
0000
,  // measure 56
0010
0000
0001
0100
0001
0100
0001
0000
1000
0000
0010
0000
1000
0000
0100
0000
,  // measure 57
1000
0000
0001
0000
0010
0100
0010
0000
0001
0000
0001
0000
1000
0000
0100
0000
,  // measure 58
0010
0000
0001
0100
0001
0100
0001
0000
1000
0000
0010
0000
1000
0100
1000
0000
,  // measure 59
0001
0010
0001
0010
0100
1000
0100
0000
0010
0001
0010
0001
1000
0000
0100
0000
,  // measure 60
0010
0000
0001
0100
0001
0100
0001
0000
1000
0000
0010
0000
1000
0010
1000
0000
,  // measure 61
0100
0000
0010
0000
0001
0010
0001
0000
0200
0000
0000
0000
0301
0000
0010
0000
,  // measure 62
0100
0000
1000
0100
1000
0100
1000
0000
0001
0000
1000
0100
1000
0000
0001
0100
,  // measure 63
0010
1000
0010
0000
1000
0100
1000
0000
0001
0000
0001
0000
1000
0000
0100
0000
,  // measure 64
0010
0000
0001
0100
0001
0100
0001
0000
1000
0000
0010
0000
1000
0000
0100
0000
,  // measure 65
1000
0000
0001
0000
0010
0100
0010
0000
0001
0000
0001
0000
1000
0000
0100
0000
,  // measure 66
0010
0000
0001
0100
0001
0100
0001
0000
1000
0000
0010
0000
1000
0000
0100
0000
,  // measure 67
0010
0000
0012
0000
0000
0000
1003
0100
,  // measure 68
0010
0000
0001
0100
0001
0100
0001
0000
1000
0000
0010
0000
1000
0010
1000
0000
,  // measure 69
0100
0000
0010
0000
0001
1000
0001
0000
0200
0000
0000
0000
0310
1000
0010
1000
,  // measure 70
0001
0010
0001
0010
0100
0000
0100
0000
1000
0000
1000
0000
0001
0000
0100
0000
,  // measure 71
1000
0100
0002
0000
0000
0000
1003
0000
,  // measure 72
0010
0000
0000
0010
1000
0000
0001
0000
1000
0000
0000
0000
0001
0000
0000
0000
,  // measure 73
0010
0000
0000
0010
0001
0000
1000
0000
0001
0000
0000
0000
1000
0000
0000
0000
,  // measure 74
0010
0000
0000
0010
0100
0000
0001
0000
0100
0000
0000
0000
0001
0000
0000
0000
,  // measure 75
0010
0000
0000
0010
0100
0000
1000
0000
0100
0000
0000
0000
1100
0000
0100
0000
,  // measure 76
0010
0000
0001
1000
0001
0000
0010
0000
0100
0000
0000
0000
1100
0000
0100
0000
,  // measure 77
0010
0000
0001
1000
0001
0000
0010
0000
0100
0000
0000
0000
1100
0000
0100
0000
,  // measure 78
0010
0001
0101
0100
0010
1000
0001
0001
,  // measure 79
1000
1000
0100
0100
0010
0010
0001
0100
,  // measure 80
0010
0000
1000
0100
1000
0000
0001
0000
1000
0000
0010
0000
0001
0000
0010
0000
,  // measure 81
0100
0000
0001
0010
0001
0000
1000
0000
0001
0000
0100
0000
0010
0000
0100
0000
,  // measure 82
0001
0000
1000
0010
1000
0000
0100
0000
0010
0000
0001
0000
0100
0000
1000
0000
,  // measure 83
0100
0000
0010
1000
0010
0000
0100
0000
0001
0000
1000
0000
0001
0000
0100
0000
,  // measure 84
0010
0000
1000
0001
1000
0000
0001
0000
0100
0000
0001
0000
1000
0000
0100
0000
,  // measure 85
0010
0000
0001
1000
0001
0000
1000
0000
0100
0000
1000
0000
0010
0000
0100
0000
,  // measure 86
0001
1000
0001
1000
0100
0000
0010
0000
0002
0000
0000
0000
1003
0000
1000
0000
,  // measure 87
0100
0000
0100
0000
1000
0001
1000
0001
0200
0000
0000
0000
0310
0000
0000
0000
,  // measure 88
1000
0000
0010
0000
0100
0001
0000
0010
,  // measure 89
0000
0001
0000
0100
0010
1000
0001
0000
,  // measure 90
0010
0000
0100
0000
1000
0100
0000
0001
,  // measure 91
0000
0100
0000
1000
0010
0100
0001
0000
,  // measure 92
0010
0000
0001
0000
0100
0010
0000
1000
,  // measure 93
0000
0010
0000
0100
0000
0100
0001
0000
,  // measure 94
1000
0100
0010
0000
0001
1000
0000
0010
,  // measure 95
0000
0100
0000
0001
0000
0000
0000
0000
;

//---------------dance-single - ----------------
#NOTES:
     dance-single:
     :
     Medium:
     10:
     0.510929,0.505596,0.063614,0.134296,0.000000,506.000000,497.000000,9.000000,19.000000,0.000000,0.000000,0.510929,0.505596,0.063614,0.134296,0.000000,506.000000,497.000000,9.000000,19.000000,0.000000,0.000000:
0000
0000
0000
0000
,
0000
0000
0000
0000
,
0000
0000
0000
0000
,
0000
0000
0000
0000
,
1000
1000
0100
0100
,
0010
0000
0010
0000
0001
1000
0001
0100
,
0010
0010
1000
1000
,
0110
0000
0000
0000
,
1000
0100
0010
0000
0001
1000
0001
0000
,
0001
0100
0010
0000
1000
0000
1010
0000
,
0001
0100
0010
0000
1000
0001
1000
0000
,
1000
0100
0010
0000
0001
0000
0011
0000
,
1000
0010
1000
0000
0100
0000
0100
0000
,
0010
0001
0010
0000
0100
0000
0100
0000
,
1000
0000
0001
0100
0010
0000
2000
0000
,
3100
0010
0000
0001
0010
0000
0110
0000
,
1001
0000
1000
0000
0010
0000
0100
0001
,
0000
0010
0000
0001
0000
0100
0010
1000
,
0001
0000
0010
0000
0100
0000
1000
0001
,
0000
1000
0000
0010
0000
0100
0001
1000
,
0010
0000
1000
0000
0010
0000
0100
0001
,
0000
0010
0000
0001
0000
0100
0000
0100
,
0010
0000
1000
0001
0010
0000
0001
0010
,
0000
0100
0000
1000
0001
0100
0010
0000
,
1000
0010
1000
0000
0001
0010
0001
1000
,
0000
0010
0000
1000
0100
0010
0100
0010
,
0100
1000
0001
0000
0100
0001
1000
0000
,
0001
0000
0020
0000
0031
0100
0002
0000
,
1003
0010
1000
0000
0001
0010
0001
0100
,
0001
0000
1000
0000
0010
0100
0002
0000
,
1003
0100
1000
0000
0001
0100
0001
1000
,
0001
0000
0010
0000
0100
1000
0100
0100
,
1000
0010
1000
0000
0001
0010
0001
1000
,
0000
0010
0000
1000
0100
0010
0100
0010
,
0100
1000
0001
0000
0100
0001
1000
0000
,
0200
0310
0002
0000
,
1003
0010
1000
0000
0001
0010
0001
0100
,
0001
0000
1000
0000
0010
0100
0002
0000
,
1003
0000
0100
1000
0010
0000
0100
0001
,
0010
0100
0010
0100
1000
0001
2000
0000
,
3001
0000
0100
0000
0001
0000
1000
0001
,
1000
0010
1000
0001
0000
1000
0100
0010
,
0001
0000
0010
0000
0100
0000
1000
0001
,
0000
0100
0000
0001
0000
1000
0010
0100
,
0001
0000
0010
0000
0001
0000
1000
0001
,
1000
0010
1000
0001
0000
1000
0100
1000
,
0001
0000
0100
0001
0100
0000
0010
1000
,
0000
0001
0000
1000
0000
0100
0000
0010
,
0001
0000
0100
0000
0001
0000
1000
0001
,
1000
0010
1000
0001
0000
1000
0100
0010
,
0001
0000
0010
0000
0100
0000
1000
0001
,
0000
0100
0000
0001
0000
1000
0010
0100
,
0001
0000
0010
0000
0001
0000
1000
0001
,
1000
0010
1000
0001
0000
1000
0100
1000
,
0001
0000
0010
0100
0010
0000
0002
0000
,
1003
0010
0000
0100
0001
1000
0001
0010
,
1000
0000
0001
0010
0001
1000
0000
0010
,
0000
1000
0100
0010
0100
0010
0100
1000
,
0001
0000
0100
0001
1000
0000
0001
0000
,
0020
0000
0031
0100
0002
0000
1003
0010
,
1000
0000
0001
0010
0001
0100
0001
0000
,
1000
0000
0010
0100
0002
0000
1003
0100
,
1000
0000
0001
0100
0001
1000
0001
0000
,
0010
0000
0100
1000
0100
0100
1000
0010
,
1000
0000
0001
0010
0001
1000
0000
0010
,
0000
1000
0100
0010
0100
0010
0100
1000
,
0001
0000
0100
0001
1000
0000
0200
0000
,
0310
0000
0002
0000
0000
0000
1003
0010
,
1000
0000
0001
0010
0001
0100
0001
0000
,
1000
0000
0010
0100
0002
0000
1003
1000
,
0100
0100
1000
0000
0010
0000
0200
0000
,
0310
2000
0000
3001
,
0010
0000
0001
0100
0001
0000
1000
0000
,
0010
0000
1000
0100
1000
0000
0010
0000
,
0100
0000
0001
1000
0001
0000
0100
0000
,
0010
0000
1000
0001
1000
0000
1100
0000
,
0010
0000
0001
1000
0001
0000
0101
0000
,
0010
0000
1000
0001
1000
0000
1100
0000
,
0010
0000
0011
0000
0100
0000
1000
0010
,
1000
0010
0100
0001
0100
0001
1000
0000
,
0010
0000
1000
0000
0001
1000
0001
0100
,
0001
1000
0000
0001
0010
0100
1000
0000
,
0100
0000
0010
0000
0001
1000
0000
0010
,
0000
1000
0000
0001
0100
0010
1000
0000
,
0100
0000
1000
0000
0001
1000
0001
0100
,
0001
1000
0000
0001
0010
0001
1000
0000
,
0100
0010
0001
0000
0200
0000
0310
1000
,
0010
1000
0001
0100
0002
0000
1003
0000
,
0010
0000
1000
0000
1000
0001
0000
0010
,
0000
0001
0000
0100
0000
0010
1000
0000
,
0100
0000
0010
0000
0001
1000
0000
0010
,
0000
1000
0000
0001
0010
0100
1000
0000
,
0010
0000
1000
0000
1000
0001
0000
0010
,
0000
0001
0000
0100
0000
0100
0010
0000
,
1000
0000
0001
0000
1000
0010
0000
0100
,
0000
0001
0000
1000
0000
0000
0000
0000
;

//---------------dance-single - ----------------
#NOTES:
     dance-single:
     :
     Easy:
     7:
     0.361487,0.401429,0.056545,0.134296,0.000000,358.000000,350.000000,8.000000,19.000000,0.000000,0.000000,0.361487,0.401429,0.056545,0.134296,0.000000,358.000000,350.000000,8.000000,19.000000,0.000000,0.000000:
0000
0000
0000
0000
,
0000
0000
0000
0000
,
0000
0000
0000
0000
,
0000
0000
0000
0000
,
0010
1000
0001
1000
,
0100
1000
0001
0010
,
0100
1000
0100
0010
,
0002
0003
0000
0000
,
1000
0010
1000
0001
,
1000
0100
0010
0010
,
0001
0010
0001
1000
,
0001
0100
0010
0010
,
1010
0100
0001
0001
,
0011
0100
1000
1000
,
1001
0010
0110
0000
,
1000
0100
0000
0000
0010
0001
0010
0000
,
0200
0000
1000
0000
,
0010
0000
0010
0000
,
2300
0000
0010
0000
,
0001
0000
0001
0000
,
3200
0000
0010
0000
,
1000
0000
1000
0000
,
0320
0000
0001
0000
,
0001
0000
0000
0000
0130
1000
0100
0000
,
0010
0000
0001
0000
1000
0010
1000
0000
,
0001
0010
0100
0100
,
1000
0000
0010
0000
1000
0010
1000
0000
,
0001
0010
0100
2000
,
3001
0100
0001
0000
1000
0010
1000
0000
,
0100
0010
0001
2000
,
3010
0100
0010
0000
1000
0000
0001
0000
,
1000
0100
0010
0010
,
0010
0000
0001
0000
1000
0010
1000
0000
,
0001
0010
0100
0100
,
1000
0000
0010
0000
1000
0010
1000
0000
,
0001
0010
0200
0000
,
1300
0100
1000
0000
0001
0000
0001
0000
,
0100
0001
0100
0000
0010
0000
0010
0000
,
2000
0000
0002
3003
,
0010
0100
0010
0100
0010
0000
0001
0000
,
1000
0000
0010
0000
1000
0000
0100
0010
,
0000
0001
0000
0010
0000
0100
1000
0001
,
1000
0000
0010
0000
0100
0000
0001
1000
,
0000
0100
0000
1000
0000
0001
0010
0001
,
1000
0000
0010
0000
1000
0000
0100
0010
,
0000
0001
0000
0010
0000
0100
0000
0100
,
1000
0000
0001
0100
0001
0000
1000
0010
,
0000
0100
0000
0001
0000
0100
0000
0010
,
1000
0000
0100
0000
1000
0000
0010
0100
,
0000
0001
0000
0100
0000
0010
1000
0001
,
0010
0000
0100
0000
1000
0000
0001
0100
,
0000
0010
0000
1000
0000
0001
0010
0100
,
1000
0000
0010
0000
1000
0000
0100
0010
,
0000
0001
0000
0010
0000
0100
0000
0100
,
1000
0000
0001
0100
0001
0000
0020
0000
,
0130
1000
0000
1000
0001
0000
0010
0000
,
0001
0000
1000
0010
1000
0000
0001
0000
,
0010
0100
0100
1000
,
0010
0000
1000
0010
1000
0000
0001
0000
,
0010
0000
0100
0000
2000
0000
3001
0100
,
0001
0000
1000
0010
1000
0000
0100
0000
,
0010
0000
0001
0000
2000
0000
3010
0100
,
0010
1000
0001
1000
,
0100
0010
0010
0010
,
0001
0000
1000
0010
1000
0000
0001
0000
,
0010
0100
0100
1000
,
0010
0000
1000
0010
1000
0000
0001
0000
,
0010
0000
0200
0000
0000
0000
1300
0100
,
1000
0000
0001
0000
0001
0000
0100
0001
,
0100
0010
0010
2000
,
0000
0000
0002
0000
3003
0000
0010
0100
,
0010
0100
0020
0000
0000
0000
0031
0000
,
0100
1000
0100
0001
,
0100
1000
0100
0001
,
0010
1000
0010
0001
,
0010
1000
0010
0011
,
0000
0001
0000
0101
,
0000
0100
0000
1100
,
1000
0000
1010
0000
0010
0000
0100
0001
,
0100
0001
0100
0000
0020
0000
1030
0000
,
0010
0000
1000
0000
0100
0010
0000
0001
,
0000
0010
0000
0100
1000
0001
1000
0000
,
0010
0000
0100
0000
0001
1000
0000
0100
,
0000
1000
0000
0001
0010
0001
1000
0000
,
0010
0000
1000
0000
0100
0010
0000
0001
,
0000
0010
0000
0100
0000
0100
1000
0000
,
0001
0000
0200
0000
0310
1000
0000
0100
,
0000
0010
0000
0100
0000
0000
0000
0000
;

//---------------dance-single - ----------------
#NOTES:
     dance-single:
     :
     Beginner:
     2:
     0.105013,0.154175,0.000000,0.000000,0.000000,104.000000,104.000000,0.000000,0.000000,0.000000,0.000000,0.105013,0.154175,0.000000,0.000000,0.000000,104.000000,104.000000,0.000000,0.000000,0.000000,0.000000:
0000
0000
0000
0000
,
0000
0000
0000
0000
,
0000
0000
0000
0000
,
0000
0000
0000
0000
,
0010
0000
0000
0000
,
0000
0000
0000
0000
,
0010
0000
0000
0000
,
1000
0000
0000
0000
,
0001
0000
0010
0000
,
0001
0000
0000
0000
,
1000
0000
0010
0000
,
1000
0000
0000
0000
,
0100
0000
0010
0000
,
0100
0000
0100
0000
,
1000
0000
0001
0000
,
1000
0000
0000
0000
,
0010
0000
0000
0000
,
0100
0000
0000
0000
,
0001
0000
0000
0000
,
0001
0000
0000
0000
,
0010
0000
0000
0000
,
0100
0000
0000
0000
,
1000
0000
0000
0000
,
1000
0000
0000
0000
,
0010
0000
0000
0000
,
1000
0000
1000
0000
,
0001
0000
0000
0000
,
0010
0000
0000
0000
,
0100
0000
0000
0000
,
1000
0000
0001
0000
,
1000
0000
0000
0000
,
0001
0000
0001
0000
,
1000
0000
0000
0000
,
0010
0000
0000
0000
,
0100
0000
0000
0000
,
0001
0000
0001
0000
,
1000
0000
0000
0000
,
0100
0000
0000
0000
,
0010
0000
0010
0000
,
0001
0000
0000
0000
,
1000
0000
1000
0000
,
1000
0000
0000
0000
,
0001
0000
0000
0000
,
0010
0000
0000
0000
,
0001
0000
0001
0000
,
0001
0000
0000
0000
,
0100
0000
0000
0000
,
0010
0000
0000
0000
,
1000
0000
0001
0000
,
1000
0000
0000
0000
,
0100
0000
0000
0000
,
0010
0000
0000
0000
,
0001
0000
1000
0000
,
0001
0000
0000
0000
,
0100
0000
0100
0000
,
0010
0000
0000
0000
,
0000
1000
0000
0100
,
0000
0010
0000
0001
,
0000
0000
0000
0000
,
0000
0100
0000
0010
,
0000
0000
0000
0000
,
0000
1000
0000
0001
,
0000
0000
0000
0000
,
0000
0000
0000
0000
,
0000
1000
0000
0100
,
0000
0010
0000
0001
,
0000
0000
0000
0010
,
0000
0100
0000
1000
,
0000
0001
0000
0000
1000
0000
0000
0000
,
0000
0000
0000
0001
,
0000
0000
0000
0010
,
0000
0000
0000
0100
,
0000
0000
0000
0000
,
0000
0000
0000
1000
,
0000
0000
0000
0000
,
0000
0000
0000
0010
,
0000
0000
0000
0100
,
0000
0000
0000
0010
,
0000
0100
0000
0010
,
0000
0010
0000
1000
,
0000
0000
0000
0100
,
0000
0000
0000
0010
,
0000
0100
0000
1000
,
0000
0000
0000
0001
,
0000
0000
0000
0100
,
0000
0000
0000
0010
,
0000
0010
0000
1000
,
0000
0001
0000
0000
;
