#TITLE:THE WORLD REVOLVING;
#SUBTITLE:;
#ARTIST:Toby Fox;
#TITLETRANSLIT:;
#SUBTITLETRANSLIT:;
#ARTISTTRANSLIT:;
#GENRE:;
#CREDIT:;
#BANNER:THE WORLD REVOLVING.png;
#BACKGROUND:THE WORLD REVOLVING-bg.png;
#LYRICSPATH:;
#CDTITLE:;
#MUSIC:THE WORLD REVOLVING.ogg;
#OFFSET:-0.060000;
#SAMPLESTART:30.350;
#SAMPLELENGTH:10.13;
#SELECTABLE:YES;
#BPMS:0.000000=190.000000
;
#STOPS:
;
#BGCHANGES:;
#KEYSOUNDS:;
#ATTACKS:;

//---------------dance-single - ----------------
#NOTES:
     dance-single:
     :
     Hard:
     12:
     0.668495,0.679277,0.028303,0.924572,0.056606,496.000000,493.000000,3.000000,98.000000,0.000000,0.000000,0.668495,0.679277,0.028303,0.924572,0.056606,496.000000,493.000000,3.000000,98.000000,0.000000,0.000000:
// measure 0
0000
0000
0000
0000
,  // measure 1
0000
0000
0000
0000
,  // measure 2
0000
0000
0000
0000
,  // measure 3
0000
0000
0000
0000
,  // measure 4
1000
0001
0010
0001
0100
0001
0000
1010
,  // measure 5
0000
1000
0100
1000
0010
1000
0000
0001
,  // measure 6
0200
0000
0000
0320
0000
0000
2030
0000
,  // measure 7
3002
0000
0000
0000
0013
0000
0100
1000
0200
0000
0000
0000
0310
0000
0000
0000
,  // measure 8
0001
1000
0010
1000
0100
1000
0000
0011
,  // measure 9
0000
0001
0100
0001
0010
0001
1000
0010
,  // measure 10
2000
0000
0000
3200
0000
0000
0320
0000
,  // measure 11
0032
0203
0320
1030
,  // measure 12
1000
0001
0010
0001
0100
0001
0000
1010
,  // measure 13
0000
1000
0100
1000
0010
1000
0000
0001
,  // measure 14
0200
0000
0000
0320
0000
0000
2030
0000
,  // measure 15
3002
0000
0000
0000
0003
0000
1000
0100
2000
0000
0000
0000
0000
0000
0000
0000
,  // measure 16
3001
0100
0010
1000
0001
0100
0010
1000
,  // measure 17
0001
0010
0100
0010
0002
0000
1003
0010
,  // measure 18
1000
0100
0010
0001
1000
0100
0010
0001
,  // measure 19
1000
0010
0100
0001
0200
0000
0320
0000
,  // measure 20
1030
0100
0010
0002
0010
0000
0103
0010
,  // measure 21
0200
0000
0310
2000
0010
0000
3100
0000
,  // measure 22
0020
0000
0031
2000
0001
0000
3010
0000
,  // measure 23
0200
0000
0000
0000
0301
0000
1000
0010
2000
0000
0000
0000
0100
0000
0000
0000
,  // measure 24
3001
0100
0010
1000
0001
0100
0010
1000
,  // measure 25
0001
0010
0100
0010
0002
0000
1003
0010
,  // measure 26
1000
0100
0010
0001
1000
0100
0010
0001
,  // measure 27
1000
0010
0100
0001
0200
0000
0320
0000
,  // measure 28
1030
0100
0010
0002
0010
0000
0103
0010
,  // measure 29
0200
0000
0310
2000
0010
0000
3100
0000
,  // measure 30
0020
0000
0031
2000
0001
0000
3010
0000
,  // measure 31
0200
0000
0000
0000
0301
0000
1000
0010
2000
0000
0000
0000
3100
0000
0000
0000
,  // measure 32
0010
0100
1000
0100
0001
0100
1000
0100
,  // measure 33
0010
0100
1000
0100
0001
0100
1000
0100
,  // measure 34
0010
0000
0001
1000
0001
0000
0100
0000
0010
0000
0100
0000
0001
0000
0100
0000
,  // measure 35
1000
0100
0001
0100
0010
1000
0100
1000
,  // measure 36
0010
0000
0100
0001
0100
0000
0010
0000
1000
0000
0100
0000
0010
0000
0100
0000
,  // measure 37
1000
0010
0100
0001
2000
0000
3100
0010
,  // measure 38
0001
0010
1000
0010
0002
0000
2003
0000
,  // measure 39
3002
0000
0000
0000
0103
0000
0010
1000
0020
0000
0000
0000
0130
0000
0000
0000
,  // measure 40
0010
0100
0001
0100
1000
0100
0001
0100
,  // measure 41
0010
0100
0001
0100
1000
0100
0001
0100
,  // measure 42
0010
0000
1000
0001
1000
0000
0100
0000
0010
0000
0100
0000
1000
0000
0100
0000
,  // measure 43
0001
0100
1000
0100
0010
0001
0100
0001
,  // measure 44
0010
0000
0100
1000
0100
0000
0010
0000
0001
0000
0100
0000
0010
0000
0100
0000
,  // measure 45
0001
0010
0100
1000
0002
0000
0103
0010
,  // measure 46
1000
0010
0001
0010
2000
0000
3002
0000
,  // measure 47
0023
0000
0000
0000
0000
0000
0130
1000
0200
0000
0000
0000
0000
0000
0000
0000
,  // measure 48
0310
0001
1000
0001
0010
0001
1000
0001
,  // measure 49
0010
0100
1000
0001
0200
0000
0310
1000
,  // measure 50
0001
0100
0010
0100
0001
0100
0010
0100
,  // measure 51
0001
1000
0010
1000
0200
0000
0320
0000
,  // measure 52
0031
1000
0100
1000
0001
1000
0100
1000
,  // measure 53
0001
0100
0010
0100
0002
0000
1003
1000
,  // measure 54
0001
0000
0010
0000
0100
0000
0010
0000
0001
0000
0010
0000
0100
0000
1000
0001
,  // measure 55
2000
3020
0230
0302
,  // measure 56
0013
0100
1000
0100
0010
0100
1000
0100
,  // measure 57
0010
0001
1000
0001
0200
0000
0310
1000
,  // measure 58
0001
0010
0100
0010
0001
0010
0100
0010
,  // measure 59
0001
1000
0100
1000
0020
0000
0230
0000
,  // measure 60
0301
1000
0010
1000
0001
1000
0010
1000
,  // measure 61
0001
0100
0010
0100
0002
0000
1003
1000
,  // measure 62
0001
0000
0010
0000
0100
0000
0010
0000
0001
0000
0010
0000
0100
0000
1000
0001
,  // measure 63
2000
3020
0230
0302
,  // measure 64
1003
0100
0010
0100
1000
0100
0020
0000
,  // measure 65
0032
0000
0203
0000
0320
0000
1030
0001
,  // measure 66
0001
0010
0100
0010
0001
0010
0200
0000
,  // measure 67
2300
3020
0230
0302
,  // measure 68
1003
0010
0100
0010
1000
0010
0200
0000
,  // measure 69
0302
0000
0023
0000
0230
0000
1300
0001
,  // measure 70
0001
0100
0010
0100
0001
0100
0020
0000
,  // measure 71
2030
3200
0320
0032
,  // measure 72
1003
0100
0010
0100
1000
0100
0020
0000
,  // measure 73
0032
0000
0203
0000
0320
0000
1030
0001
,  // measure 74
0001
0010
0100
0010
0001
0010
0200
0000
,  // measure 75
2300
3020
0230
0302
,  // measure 76
1003
0010
0100
0010
1000
0010
0200
0000
,  // measure 77
0302
0000
0023
0000
0230
0000
1300
0001
,  // measure 78
0001
0100
0010
0100
0001
0100
0020
0000
,  // measure 79
2030
3200
0320
0032
,  // measure 80
0003
0000
0000
0000
;

//---------------dance-single - ----------------
#NOTES:
     dance-single:
     :
     Medium:
     9:
     0.440722,0.451436,0.018869,0.773621,0.000000,327.000000,325.000000,2.000000,82.000000,0.000000,0.000000,0.440722,0.451436,0.018869,0.773621,0.000000,327.000000,325.000000,2.000000,82.000000,0.000000,0.000000:
0000
0000
0000
0000
,
0000
0000
0000
0000
,
0000
0000
0000
0000
,
0000
0000
0000
0000
,
0001
0100
1000
0100
,
0001
0100
1000
0100
,
0020
0000
0000
2030
0000
0000
3100
0000
,
0010
0002
2000
3003
,
1000
0100
0001
0100
,
1000
0100
0001
0100
,
0020
0000
0000
0032
0000
0000
1003
0000
,
0010
0100
0001
1000
,
0001
0100
1000
0100
,
0001
0100
1000
0100
,
0020
0000
0000
2030
0000
0000
3100
0000
,
0020
0000
0000
0031
2000
0000
3000
0000
,
0001
0100
0010
0100
,
0001
1000
0100
1000
0010
0000
0100
0001
,
1000
0100
0010
0100
,
1000
0001
0010
0100
2000
0000
3200
0000
,
0310
0000
0001
2000
0000
0000
3010
0000
,
0100
0000
0010
2000
0000
0000
3100
0000
,
0020
0000
0000
0032
0000
0000
1003
0000
,
0020
0000
2030
0000
,
3001
0100
0010
0100
,
0001
1000
0100
1000
0010
0000
0100
0001
,
1000
0100
0010
0100
,
1000
0001
0010
0100
2000
0000
3200
0000
,
0310
0000
0001
2000
0000
0000
3010
0000
,
0100
0000
0010
2000
0000
0000
3100
0000
,
0020
0000
0000
0032
0000
0000
1003
0000
,
0020
0000
0230
0000
,
0301
0000
1000
0000
0001
0010
0001
0000
,
0001
0100
0001
0000
1000
0010
1000
0000
,
0001
0000
0100
0000
0010
1000
0010
0000
,
1000
0100
1000
0000
1000
0010
1000
0000
,
0001
0100
1000
0100
,
0001
0010
0110
0000
,
1000
0100
0001
0100
,
2000
0000
3020
0000
,
1030
0000
0001
0000
1000
0100
1000
0000
,
1000
0010
1000
0000
0001
0100
0001
0000
,
1000
0000
0010
0000
0100
0001
0100
0000
,
0001
0010
0001
0000
0001
0100
0001
0000
,
1000
0100
0001
0100
,
1000
0010
0110
0000
,
0001
0100
1000
0100
,
0002
0000
0023
0000
,
0230
1000
0010
1000
,
0310
0000
0001
1000
0001
0000
0100
0100
,
0020
0100
1000
0100
,
1030
0000
0100
0010
0200
0000
2300
0000
,
3002
0100
1000
0100
,
1003
0000
0100
0010
0100
0000
1000
1000
,
0002
0000
0100
0000
1000
0000
0103
0010
,
0200
0302
0023
0230
,
0320
0001
0100
0001
,
0130
0000
1000
0001
1000
0000
0010
0010
,
0200
0010
0001
0010
,
0301
0000
0010
0100
0020
0000
0032
0000
,
2003
0010
0001
0010
,
3001
0000
0010
0100
0010
0000
0001
0001
,
2000
0000
0010
0000
0001
0000
3010
0100
,
0002
2003
3020
0230
,
0301
0010
1000
0002
,
0203
0000
2300
0000
3020
0000
0130
0001
,
1000
0100
0001
2000
,
3020
0032
2003
3001
,
0001
0100
1000
0002
,
0023
0000
2030
0000
3020
0000
0130
0001
,
1000
0100
0001
2000
,
3020
0032
2003
3001
,
0001
0010
1000
0002
,
0203
0000
2300
0000
3020
0000
0130
0001
,
1000
0100
0001
2000
,
3020
0032
2003
3001
,
0001
0100
1000
0002
,
0023
0000
2030
0000
3020
0000
0130
0001
,
1000
0100
0001
2000
,
3020
0032
2003
3001
;

//---------------dance-single - ----------------
#NOTES:
     dance-single:
     :
     Easy:
     5:
     0.332900,0.338577,0.000000,0.509458,0.000000,247.000000,247.000000,0.000000,54.000000,0.000000,0.000000,0.332900,0.338577,0.000000,0.509458,0.000000,247.000000,247.000000,0.000000,54.000000,0.000000,0.000000:
0000
0000
0000
0000
,
0000
0000
0000
0000
,
0000
0000
0000
0000
,
0000
0000
0000
0000
,
1000
0100
0010
0100
,
1000
0001
0010
0001
,
0200
0000
0000
0320
0000
0000
1030
0000
,
0002
0000
2003
0000
,
3001
0010
0100
0010
,
0001
1000
0010
1000
,
0200
0000
0000
0320
0000
0000
0031
0000
,
1000
0100
0001
0100
,
1000
0010
0100
0010
,
1000
0001
0100
0001
,
0020
0000
0000
0230
0000
0000
1300
0000
,
0002
0000
2003
0000
,
3002
0100
0100
0000
,
1003
0100
0010
0001
,
2000
0100
0100
0000
,
3001
0100
0010
0100
,
0002
0000
0000
0023
0000
0000
0031
0000
,
2000
0000
0000
3020
0000
0000
1030
0000
,
0002
0000
0000
0203
0000
0000
0301
0000
,
1000
0100
0020
0000
,
0032
0100
0100
0000
,
1003
0100
0010
0001
,
2000
0100
0100
0000
,
3001
0100
0010
0100
,
0002
0000
0000
0023
0000
0000
0031
0000
,
2000
0000
0000
3020
0000
0000
1030
0000
,
0002
0000
0000
0203
0000
0000
0301
0000
,
1000
0010
2000
0000
,
3001
0100
1000
0100
,
0010
0100
1000
0100
,
0001
0010
0100
0010
,
0001
1000
0010
1000
,
0001
0010
0100
1000
,
0010
0100
0002
0000
,
1003
0100
0001
0100
,
2000
0000
3020
0000
,
1030
0100
0001
0100
,
0010
0100
0001
0100
,
1000
0010
0100
0010
,
1000
0001
0010
0001
,
1000
0100
0010
0001
,
0010
0100
2000
0000
,
3001
0100
1000
0100
,
0002
0000
0023
0000
,
0032
0000
0000
0000
,
1003
0100
0001
0100
,
2000
0000
0000
0000
,
3010
0100
0001
0010
,
0002
0000
0000
0000
,
1003
0100
0010
0001
,
2000
0000
0000
0000
,
3001
0100
1000
0100
,
0002
0000
0000
0000
,
1003
0100
0001
0100
,
2000
0000
0000
0000
,
3010
0100
0001
0010
,
0002
0000
0000
0000
,
1003
0100
0010
0001
,
2000
0000
0000
0000
,
3001
0100
0010
0100
,
0002
0000
1003
0100
,
0010
0000
0001
0000
2000
0000
0000
0001
,
3002
0000
0103
0010
,
1000
0001
0100
0001
,
0002
0000
1003
0100
,
0010
0000
0001
0000
2000
0000
0000
0001
,
3002
0000
0103
0010
,
1000
0001
0100
0001
,
0002
0000
1003
0100
,
0010
0000
0001
0000
2000
0000
0000
0001
,
3002
0000
0103
0010
,
1000
0001
0100
0001
,
0002
0000
1003
0100
,
0010
0000
0001
0000
2000
0000
0000
0001
,
3002
0000
0103
0010
,
1000
0001
0100
0001
;

//---------------dance-single - ----------------
#NOTES:
     dance-single:
     :
     Beginner:
     3:
     0.172515,0.262512,0.000000,0.207557,0.000000,128.000000,128.000000,0.000000,22.000000,0.000000,0.000000,0.172515,0.262512,0.000000,0.207557,0.000000,128.000000,128.000000,0.000000,22.000000,0.000000,0.000000:
0000
0000
0000
0000
,
0000
0000
0000
0000
,
0000
0000
0000
0000
,
0000
0000
0000
0000
,
1000
0001
1000
0000
,
1000
0001
1000
0000
,
0100
0000
0000
0000
,
0010
0000
0010
0000
,
0001
1000
0001
0000
,
0001
1000
0001
0000
,
0100
0000
0000
0000
,
0010
0000
1000
0000
,
1000
0001
1000
0000
,
1000
0001
1000
0000
,
0100
0000
0000
0000
,
0010
0000
0010
0000
,
0002
0000
0000
0000
,
0103
0000
0010
0000
,
2000
0000
0000
0000
,
3100
0000
0010
0000
,
0001
0000
0001
0000
,
0100
0000
0100
0000
,
0001
0000
0000
0000
,
0010
0000
0100
0000
,
2000
0000
0000
0000
,
3010
0000
0100
0000
,
0002
0000
0000
0000
,
0013
0000
0100
0000
,
1000
0000
1000
0000
,
0010
0000
0010
0000
,
1000
0000
0000
0000
,
0100
0000
0010
0000
,
0001
0000
0001
0000
,
1000
0000
1000
0000
,
0010
0000
0010
0000
,
1000
0000
1000
0000
,
0001
0000
0000
0000
,
0010
0000
0000
0000
,
0100
0000
1000
0000
,
0002
0000
1003
0000
,
0001
0000
0001
0000
,
1000
0000
1000
0000
,
0100
0100
0100
0000
,
1000
0000
1000
0000
,
0001
0000
0000
0000
,
0010
0000
0000
0000
,
0100
0000
1000
0000
,
0002
0000
1003
0000
,
0020
0000
0000
0000
,
0030
0000
0010
0000
,
2000
0000
0000
0000
,
3000
0000
1000
0000
,
0200
0000
0000
0000
,
0300
0000
0001
0000
,
0002
0000
0000
0000
,
0103
0000
1000
0000
,
0020
0000
0000
0000
,
0030
0000
0010
0000
,
2000
0000
0000
0000
,
3000
0000
1000
0000
,
0200
0000
0000
0000
,
0300
0000
0001
0000
,
0002
0000
0000
0000
,
0103
0000
1000
0000
,
0020
0000
0030
0000
,
1000
1000
1000
0000
,
0002
0000
0003
0000
,
1000
0000
1000
0000
,
0200
0000
0300
0000
,
1000
1000
1000
0000
,
0002
0000
0003
0000
,
1000
0000
1000
0000
,
0020
0000
0030
0000
,
0001
0001
0001
0000
,
2000
0000
3000
0000
,
0001
0000
0001
0000
,
0200
0000
0300
0000
,
0001
0001
0001
0000
,
2000
0000
3000
0000
,
0001
0000
0001
0000
;
