#TITLE:THE SAFARI (STARDOM Remix);
#SUBTITLE:;
#ARTIST:Bemani Sound Team "SYUNN";
#TITLETRANSLIT:;
#SUBTITLETRANSLIT:;
#ARTISTTRANSLIT:;
#GENRE:;
#CREDIT:;
#BANNER:THE SAFARI (STARDOM Remix).png;
#BACKGROUND:THE SAFARI (STARDOM Remix)-bg.png;
#LYRICSPATH:;
#CDTITLE:;
#MUSIC:THE SAFARI (STARDOM Remix).ogg;
#OFFSET:-0.674000;
#SAMPLESTART:45.447716;
#SAMPLELENGTH:14.319988;
#SELECTABLE:YES;
#BPMS:0.000000=134.000275
;
#STOPS:
;
#BGCHANGES:;
#KEYSOUNDS:;
#ATTACKS:;

//---------------dance-single - ----------------
#NOTES:
     dance-single:
     :
     Medium:
     9:
     0.388826,0.381495,0.017848,0.472965,0.040157,305.000000,303.000000,2.000000,53.000000,0.000000,0.000000,0.388826,0.381495,0.017848,0.472965,0.040157,305.000000,303.000000,2.000000,53.000000,0.000000,0.000000:
0000
0000
0000
0000
,
0000
0000
0000
0000
,
0000
0000
0000
0000
,
0000
0000
0000
0000
,
0000
0000
0000
0000
,
2000
0000
0100
0000
3001
0100
0010
1000
,
0002
0000
0100
0000
1003
0100
0010
0001
,
2000
0000
0100
0000
3001
0100
0010
0100
,
0002
0023
0230
1300
,
1020
0130
0002
0103
,
0010
1000
0001
1000
0100
0000
0100
0010
,
0002
0013
0200
0310
,
2000
0000
3010
0000
0100
0010
0001
1000
,
0002
0103
0020
0130
,
0001
0010
0100
1000
0200
0000
1300
0000
,
0020
0130
0002
0103
,
2000
0000
3100
0000
0010
1000
0002
0000
,
1003
0000
0000
0100
0000
0000
0010
0000
0000
0100
0000
0000
1000
0000
0010
0000
,
0100
0000
0000
0001
0000
0000
0010
0000
0000
0001
0000
0000
0100
0000
0001
0000
,
1000
0000
0000
0100
0000
0000
0010
0000
0000
0001
0000
0000
1000
0000
0100
0000
,
0010
0000
0100
0000
0000
1000
0000
0010
0000
1000
0000
0000
0001
0000
0010
0000
,
0001
0100
0001
0000
1000
0100
1000
0000
,
0001
0010
0001
0010
0100
1000
0100
0000
,
1000
0010
1000
0000
0001
0010
0001
0000
,
0200
0000
0010
0310
,
1000
0002
0023
0230
,
1300
0001
1000
0010
0000
0100
0001
0010
,
0200
1300
0020
1030
,
0001
0010
0001
0010
0001
1000
0001
0000
,
0100
0002
0023
0230
,
1300
0001
1000
0010
0000
0100
0001
0010
,
0002
0103
2000
3100
,
0002
0000
0023
0000
0032
0000
1003
0010
,
2000
0000
3001
0001
0010
0010
0100
0000
,
1000
0001
1000
0010
0000
0100
0001
0010
,
0200
1300
0020
1030
,
0001
0100
0001
0100
0001
1000
0001
0000
,
1000
0100
0010
0010
0100
0100
1000
0000
,
0001
1000
0001
0010
0000
0100
1000
0010
,
2000
3100
0002
0103
,
1000
0000
1000
0000
1000
0100
0010
0001
,
2000
0100
3100
0000
1000
0100
1000
0010
,
0200
0001
0301
0000
0100
0001
0100
0010
,
2000
0100
3100
0000
0010
0001
0010
0100
,
1000
0000
0010
0000
0100
0001
0100
0000
,
0002
0100
0103
0000
0001
0100
0001
0010
,
0200
1000
1300
0000
0100
1000
0100
0010
,
0002
0100
0103
0000
0010
1000
0010
0100
,
0002
0013
0200
2300
,
3001
0010
0002
0000
0103
0010
1000
0001
,
1000
0100
2000
0000
3010
0100
0001
1000
,
0002
0010
0013
0000
0001
0100
1000
0100
,
0002
0000
0013
0000
0100
1000
0100
0000
,
0001
0100
0002
0000
0013
0100
1000
0001
,
1000
0100
2000
0000
3010
0100
0001
0010
,
0002
0100
0103
0000
0010
1000
0100
0001
,
0100
0000
0010
0000
0100
1000
0010
0000
,
0101
0000
0000
0000
;

//---------------dance-single - ----------------
#NOTES:
     dance-single:
     :
     Easy:
     6:
     0.314885,0.330629,0.062467,0.365879,0.008924,247.000000,240.000000,7.000000,41.000000,0.000000,0.000000,0.314885,0.330629,0.062467,0.365879,0.008924,247.000000,240.000000,7.000000,41.000000,0.000000,0.000000:
0000
0000
0000
0000
,
0000
0000
0000
0000
,
0000
0000
0000
0000
,
0000
0000
0000
0000
,
0000
0000
0000
0000
,
1000
0010
1000
0100
,
0001
0010
0001
0100
,
0010
1000
0010
0000
0100
0001
0100
0000
,
0001
0010
0100
1000
,
0002
0203
2300
3200
,
0301
0000
1000
0000
0001
0000
0000
0100
0000
0000
0000
0000
0010
0000
0000
0000
,
2000
3200
0302
0203
,
1300
0000
0001
0000
1000
0000
0000
0100
0000
0000
0000
0000
0010
0000
0000
0000
,
0001
0001
0100
0100
,
0010
1000
0010
0000
1000
0000
0001
0000
,
1000
1000
0100
0100
,
0010
0001
0010
0000
0001
1000
0010
0000
,
0200
0301
1000
0010
,
0200
0000
0301
0000
1000
0000
0010
1000
,
0002
0013
0100
1000
,
0002
0000
0013
0000
0100
0000
1000
0001
,
0100
0100
0010
0010
,
0100
0001
0100
0000
0010
1000
0010
0000
,
1000
0000
0100
0000
0010
0001
1000
0001
,
0200
0000
0010
0310
,
1000
0020
2030
3200
,
0310
0001
0010
0000
0100
0000
1100
0000
,
0002
0103
2000
3100
,
0001
0000
1000
0000
0010
0100
0001
0000
,
2000
3020
2030
3200
,
0310
0001
0010
0000
0100
0000
1100
0000
,
0002
0013
2000
3010
,
0001
0000
0100
0000
0010
0000
1000
0100
,
2000
0000
3010
0000
0100
0001
0100
0000
,
0001
0011
0100
1100
,
0002
0103
2000
3100
,
0001
1000
0001
0000
0010
0000
0011
0000
,
2000
0000
3010
0000
0100
0001
0100
0000
,
0001
0011
0100
1100
,
0002
0013
0200
1300
,
0010
0000
0010
0000
0010
0000
0100
0001
,
1000
0000
0100
0000
0010
0001
0010
0000
,
0001
0000
0100
0000
0010
1000
0010
0000
,
2000
3100
0010
0010
,
0002
0000
0103
0000
0010
1000
0010
0000
,
1000
0000
0100
0000
0010
0001
0010
0000
,
0001
0000
0100
0000
0010
1000
0010
0000
,
2000
3100
0010
0010
,
0002
0203
0320
2030
,
3001
0000
0010
0000
0001
0100
0001
0000
,
1000
0000
0010
0000
1000
0100
1000
0000
,
0020
0100
1000
0130
,
0002
0000
0010
0000
1003
0100
1000
0000
,
0001
0000
0010
0000
0001
0100
0001
0000
,
1000
0000
0010
0000
1000
0100
1000
0000
,
0020
0100
1000
0130
,
0002
0000
0010
0000
1003
0100
0010
0000
,
0100
0000
0000
0000
;

//---------------dance-single - ----------------
#NOTES:
     dance-single:
     :
     Beginner:
     2:
     0.152981,0.178031,0.000000,0.000000,0.000000,120.000000,120.000000,0.000000,0.000000,0.000000,0.000000,0.152981,0.178031,0.000000,0.000000,0.000000,120.000000,120.000000,0.000000,0.000000,0.000000,0.000000:
0000
0000
0000
0000
,
0000
0000
0000
0000
,
0000
0000
0000
0000
,
0000
0000
0000
0000
,
0000
0000
0000
0000
,
0001
0000
0000
0010
,
0001
0000
0000
1000
,
0010
0000
0000
0100
,
0001
0000
1000
0000
,
0001
0001
0001
0000
,
0010
0000
0100
0000
,
1000
1000
1000
0000
,
0010
0000
0100
0000
,
0001
0100
0001
0000
,
1000
0000
0001
0000
,
1000
0100
1000
0000
,
0010
0000
0100
0000
,
0001
0000
0000
0000
,
0010
0000
0000
0000
,
1000
0000
0000
0000
,
0010
0000
0000
0000
,
0001
0000
0001
0000
,
0100
0000
0100
0000
,
0010
0000
1000
0000
,
0001
0000
0000
0000
,
1000
0100
1000
0000
,
0010
0000
0010
0000
,
0100
0000
0001
0000
,
0100
0100
0100
0000
,
0001
0010
0001
0000
,
0100
0000
0100
0000
,
0010
0000
1000
0000
,
0010
1000
0001
0000
,
1000
1000
0100
0000
,
0010
0000
0001
0000
,
0100
0000
0010
0000
,
0100
0100
0100
0000
,
0001
0001
0010
0000
,
0100
0000
1000
0000
,
0010
0000
0100
0000
,
0010
0010
0010
0000
,
1000
0000
0001
0000
,
1000
0000
0100
0000
,
1000
0000
0001
0000
,
1000
1000
1000
0000
,
0001
0000
1000
0000
,
0001
0000
0010
0000
,
0001
0000
1000
0000
,
0001
1000
0001
0000
,
0100
0000
0010
0010
,
0010
0000
1000
1000
,
1000
0000
0100
0100
,
0100
0000
0010
0000
,
0100
0000
1000
1000
,
1000
0000
0010
0010
,
0010
0000
0100
0100
,
0100
0000
0001
0000
,
1000
0000
0000
0000
;

//---------------dance-single - ----------------
#NOTES:
     dance-single:
     :
     Hard:
     13:
     0.559654,0.686692,0.160630,0.490813,0.423884,439.000000,421.000000,18.000000,55.000000,0.000000,0.000000,0.559654,0.686692,0.160630,0.490813,0.423884,439.000000,421.000000,18.000000,55.000000,0.000000,0.000000:
// measure 0
0000
0000
0000
0000
,  // measure 1
0000
0000
0000
0000
,  // measure 2
0000
0000
0000
0000
,  // measure 3
0000
0000
0000
0000
,  // measure 4
0000
0000
0000
0000
,  // measure 5
1000
0000
0000
1000
0100
0000
0010
0001
1000
0001
0000
0001
0100
0000
0010
1000
,  // measure 6
0001
0000
0010
0001
1000
0000
0010
0100
0001
0100
0000
0100
0010
0000
1000
0001
,  // measure 7
0100
0000
0001
1000
0100
0000
0010
0100
1000
0100
0000
0100
0010
0000
0001
1000
,  // measure 8
0010
0100
0010
0100
0001
1000
0001
1000
0100
0000
0010
0000
1001
0000
0010
0000
,  // measure 9
1200
0000
0010
0000
1300
0010
0100
0001
,  // measure 10
0010
0000
0010
0000
0010
0000
0100
2000
0000
0000
3010
0000
0100
0000
0010
0000
,  // measure 11
2000
0000
0000
0000
3100
0000
0010
0001
0200
0000
0000
0000
0310
0000
1000
0000
,  // measure 12
0002
0000
0013
0100
1000
0010
0001
0010
,  // measure 13
2000
0000
3010
0100
0001
0100
0010
1000
,  // measure 14
0001
0000
0001
0000
0001
0000
0010
0200
0000
0000
1300
0000
0100
0000
0010
0000
,  // measure 15
0002
0000
0000
0000
1003
0000
0010
1000
0200
0000
0000
0000
0310
0000
0001
0000
,  // measure 16
2000
0000
3010
0100
0001
0100
0010
0000
,  // measure 17
2100
0000
0000
0001
0000
0000
0010
0000
0000
0001
0000
0000
3100
0000
0010
0000
,  // measure 18
0002
0000
0000
0203
0000
0000
0320
0000
0000
1030
0100
0010
0001
0010
0100
1000
,  // measure 19
0002
0000
0000
1000
0000
0000
0010
0000
0000
1000
0000
0000
0103
0000
0010
0000
,  // measure 20
1000
0000
0200
0000
0000
0320
0000
0031
0000
1000
0000
0000
0010
0000
0100
0000
,  // measure 21
0001
1000
0001
1000
0010
0100
0010
0100
,  // measure 22
0001
0010
0001
0010
1000
0010
1000
0010
,  // measure 23
0100
1000
0100
1000
0001
0100
0001
0100
0010
1000
0100
0010
0001
0010
0100
1000
,  // measure 24
0002
0000
0000
0000
0000
0000
0000
0000
0103
0000
0000
0010
1000
0000
0010
1000
,  // measure 25
0001
0021
0230
2300
,  // measure 26
3001
0000
0100
0001
0000
0000
0010
0000
0000
0100
0000
2000
0000
0000
0000
3010
0000
0000
0100
0000
0000
0001
0000
0000
,  // measure 27
1000
0200
0000
0000
0310
0000
0000
0000
0001
0200
0000
0000
0310
0000
0000
0000
,  // measure 28
0010
0000
1000
0000
0000
1000
0001
0000
1000
0000
0000
1000
0100
0000
0000
0010
0000
0000
0012
0000
0000
0000
0000
0000
,  // measure 29
1003
1200
0320
0032
,  // measure 30
1003
0000
0100
1000
0000
0000
0010
0000
0000
0100
0000
0002
0000
0000
0000
1003
0000
0000
0100
0000
0000
0010
0000
0000
,  // measure 31
0001
0200
0000
0000
0310
0000
0000
0000
1000
0200
0000
0000
0310
0000
0000
0000
,  // measure 32
0002
0000
0000
0000
0203
0000
0000
0000
0320
0000
0000
0000
1030
0010
0100
0001
,  // measure 33
1000
0001
0011
0010
0110
0100
2100
0000
,  // measure 34
3001
0000
0100
0001
0000
0000
1000
0000
0000
0010
0000
2000
0000
0000
0000
3100
0000
0000
0010
0000
0000
0001
0000
0000
,  // measure 35
0100
0020
0000
0000
1030
0000
1000
0000
0100
0020
0000
0000
0031
0000
0001
0000
,  // measure 36
0010
0000
0001
0000
0000
0001
1000
0000
0001
0000
0000
0001
0100
0000
0000
0010
0000
0000
0210
0000
0000
0000
0000
0000
,  // measure 37
0301
1000
1010
0010
0110
0100
0102
0000
,  // measure 38
1003
0000
0000
0000
0100
0000
1000
0000
0000
0000
0000
0000
0001
0000
0000
0000
0000
0000
0010
0000
0000
0000
0002
0000
0000
0000
0000
0000
0000
0000
0103
0000
0000
0000
0000
0000
0010
0000
0000
0000
0000
0000
0100
0000
0000
0001
0000
0000
,  // measure 39
1000
0002
0000
0000
0103
0000
0100
0000
0001
2000
0000
0000
3100
0000
1000
0000
,  // measure 40
1002
0000
0023
0000
0130
1000
1001
0001
,  // measure 41
1000
0100
0001
0100
1000
0010
0100
0010
,  // measure 42
1000
0000
0000
0001
0000
0000
1000
0000
0000
1000
0000
0020
0000
0000
0000
0130
0000
0000
0001
0000
0000
0010
0000
0000
,  // measure 43
0001
0100
1000
0100
0001
0010
0001
1000
,  // measure 44
0001
0000
1000
0000
0000
1000
0010
0000
1000
0000
0000
1000
0001
0000
0000
0010
0000
0000
0012
0000
0000
0000
0000
0000
,  // measure 45
1003
0010
0001
0010
1000
0100
0010
0100
,  // measure 46
1000
0000
0000
0001
0000
0000
1000
0000
0000
1000
0000
0020
0000
0000
0000
0130
0000
0000
0001
0000
0000
1000
0000
0000
,  // measure 47
0001
0010
1000
0010
0001
0100
0010
0100
,  // measure 48
0002
0023
0230
2300
,  // measure 49
3001
0000
0000
0100
0000
0000
0010
0000
1000
0000
0000
1000
0010
0000
0000
0100
0000
0000
0001
0000
0000
1000
0000
0000
,  // measure 50
0001
0000
0000
0010
0000
0000
0100
0000
1000
0000
0000
1000
0100
0000
0000
0010
0000
0000
0001
0000
0000
1000
0000
0000
,  // measure 51
0001
0000
0000
0100
0000
0000
0010
0000
1000
0000
0000
1000
0010
0000
0000
0100
0000
0000
0001
0000
0000
0010
0000
0000
,  // measure 52
0100
0000
1000
0000
0000
1000
0001
0000
1000
0000
0000
1000
0010
0000
0000
0100
0000
0000
0120
0000
0000
0000
0000
0000
,  // measure 53
1030
0000
0000
0100
0000
0000
0010
0000
0001
0000
0000
0001
0010
0000
0000
0100
0000
0000
1000
0000
0000
0001
0000
0000
,  // measure 54
1000
0000
0000
0010
0000
0000
0100
0000
0001
0000
0000
0001
0100
0000
0000
0010
0000
0000
1000
0000
0000
0001
0000
0000
,  // measure 55
1000
0000
0000
0100
0000
0000
0010
0000
0001
0000
0000
0001
0010
0000
0000
0100
0000
0000
1000
0000
0000
0010
0000
0000
,  // measure 56
0100
0000
0000
0100
0000
0000
0001
0000
0000
0001
0000
0010
0100
0000
0000
0020
0000
0000
0002
0000
0000
0033
0000
0000
,  // measure 57
1100
0000
0000
0000
;
