#TITLE:Raw Crawler;
#SUBTITLE:;
#ARTIST:Masayoshi Iimori;
#TITLETRANSLIT:;
#SUBTITLETRANSLIT:;
#ARTISTTRANSLIT:;
#GENRE:;
#CREDIT:;
#BANNER:Raw Crawler.png;
#BACKGROUND:Raw Crawler-bg.png;
#LYRICSPATH:;
#CDTITLE:;
#MUSIC:Raw Crawler.ogg;
#OFFSET:-0.076000;
#SAMPLESTART:16.047386;
#SAMPLELENGTH:12.800018;
#SELECTABLE:YES;
#BPMS:0.000000=150.000000
;
#STOPS:
;
#BGCHANGES:;
#KEYSOUNDS:;
#ATTACKS:;

//---------------dance-single - ----------------
#NOTES:
     dance-single:
     :
     Hard:
     15:
     0.668764,0.951179,0.457202,0.129209,0.735499,471.000000,425.000000,46.000000,13.000000,0.000000,0.000000,0.668764,0.951179,0.457202,0.129209,0.735499,471.000000,425.000000,46.000000,13.000000,0.000000,0.000000:
0000
0000
0000
0000
,
0000
0000
0000
0000
,
0001
0100
1000
0100
,
0001
0100
1000
0100
,
0001
0010
1000
0010
,
0001
0010
1000
0010
,
0001
0100
0010
1000
0100
0010
0001
1000
,
0001
0100
0001
0100
0010
1000
0010
1000
0001
0010
0001
0010
0100
1000
0100
1000
,
0000
0200
0002
0303
,
1000
0000
1000
0000
0010
0000
1000
0100
0010
0001
0010
0100
1000
0000
0000
0000
,
0101
0101
1100
1100
,
0101
0000
1100
0000
0110
0000
0100
1000
,
0011
0011
1010
1010
,
1001
0000
0000
0000
0110
0000
0000
0000
0001
0010
0100
1000
0001
0000
0010
0000
,
0101
1100
0101
1100
,
0110
0000
0000
0000
1001
0000
0000
0000
0110
0000
0000
0000
0002
0003
0000
0000
,
1010
0000
0000
0000
0101
0000
0000
0000
1010
0000
0000
0000
0200
0300
0000
0000
,
1000
0100
0010
0001
0100
0010
0000
0000
,
1000
0100
1000
0000
0001
0100
0001
0000
1000
0010
1000
0000
0001
0010
0001
0000
,
0100
0000
0000
0010
0000
0000
0100
0000
0000
0000
0000
0000
0001
0000
0000
0010
0000
0000
0001
0000
0000
0000
0000
0000
0100
0000
0000
0010
0000
0000
0100
0000
0000
0000
0000
0000
0001
0000
0000
0000
0010
0000
0000
0000
0100
0000
0000
0000
,
1000
0000
0000
0000
0000
0000
0000
0000
0010
0100
1000
0100
0010
0100
1000
0100
,
0010
0100
1000
0100
0010
0100
1000
0100
0010
0000
0000
0000
0001
0000
1000
0000
,
0001
0100
0010
0100
0002
0000
0000
0000
0013
0000
0000
0000
1100
0000
0000
0000
,
0001
0100
1000
0010
0001
0100
0110
0000
,
0101
0000
0000
0000
0000
0000
0000
0000
0010
0100
0001
0100
0010
0100
0001
0100
,
0010
0000
0000
1010
0000
0000
1001
0000
0000
1100
0000
0000
0011
0000
0000
0000
,
0101
0000
0100
0000
,
0100
0000
0100
0000
,
0110
0000
0100
0000
,
0100
0000
0100
0000
,
1100
0000
0100
0000
,
0100
0000
0100
0000
,
0110
0000
0100
0000
,
0100
0000
0100
0000
,
0101
0001
1100
1000
,
0011
0001
1010
1000
,
0101
0001
0110
0100
,
1010
1000
0110
0100
,
0001
0010
1000
0010
0001
0100
1000
0100
,
0001
0010
0001
0010
0100
1000
0100
1000
0001
0100
0001
0100
0010
1000
0010
1000
,
0001
0010
0100
1000
0010
0100
0001
0010
0100
1000
0010
0100
0001
0010
0100
1000
,
0001
0000
0001
0000
0010
0000
0001
0100
1000
0100
0001
1000
0010
0000
0000
0000
,
1010
0000
0000
0000
0001
0100
0010
1000
0001
0100
0010
1000
0001
0100
0010
1000
,
0001
0100
0010
1000
0001
0100
0010
1000
0001
0100
0010
1000
0001
0000
0000
0000
,
1000
0100
0010
0001
1000
0100
0010
0001
1000
0100
0010
0001
1000
0100
0010
0001
,
1000
0100
0010
0001
1000
0100
0010
0001
0010
0000
0000
0010
0000
0001
0100
0010
,
1000
0000
0000
0000
0001
0100
0010
1000
0001
1000
0010
0100
0001
0100
0010
1000
,
0001
1000
0010
0100
0001
0100
0010
1000
0001
1000
0010
0100
0001
0000
0000
0000
,
1000
0100
0010
0001
1000
0001
0010
0100
1000
0100
0010
0001
1000
0000
0000
0000
,
0001
0000
0010
0000
0100
1000
0100
0000
0020
0000
0002
0000
0000
0000
0033
0000
,
0011
0000
0000
0001
0100
0010
1000
0100
0010
0001
0100
0010
,
1000
0100
0010
0001
0100
0010
1000
0100
0010
0001
0000
0000
,
1100
0000
0000
0001
0100
1000
0001
0010
1000
0001
0100
1000
,
0001
0010
1000
0001
0100
1000
0001
0000
0000
0010
1000
0100
,
0110
0000
0010
0001
0010
0100
0001
0100
1000
0001
0100
0010
,
0001
0010
1000
0001
0010
0001
1000
0010
1000
0001
0000
0000
,
1000
0100
0010
0001
0100
0010
1000
0100
0010
0001
0100
0010
,
2000
3020
2030
3200
0320
0032
0000
0000
,
0003
0000
0000
0000
;

//---------------dance-single - ----------------
#NOTES:
     dance-single:
     :
     Medium:
     11:
     0.467141,0.547648,0.159027,0.159027,0.124240,329.000000,313.000000,16.000000,16.000000,0.000000,0.000000,0.467141,0.547648,0.159027,0.159027,0.124240,329.000000,313.000000,16.000000,16.000000,0.000000,0.000000:
// measure 0
0000
0000
0000
0000
,  // measure 1
0000
0000
0000
0000
,  // measure 2
1000
0010
0100
0001
,  // measure 3
1000
0010
0100
0001
,  // measure 4
1000
0100
0010
0001
,  // measure 5
1000
0100
0010
0001
,  // measure 6
1000
0010
1000
0010
0100
0010
0100
0010
,  // measure 7
0100
0001
1000
0001
0010
0100
1000
0010
,  // measure 8
0100
0002
2000
3003
,  // measure 9
0010
1000
0010
1000
0001
0100
0010
0000
,  // measure 10
1000
0100
0010
0100
1000
0100
0010
0100
,  // measure 11
1000
0100
0010
0100
1000
0000
0010
0100
,  // measure 12
0001
0010
0100
0010
0001
0010
0100
0010
,  // measure 13
0001
0010
0100
0010
0002
0000
0023
0000
,  // measure 14
0130
1000
0001
1000
0100
1000
0001
1000
,  // measure 15
0100
1000
0001
1000
0100
0000
0020
0000
,  // measure 16
0031
0100
0010
0100
0001
0000
2000
0000
,  // measure 17
3100
0010
0001
0010
0100
1000
0001
0000
,  // measure 18
0100
1000
0100
0001
0100
1000
0100
0001
,  // measure 19
0100
0000
0000
0010
0000
0000
1000
0000
0000
0100
0000
0000
0010
0000
0000
0001
0000
0000
0100
0000
0010
0000
0100
0000
,  // measure 20
0002
0003
0000
0000
1000
0100
1000
0100
,  // measure 21
0010
0001
0100
0001
0010
0000
0001
0000
,  // measure 22
1000
2000
0020
0000
3030
0000
0100
0000
,  // measure 23
0001
0010
0100
0010
0001
1000
0010
0000
,  // measure 24
0101
0000
0000
0000
0001
0100
0001
0100
,  // measure 25
0010
0000
0000
1010
0000
0000
1100
0000
0000
0110
0000
0000
0001
0000
0000
0000
,  // measure 26
0101
0000
1000
0000
,  // measure 27
0001
0000
1000
0000
,  // measure 28
0101
0000
1000
0000
,  // measure 29
0001
0200
2000
3300
,  // measure 30
0110
0000
0001
0000
,  // measure 31
1000
0000
0001
0000
,  // measure 32
1010
0000
0001
0000
,  // measure 33
1000
0000
0001
0000
,  // measure 34
0102
1000
0010
1000
,  // measure 35
0100
1000
0010
0013
,  // measure 36
0200
1000
0010
1000
,  // measure 37
0001
1000
0010
0310
,  // measure 38
0001
0010
0001
0010
0001
1000
0001
1000
,  // measure 39
0001
0100
0001
0100
0010
1000
0010
1000
,  // measure 40
0001
0010
0100
0010
0001
1000
0001
0100
,  // measure 41
0010
0000
0000
1000
,  // measure 42
0011
0000
0100
1000
0010
1000
0001
1000
,  // measure 43
0100
0000
0010
0001
0100
0001
0010
0000
,  // measure 44
1001
0000
0100
0001
0010
0001
1000
0001
,  // measure 45
0100
0000
0000
0000
0010
0000
1000
0000
0100
0000
0000
0100
0000
0000
1000
0000
,  // measure 46
0001
0000
0101
0001
1000
0100
0010
0010
,  // measure 47
0001
0100
0010
0010
1000
0100
0020
0000
,  // measure 48
0031
0010
0001
0010
0100
0010
0001
0000
,  // measure 49
1000
0010
0100
0001
0100
0020
0000
0000
,  // measure 50
1030
1100
0001
0101
,  // measure 51
0010
0000
0010
1000
0000
1000
0001
0000
0001
0100
0000
0000
,  // measure 52
0001
0101
1000
1100
,  // measure 53
0001
0000
0001
0010
0000
0010
0100
0000
0000
1000
0100
1000
,  // measure 54
0001
0000
0001
0100
0000
0100
0010
0000
0010
1000
0000
1000
,  // measure 55
0001
0000
0001
1000
0000
1000
0100
0000
0100
0010
0000
0000
,  // measure 56
0001
0100
0001
1000
0100
1000
0001
0100
0001
1000
0000
0000
,  // measure 57
0001
0010
0100
1000
0010
0200
0000
0000
,  // measure 58
0300
0000
0000
0000
;

//---------------dance-single - ----------------
#NOTES:
     dance-single:
     :
     Easy:
     6:
     0.332252,0.400921,0.188844,0.387628,0.014909,234.000000,215.000000,19.000000,39.000000,0.000000,0.000000,0.332252,0.400921,0.188844,0.387628,0.014909,234.000000,215.000000,19.000000,39.000000,0.000000,0.000000:
// measure 0
0000
0000
0000
0000
,  // measure 1
0000
0000
0000
0000
,  // measure 2
2000
3100
0200
0310
,  // measure 3
0020
0031
0002
1003
,  // measure 4
2000
3001
0002
0103
,  // measure 5
0200
0310
0020
1030
,  // measure 6
0001
0010
0001
0000
1000
0001
1000
0000
,  // measure 7
0001
0100
0001
0000
0010
0000
0100
0000
,  // measure 8
0000
2000
0002
3003
,  // measure 9
0100
0001
0100
0000
0010
0000
1000
0000
,  // measure 10
0001
0001
0010
0010
,  // measure 11
0001
0000
0100
0000
0101
0000
0010
0100
,  // measure 12
1000
1000
0010
0010
,  // measure 13
1000
0100
1100
0000
,  // measure 14
0010
0010
0001
1000
,  // measure 15
0010
0100
0110
0000
,  // measure 16
0101
1100
0101
0000
,  // measure 17
0001
0100
0001
1000
0100
0100
0000
0000
,  // measure 18
0010
0020
0031
0002
,  // measure 19
0103
0200
0310
0020
,  // measure 20
2000
0000
3030
0000
0001
0100
0001
0000
,  // measure 21
0010
1100
0010
0000
,  // measure 22
1000
0100
2000
0000
0000
0000
3001
0000
,  // measure 23
0000
0101
1010
0002
,  // measure 24
2000
0000
3003
0000
1000
0100
1000
0000
,  // measure 25
0020
0000
0000
1000
0000
0000
0230
0000
0000
0001
0000
0000
0310
0000
0000
0000
,  // measure 26
0100
0000
0001
0000
,  // measure 27
1000
0000
0001
0000
,  // measure 28
0110
0000
1000
0000
,  // measure 29
0001
0000
1000
0000
,  // measure 30
1100
0000
0001
0000
,  // measure 31
0010
0000
0100
0000
,  // measure 32
1001
0000
0010
0000
,  // measure 33
0100
0000
1000
0000
,  // measure 34
0002
0103
0200
1300
,  // measure 35
2000
3010
0020
0031
,  // measure 36
0002
0013
0020
1030
,  // measure 37
2000
3100
0200
0301
,  // measure 38
0001
0010
0001
0000
1000
0010
1000
0000
,  // measure 39
0100
0100
0010
0010
,  // measure 40
0001
1000
0001
1000
0010
0100
0010
0000
,  // measure 41
1000
0000
0000
0010
,  // measure 42
1010
0000
1000
0000
0100
0010
0100
0000
,  // measure 43
1000
0000
0010
0000
0100
0001
0000
0000
,  // measure 44
0101
0000
0001
0000
0010
0100
0010
0000
,  // measure 45
0001
0000
0000
0000
1000
0000
0000
0000
0010
0000
0000
0010
0000
0000
0100
0000
,  // measure 46
0001
0000
1010
0000
1000
0100
1000
0000
,  // measure 47
0001
0000
0011
0000
0001
0100
0001
0000
,  // measure 48
1000
1100
0001
0101
,  // measure 49
0020
0000
0230
1300
,  // measure 50
0001
0100
1000
0100
,  // measure 51
0001
0100
1000
0100
,  // measure 52
1001
0010
1000
0010
,  // measure 53
0001
0010
1000
0020
,  // measure 54
0130
0200
0302
0023
,  // measure 55
0230
2300
3020
0230
,  // measure 56
0302
0000
0000
0000
,  // measure 57
0013
0100
1000
0100
0010
0001
0000
0000
;

//---------------dance-single - ----------------
#NOTES:
     dance-single:
     :
     Beginner:
     4:
     0.241380,0.285751,0.059635,0.009939,0.000000,170.000000,164.000000,6.000000,1.000000,0.000000,0.000000,0.241380,0.285751,0.059635,0.009939,0.000000,170.000000,164.000000,6.000000,1.000000,0.000000,0.000000:
0000
0000
0000
0000
,
0000
0000
0000
0000
,
0010
1000
0010
1000
,
0010
1000
0010
1000
,
0001
0010
0001
0010
,
0001
0010
0001
0000
,
1000
0001
1000
0001
,
0010
0100
0010
0010
,
0000
0001
0001
0000
,
1000
1000
0010
1000
,
0001
0001
0001
0001
,
0001
0001
0001
0000
,
0100
0100
0100
0100
,
0100
0100
0020
0000
,
1030
1000
1000
1000
,
1000
1000
1000
0000
,
0010
0010
0010
0000
,
0100
0001
1000
0000
,
0100
1000
0100
1000
,
0100
1000
0100
0000
,
0010
0000
0001
0001
,
1000
0010
1000
0000
,
0010
0100
0010
0000
,
1000
0100
1000
0000
,
0001
0000
0010
0000
,
0001
0000
0000
0000
,
1001
0000
0000
0000
,
0000
0000
0000
0000
,
0101
0000
0000
0000
,
0000
0000
0000
0000
,
1100
0000
0000
0000
,
0000
0000
0000
0000
,
0101
0000
0000
0000
,
0000
0000
0000
0000
,
1100
1000
0001
0001
,
1000
1000
0001
0001
,
0100
0100
0010
0010
,
0100
0100
0010
0010
,
1000
0100
1000
0000
,
0001
0100
0001
0000
,
0010
0010
0100
0100
,
0110
0000
0000
0000
,
0001
1000
1000
1000
,
0010
1000
1000
1000
,
0000
0001
0001
0001
,
0010
0001
0001
0000
,
1000
0100
0010
0000
,
0100
0010
0001
0000
,
1000
1000
0010
0010
,
1000
0000
0100
0000
,
0010
0001
0001
0001
,
0100
0010
0100
0000
,
0010
1000
1000
1000
,
0100
0010
0100
0000
,
1000
0010
1000
0010
,
0100
0001
0100
0100
,
0001
0010
0100
1000
,
0100
0010
0001
0000
;
