#TITLE:Party Jumpin';
#SUBTITLE:;
#ARTIST:KO3;
#TITLETRANSLIT:;
#SUBTITLETRANSLIT:;
#ARTISTTRANSLIT:;
#GENRE:;
#CREDIT:;
#BANNER:Party Jumpin'.png;
#BACKGROUND:Party Jumpin'-bg.png;
#LYRICSPATH:;
#CDTITLE:;
#MUSIC:Party Jumpin'.ogg;
#OFFSET:-0.093000;
#SAMPLESTART:43.567757;
#SAMPLELENGTH:13.899998;
#SELECTABLE:YES;
#BPMS:0.000000=138.000000
;
#STOPS:
;
#BGCHANGES:;
#KEYSOUNDS:;
#ATTACKS:;

//---------------dance-single - ----------------
#NOTES:
     dance-single:
     :
     Hard:
     14:
     0.688779,0.735931,0.217635,0.418529,0.786835,576.000000,550.000000,26.000000,50.000000,0.000000,0.000000,0.688779,0.735931,0.217635,0.418529,0.786835,576.000000,550.000000,26.000000,50.000000,0.000000,0.000000:
// measure 0
0000
0000
0000
0000
,  // measure 1
0000
0000
0000
0000
,  // measure 2
0000
0000
0000
0000
,  // measure 3
0000
0000
0000
0000
,  // measure 4
0000
0000
0000
0000
,  // measure 5
1000
0000
1000
0000
0020
0000
0000
0000
0030
0000
0100
0000
0000
0001
0000
0000
,  // measure 6
2000
3010
0200
0301
,  // measure 7
0001
0000
0001
0000
0020
0000
0000
0000
0000
0000
0130
0000
0000
1000
0000
0000
,  // measure 8
0001
0000
0020
0000
0130
1000
1010
0000
,  // measure 9
0100
0001
0100
0000
0020
0000
0000
0000
1000
0000
0000
0000
0130
0000
0001
1000
,  // measure 10
0010
0000
0100
0000
0001
0000
0100
0000
0010
0000
1000
0000
0001
0010
0001
0000
,  // measure 11
1000
0100
1000
0000
0020
0000
0000
0000
0100
0000
0000
0000
1030
0000
0001
1000
,  // measure 12
0100
0000
0010
0000
0001
0000
0010
0000
0100
0000
1000
0000
0001
0010
0001
0000
,  // measure 13
0100
0001
0100
0000
0020
0000
0000
0000
1000
0000
0000
0000
0130
0000
0001
1000
,  // measure 14
0010
0000
0100
0000
0001
0000
0100
0000
0010
0000
1000
0000
0001
0010
0001
0000
,  // measure 15
1000
0100
1000
0000
0020
0000
0000
0000
0100
0000
0000
0000
1030
0000
0001
1000
,  // measure 16
0100
0000
0010
0000
0001
1000
0001
0000
0000
0000
1000
0100
0010
0000
0100
0000
,  // measure 17
1000
0000
0001
0100
0000
0010
1000
0000
0001
0100
0000
0010
1000
0000
0001
0100
,  // measure 18
0000
0010
1000
0000
0001
0100
0000
0010
1000
0000
0001
0100
0000
0010
1000
0000
,  // measure 19
1000
0100
0000
0010
0001
0000
1000
0100
0000
0010
0001
0000
1000
0100
0000
0010
,  // measure 20
0001
0000
1000
0100
0000
0010
0001
0000
1000
0100
0000
0010
0001
1000
0001
0000
,  // measure 21
0100
0100
0010
0010
1000
1000
0100
0100
,  // measure 22
0001
0001
0100
0100
0010
0010
0001
0001
,  // measure 23
1000
0000
0010
1000
0000
0010
0100
0000
0001
0100
0000
0001
1000
0000
0100
1000
0000
0100
0010
0000
0001
0010
0000
0001
,  // measure 24
2000
3020
0230
0302
2003
3200
0320
0030
,  // measure 25
1001
0020
0230
0302
,  // measure 26
1003
0100
1000
0000
0001
0100
0010
1000
0000
0100
0000
1000
0000
0000
1010
0000
,  // measure 27
0001
0100
0001
0000
1000
0100
0010
0001
0000
0100
0000
0001
0000
0000
0110
0000
,  // measure 28
2000
0001
0000
0000
3001
0100
0010
1000
0000
0100
0000
1000
0000
0000
0011
0000
,  // measure 29
0200
0000
0000
0000
1300
0010
1000
0000
0010
0100
0010
0000
0100
0001
0100
0000
,  // measure 30
0001
0100
0001
0000
1000
0100
0010
0001
0000
0100
0000
0001
0000
0000
0011
0000
,  // measure 31
1000
0100
1000
0000
0001
0100
0010
1000
0000
0100
0000
1000
0000
0000
0110
0000
,  // measure 32
0002
0000
0000
0203
0000
0000
2300
0000
0000
3200
0000
0000
0301
0000
0010
0000
,  // measure 33
2200
0000
3300
0000
0010
0001
0010
0000
0100
1000
0100
0000
0010
0001
0010
0000
,  // measure 34
0001
0100
0001
0000
1000
0100
0010
0001
0000
0100
0000
0001
0000
0000
0011
0000
,  // measure 35
1000
0100
1000
0000
0001
0100
0010
1000
0000
0100
0000
1000
0000
0000
0110
0000
,  // measure 36
0002
1000
0000
0000
1003
0100
0010
0001
0000
0100
0000
0001
0000
0000
1010
0000
,  // measure 37
0002
0000
0000
0000
1003
0100
0010
0000
0100
1000
0100
0000
1000
0010
1000
0000
,  // measure 38
0001
0100
0001
0000
1000
0100
0010
0001
0000
0100
0000
0001
0000
0000
0011
0000
,  // measure 39
1000
0100
1000
0000
0001
0100
0010
1000
0000
0100
0000
1000
0000
0000
0110
0000
,  // measure 40
0001
0000
0000
0001
0010
0000
0100
0000
1000
0010
1000
0000
0001
0000
0100
0000
,  // measure 41
0010
1000
0010
0000
0200
0000
0000
0000
0001
0000
0000
0000
0310
0000
1000
0001
,  // measure 42
0100
0000
0010
0000
1000
0000
0010
0000
0100
0000
0001
0000
1000
0100
1000
0000
,  // measure 43
0001
0010
0001
0000
0200
0000
0000
0000
0010
0000
0000
0000
0301
0000
1000
0001
,  // measure 44
0010
0000
0100
0000
1000
0000
0100
0000
0010
0000
0001
0000
1000
0100
1000
0000
,  // measure 45
0010
0010
0100
0100
0001
0001
0100
0100
,  // measure 46
0010
0010
1000
1000
0100
0100
1000
1000
,  // measure 47
0001
0000
0100
0001
0000
0100
0010
0000
1000
0010
0000
1000
0001
0000
0010
0001
0000
0010
0100
0000
1000
0100
0000
1000
,  // measure 48
0002
0000
0203
0000
2300
0000
3200
0000
0302
0000
0023
0000
0130
1000
0001
0000
,  // measure 49
0201
0000
0000
0000
0310
1000
0010
0000
1000
0100
1000
0000
0001
0100
0001
0000
,  // measure 50
0010
0001
0010
0000
0100
1000
0001
0010
0000
0100
0000
1000
0000
0000
1010
0000
,  // measure 51
0100
0001
0100
0000
0010
1000
0001
0010
0000
0100
0000
0010
0000
0000
0011
0000
,  // measure 52
0002
1000
0000
0000
0103
0010
1000
0001
0000
0100
0000
0001
0000
0000
1100
0000
,  // measure 53
0020
0000
0000
0000
0031
0100
0001
0000
1000
0100
1000
0000
0010
1000
0010
0000
,  // measure 54
0100
0001
0100
0000
0001
0100
0001
1000
0000
0100
0000
1000
0000
0000
0011
0000
,  // measure 55
0100
1000
0100
0000
0010
0001
1000
0010
0000
0100
0000
0010
0000
0000
1010
0000
,  // measure 56
0002
0000
0000
0203
0000
0000
2300
0000
0000
3200
0000
0000
0301
0000
0010
0000
,  // measure 57
2200
0000
3300
0000
0010
0001
0010
0000
0100
1000
0100
0000
0010
0001
0010
0000
,  // measure 58
0001
0100
0001
0000
1000
0100
0010
0001
0000
0100
0000
0001
1000
0000
1010
0000
,  // measure 59
0001
0100
0001
0000
1000
0100
0010
0001
0000
0100
0000
0001
1000
0000
0110
0000
,  // measure 60
0002
1000
0000
0000
1003
0100
0010
0001
0000
0100
0000
0001
0010
0000
0011
0000
,  // measure 61
2000
0000
0000
0000
3001
0100
0001
0000
1000
0010
1000
0000
0001
0010
0001
0000
,  // measure 62
1000
0100
1000
0000
0001
0100
0010
1000
0000
0100
0000
1000
0001
0000
0011
0000
,  // measure 63
1000
0100
1000
0000
0001
0100
0010
1000
0000
0100
0000
1000
0010
0000
0110
0000
,  // measure 64
0001
0000
0000
0001
0100
0000
0010
0000
1000
0001
1000
0000
0100
0000
0010
0000
,  // measure 65
2002
3003
0000
0000
0000
0000
0000
0000
;

//---------------dance-single - ----------------
#NOTES:
     dance-single:
     :
     Medium:
     9:
     0.411354,0.462475,0.025112,0.326453,0.033482,344.000000,341.000000,3.000000,39.000000,0.000000,0.000000,0.411354,0.462475,0.025112,0.326453,0.033482,344.000000,341.000000,3.000000,39.000000,0.000000,0.000000:
0000
0000
0000
0000
,
0000
0000
0000
0000
,
0000
0000
0000
0000
,
0000
0000
0000
0000
,
0000
0000
0000
0000
,
1000
0100
0010
0000
0001
0000
0010
0000
,
1000
0010
0001
1000
,
0001
0100
0010
0000
1000
0000
0010
0000
,
0001
0000
0010
0000
1000
0100
0010
0000
,
0001
0100
0002
0000
1000
0000
0013
0100
,
1000
0000
1000
0000
0001
0000
0010
0100
,
1000
0001
2000
0000
0001
0000
3010
0100
,
0001
0000
0001
0000
1000
0000
0001
1000
,
0100
0010
0002
0000
1000
0000
0103
0010
,
0100
0000
0001
0000
1000
0000
0001
0010
,
0100
0010
0002
0000
1000
0000
0103
0010
,
0100
0000
0001
1000
0000
0010
1000
0000
,
0100
0100
0010
0010
,
0001
0001
1000
1000
,
0100
0100
0010
0010
,
0001
0001
1000
1000
,
0010
1000
0010
1000
0001
0010
0001
0010
,
0100
1000
0100
1000
0001
0100
0001
0100
,
0020
2030
3200
0320
,
0031
1000
0100
1000
0010
0000
0100
0000
,
0101
0020
2030
3002
,
1003
0001
1000
0100
0010
0100
1000
0000
,
0001
1000
0001
0010
0100
0010
0001
0000
,
2000
0000
3100
0010
0001
0010
0100
0000
,
2000
3002
0203
0310
,
0001
1000
0001
0010
0100
0010
0001
0000
,
1000
0001
1000
0100
0010
0100
1000
0000
,
0001
0000
0000
0100
0000
0000
0010
0000
0000
1000
0000
0000
0001
0000
0000
0000
,
0011
2000
3200
0320
,
0031
1000
0100
0010
0001
0010
0100
0000
,
1000
0001
0010
0100
1000
0100
0010
0000
,
0002
0000
1003
0100
0010
0100
1000
0000
,
0001
2000
3020
0130
,
0001
1000
0001
0010
0100
0010
0001
0000
,
1000
0001
1000
0100
0010
0100
1000
0000
,
0001
0000
0000
0010
0000
0000
0100
0000
0000
1000
0000
0000
0100
0000
0000
0000
,
0001
0100
0002
0000
1000
0000
0013
0100
,
1000
0000
1000
0000
0001
0000
1000
0010
,
1000
0100
2000
0000
0001
0000
3010
0100
,
0001
0000
0001
0000
1000
0000
0001
1000
,
0100
0010
0001
0010
0100
0010
0001
0000
,
1000
0010
0100
0010
1000
0010
0100
0000
,
0001
0010
0100
1000
0001
1000
0100
0010
,
0200
0000
0320
0000
0031
1000
0001
0100
,
0010
2000
3200
0320
,
0031
0000
1000
0010
0100
0010
1000
0000
,
0001
1000
0001
0100
0010
0100
0001
0000
,
2000
0000
3010
0100
0001
0100
0010
0000
,
1000
0002
0023
0230
,
1300
0000
0010
0100
0001
0100
0010
0000
,
1000
0000
0001
0100
0010
0100
0001
0000
,
0010
0000
0000
0100
0000
0000
1000
0000
0000
0001
0000
0000
1000
0000
0000
0000
,
0001
2000
3020
0230
,
0301
1000
0100
0010
0100
1000
0001
0000
,
1000
0001
1000
0100
0010
0100
1000
0000
,
0002
0000
0013
0100
1000
0100
0010
0000
,
0001
2000
3020
0230
,
0301
1000
0001
0100
0010
0100
0001
0000
,
1000
0001
1000
0010
0100
0010
1000
0000
,
0100
0000
0000
0010
0000
0000
0001
0000
0000
1000
0000
0000
0010
0000
0000
0000
,
0101
0000
0000
0000
;

//---------------dance-single - ----------------
#NOTES:
     dance-single:
     :
     Easy:
     5:
     0.251117,0.272044,0.075335,0.292970,0.000000,210.000000,201.000000,9.000000,35.000000,0.000000,0.000000,0.251117,0.272044,0.075335,0.292970,0.000000,210.000000,201.000000,9.000000,35.000000,0.000000,0.000000:
0000
0000
0000
0000
,
0000
0000
0000
0000
,
0000
0000
0000
0000
,
0000
0000
0000
0000
,
0000
0000
0000
0000
,
1000
0010
0000
0100
,
0001
0010
0000
0010
,
0001
0010
0000
0100
,
1000
0010
0000
0010
,
1000
2000
3000
0000
,
0100
0100
0100
1000
,
0001
0002
0003
0000
,
0100
0100
0100
0001
,
2000
3010
0000
0000
,
0100
0100
0001
1000
,
0002
0013
0000
0000
,
0100
0100
0000
0010
,
0001
1000
0010
1000
,
0001
1000
0010
1000
,
0100
0010
0001
0010
,
0100
0010
0001
1000
,
0010
0010
0100
0100
,
0001
0001
0100
0100
,
0010
1000
0100
0010
,
0011
0000
0000
1000
,
1010
0002
0023
0230
,
1300
0010
1000
0000
,
0001
0010
0001
0000
,
0100
0010
0100
0000
,
0101
2000
3200
0320
,
0031
0100
0001
0000
,
1000
0100
1000
0000
,
0010
0000
0000
0000
1000
0001
1000
0000
,
0001
2000
3200
0320
,
0031
0100
0001
0000
,
1000
0100
1000
0000
,
0010
0100
0010
0000
,
1000
0002
0023
0230
,
1300
0010
1000
0000
,
0001
0010
0001
0000
,
0100
0000
0000
0000
0010
1000
0010
0000
,
2000
3100
0000
0000
,
0010
0010
0001
1000
,
0002
0103
0000
0000
,
0010
0010
1000
0001
,
2000
3100
0002
0103
,
0020
0130
2000
3100
,
0010
0001
0100
0010
,
1000
0000
0000
0001
,
0101
2000
3200
0320
,
0031
0100
0001
0000
,
1000
0100
1000
0000
,
0010
0000
1010
0000
,
0101
2000
3200
0320
,
0031
0100
0001
0000
,
1000
0100
1000
0000
,
0001
0000
0010
0010
,
1100
0002
0203
2300
,
3100
0001
0100
0100
,
0010
1000
0010
0010
,
2000
3000
0001
0001
,
0011
2000
3200
0302
,
0103
1000
0100
0100
,
0010
0001
0010
0010
,
0001
0000
1000
0010
,
0101
0000
0000
0000
;

//---------------dance-single - ----------------
#NOTES:
     dance-single:
     :
     Beginner:
     3:
     0.170999,0.190431,0.000000,0.000000,0.000000,143.000000,143.000000,0.000000,0.000000,0.000000,0.000000,0.170999,0.190431,0.000000,0.000000,0.000000,143.000000,143.000000,0.000000,0.000000,0.000000,0.000000:
0000
0000
0000
0000
,
0000
0000
0000
0000
,
0000
0000
0000
0000
,
0000
0000
0000
0000
,
0000
0000
0000
0000
,
1000
0001
0000
0001
,
0000
0001
0000
0001
,
1000
0001
0000
0001
,
0000
0001
0000
0001
,
0100
0100
0000
0000
,
0010
0010
0010
0000
,
0100
0100
0000
0000
,
0010
0010
0010
0000
,
1000
1000
0000
0000
,
0001
0001
0001
0000
,
1000
1000
0000
0000
,
0001
0001
0000
1000
,
0001
0000
0010
0000
,
0100
0000
1000
0000
,
0100
0000
0010
0000
,
0001
0000
1000
0000
,
0010
0000
0010
0000
,
0100
0000
0100
0000
,
0001
0001
0001
0000
,
1000
0000
0010
0000
,
1000
0000
0000
0000
,
0001
0001
0001
0000
,
0100
0100
0100
0000
,
0001
0001
0001
0000
,
1000
0000
0100
0000
,
1000
1000
1000
0000
,
0001
0001
0001
0000
,
0100
0000
0000
0000
,
0010
0000
1000
0000
,
0001
0001
0001
0000
,
0010
0010
0010
0000
,
0001
0000
0001
0000
,
1000
0000
0010
0000
,
1000
1000
1000
0000
,
0100
0100
0100
0000
,
1000
0000
0010
0000
,
0100
0100
0000
0000
,
0001
1000
0001
0000
,
0100
0100
0000
0000
,
0001
1000
0001
0000
,
0010
0000
0100
0000
,
1000
0000
0100
0000
,
0010
0000
0001
0000
,
1000
0000
0000
0010
,
1000
0000
0100
0000
,
0001
0000
0100
0000
,
1000
0000
0010
0000
,
1000
0000
1000
0000
,
0001
0000
0100
0000
,
1000
0000
0100
0000
,
0001
0000
0010
0000
,
0001
0000
1000
1000
,
0001
0000
0100
0000
,
0010
0010
0010
0000
,
1000
1000
1000
0000
,
0010
0010
0010
0000
,
1000
0000
0100
0000
,
0010
0010
0010
0000
,
0001
0001
0001
0000
,
0010
0000
0001
0000
,
1000
0000
0000
0000
;
