#TITLE:Pacify;
#SUBTITLE:;
#ARTIST:BEMANI Sound Team "SYUNN";
#TITLETRANSLIT:;
#SUBTITLETRANSLIT:;
#ARTISTTRANSLIT:;
#GENRE:;
#CREDIT:;
#BANNER:Pacify.png;
#BACKGROUND:Pacify-bg.png;
#LYRICSPATH:;
#CDTITLE:;
#MUSIC:Pacify.ogg;
#OFFSET:-0.404000;
#SAMPLESTART:22.340008;
#SAMPLELENGTH:10.960000;
#SELECTABLE:YES;
#BPMS:0.000000=175.000000
;
#STOPS:
;
#BGCHANGES:;
#KEYSOUNDS:;
#ATTACKS:;

//---------------dance-single - ----------------
#NOTES:
     dance-single:
     :
     Hard:
     14:
     0.829628,0.884752,0.265803,0.120820,0.535634,721.000000,688.000000,33.000000,15.000000,0.000000,0.000000,0.829628,0.884752,0.265803,0.120820,0.535634,721.000000,688.000000,33.000000,15.000000,0.000000,0.000000:
// measure 0
0000
0000
0000
0000
,  // measure 1
0000
0000
0000
0000
,  // measure 2
0000
0000
0000
0000
,  // measure 3
0000
0000
0000
0000
,  // measure 4
1000
0000
1000
0000
0000
0010
0100
0001
,  // measure 5
0000
0001
0000
0010
0000
0010
0000
0001
,  // measure 6
1000
0000
1000
0000
0000
0100
0000
0100
,  // measure 7
0001
0000
0000
0000
1000
0000
0000
0000
0010
0100
0001
0000
0010
0000
0100
0000
,  // measure 8
1000
0100
0000
0100
0001
0100
0010
0001
,  // measure 9
0000
0000
0100
0001
1000
0000
0100
0000
0010
0001
0010
0000
0100
0000
1000
0000
,  // measure 10
0000
0001
0100
0001
1000
0000
1000
0000
,  // measure 11
1000
0000
0100
0010
0001
0010
0100
0000
1000
0000
0001
0000
0100
0000
0010
0000
,  // measure 12
1000
0100
0000
0100
0001
0100
0010
0001
,  // measure 13
0000
0000
0100
0001
1000
0000
0100
0000
0010
0001
0010
0000
0100
0000
1000
0000
,  // measure 14
0001
0001
0100
0100
1000
1000
0100
0100
,  // measure 15
0010
0000
1000
0100
0010
0100
1000
0000
0001
0000
0100
0000
0001
0010
0100
0000
,  // measure 16
1100
0000
0000
0000
1000
0000
0001
0100
0001
0000
1000
0000
0100
0000
0110
0000
,  // measure 17
0000
0000
0021
0000
0000
0000
0031
0100
0001
0000
1000
0000
0010
0000
0100
0000
,  // measure 18
0001
0000
0000
0000
1000
0010
0000
0000
1000
0000
0100
0010
0001
0010
0100
0000
,  // measure 19
1000
0000
0001
1000
0010
0100
0010
0000
1000
0000
0100
0010
0001
0000
1000
0000
,  // measure 20
1100
0000
0000
0000
1000
0000
0001
0100
0010
0100
0001
1000
0001
0000
0011
0000
,  // measure 21
0000
0000
1200
0000
0000
0000
0310
0001
0010
0000
0100
0000
0001
0000
0100
0000
,  // measure 22
1100
0000
0000
0000
1000
0010
0000
0000
0010
0000
0100
0001
1000
0010
1000
0000
,  // measure 23
0100
0000
0010
0001
0010
0100
1000
0000
0001
0010
0100
0000
0010
0000
0001
0000
,  // measure 24
0201
0000
0000
0000
0301
0000
1000
0100
1000
0000
0010
0000
0100
0000
0101
0000
,  // measure 25
0000
1100
0000
0101
0010
1000
0100
0010
,  // measure 26
1001
0000
0000
0000
0100
0000
1000
0000
0100
0000
0010
0001
1000
0001
1000
0000
,  // measure 27
0010
0000
0100
0001
0100
0010
1000
0000
0100
0010
0100
0000
0010
0001
0010
0000
,  // measure 28
1001
0000
0000
0000
0010
0000
0100
0001
0100
0010
1000
0001
1000
0000
1100
0000
,  // measure 29
0000
0000
0102
0000
0000
0000
1003
0010
2000
0000
0000
0000
3010
0000
0100
0000
,  // measure 30
0101
0000
0000
0000
0001
0000
0100
0000
0010
0000
1000
0000
0010
1000
0010
1000
,  // measure 31
0100
0000
0010
0001
1000
0001
1000
0000
0001
0010
0001
0000
0100
0000
0001
0000
,  // measure 32
1000
0100
0000
0100
0001
0100
0010
0001
,  // measure 33
0000
0000
0100
0001
1000
0000
0100
0000
0010
0001
0010
0000
0100
0000
1000
0000
,  // measure 34
0000
0001
0100
0001
1000
0000
1000
0000
,  // measure 35
1000
0000
0100
0010
0001
0010
0100
0000
1000
0000
0001
0000
0100
0000
0010
0000
,  // measure 36
1000
0100
0000
0100
0001
0100
0010
0001
,  // measure 37
0000
0000
0100
0001
1000
0000
0100
0000
0010
0001
1000
0010
1000
0000
0001
0000
,  // measure 38
0000
0000
1000
0010
1000
0000
0100
0000
0010
0000
0001
0000
1000
0000
0001
0000
,  // measure 39
0000
0000
0100
0010
1000
0010
0100
0001
1000
0000
0001
0000
0011
0000
0000
0000
,  // measure 40
1000
0000
0100
0000
0001
0000
1000
0000
0000
0000
0010
0001
0010
0000
1000
0000
,  // measure 41
0000
0000
0001
0000
0100
0000
1000
0000
0000
0000
0001
0100
0001
0000
1000
0000
,  // measure 42
0001
0000
0100
0000
1000
0000
0001
0000
0000
0000
0010
1000
0010
0000
0001
0000
,  // measure 43
0000
0000
1000
0000
0100
0000
0001
0000
1000
0100
1000
0100
0010
0000
0000
0000
,  // measure 44
0001
0000
0010
0000
1000
0000
0001
0000
0000
0000
0100
1000
0100
0000
0001
0000
,  // measure 45
0000
0000
1000
0000
0010
0000
0001
0000
0000
0000
1000
0010
1000
0000
0001
0000
,  // measure 46
1000
0000
0010
0000
0001
0000
1000
0000
0000
0000
0100
0001
0100
0000
1000
0000
,  // measure 47
0000
0000
0001
0000
0010
0000
1000
0000
0001
0010
0001
0010
0100
0000
1000
0000
,  // measure 48
0001
0000
0002
0000
0000
1000
0000
0100
,  // measure 49
0000
0100
0000
0010
0000
0010
0000
1003
,  // measure 50
0010
0000
0020
0000
0000
0001
0000
1000
,  // measure 51
0000
1000
0000
0130
0001
0000
1001
0000
,  // measure 52
1000
0000
2000
0000
0000
0001
0001
0010
,  // measure 53
0000
0010
0000
0100
0000
0100
0000
3001
,  // measure 54
0010
0000
0020
0000
0000
0001
0000
0031
,  // measure 55
0100
0000
0200
0000
0000
0310
1000
0100
,  // measure 56
1001
0000
0000
0000
1000
0000
0100
0010
0100
0000
1000
0000
0001
0000
0011
0000
,  // measure 57
0000
0000
1200
0000
0000
0000
1300
0010
1000
0000
0100
0000
0010
0000
0100
0000
,  // measure 58
1001
0000
0000
0000
0001
0010
0000
0000
0001
0000
1000
0010
0100
0010
0100
0000
,  // measure 59
0001
0000
1000
0100
0010
0001
1000
0000
0010
0000
0100
0001
0100
0000
0010
0000
,  // measure 60
1000
0000
0000
0000
0001
0000
1000
0100
1000
0010
0100
0001
1000
0000
1100
0000
,  // measure 61
0000
0000
0012
0000
0000
0000
1003
0010
1000
0000
0100
0000
0010
0000
0001
0000
,  // measure 62
1001
0000
0000
0000
1000
0010
0000
0000
0010
0000
0100
0001
0100
0010
1000
0000
,  // measure 63
0001
0000
1000
0100
0010
0001
1000
0000
0001
0100
0001
0000
0010
0000
0100
0000
,  // measure 64
2000
0000
0000
0000
3001
0000
0100
0010
0100
0000
0001
0000
0010
0000
1100
0000
,  // measure 65
0000
0101
0000
1100
0010
0001
0001
1000
,  // measure 66
1100
0000
0000
0000
0010
0000
0001
0000
1000
0000
0010
1000
0001
1000
0001
0000
,  // measure 67
0100
0000
0010
1000
0010
0100
0001
0000
0010
0100
0010
0000
0100
1000
0100
0000
,  // measure 68
1001
0000
0000
0000
0100
0000
0010
1000
0010
0100
0001
1000
0001
0000
0011
0000
,  // measure 69
0000
0000
2010
0000
0000
0000
3001
0010
0002
0000
0000
0000
0103
0000
0010
0000
,  // measure 70
1010
0000
0000
0000
1000
0000
0010
0000
0100
0000
0001
0000
0010
0001
0010
0001
,  // measure 71
1000
0000
0010
0100
0001
0100
0001
0000
0010
0100
0010
0000
0001
0000
1000
0000
,  // measure 72
0001
0000
0100
0000
1000
0000
0100
0000
0001
0000
1000
0100
0010
0000
0100
0000
,  // measure 73
1000
0000
0001
0100
0001
0000
0010
0000
0100
1000
0100
0010
0001
0000
1000
0000
,  // measure 74
0001
0000
0010
0001
0010
0000
0100
0000
1000
0000
0001
0100
0010
0000
0100
0000
,  // measure 75
0001
0000
1000
0100
0010
0100
1000
0000
0001
0000
0100
0010
0100
0000
0001
0000
,  // measure 76
0001
0000
0100
0000
1000
0000
0100
0000
0001
0000
1000
0100
0010
0000
0100
0000
,  // measure 77
1000
0000
0001
0010
0001
0000
0100
0000
0010
1000
0010
0100
0001
0000
0010
0000
,  // measure 78
0100
0000
1000
0010
1000
0000
0001
0000
0001
0000
0100
0010
0100
0000
0001
0000
,  // measure 79
1000
0000
0010
1000
0010
0100
0001
0000
1000
0000
0001
0100
0010
1000
0010
1000
,  // measure 80
0001
0100
0000
0100
1000
0100
0010
1000
,  // measure 81
0000
0000
0001
0010
0100
0000
1000
0000
0001
0100
0001
0000
0010
0000
0100
0000
,  // measure 82
0000
0000
1000
0010
1000
0000
0001
0000
0100
0000
0010
0000
1000
0000
0000
0000
,  // measure 83
0100
0000
1000
0001
0010
0001
1000
0000
0010
0100
0001
0100
0010
0000
1000
0000
,  // measure 84
0001
0100
0000
0100
0010
1000
1000
0001
,  // measure 85
0000
0000
1000
0100
0010
0000
0100
0000
1000
0010
0100
0001
1000
0000
0100
0000
,  // measure 86
0000
0000
0010
0001
0010
0000
0100
0000
1000
0000
0001
0000
0010
0000
0001
0000
,  // measure 87
0000
0000
1000
0010
0100
0001
0100
0000
0010
0000
1000
0100
1000
0000
0001
0000
;

//---------------dance-single - ----------------
#NOTES:
     dance-single:
     :
     Medium:
     10:
     0.619057,0.566241,0.096656,0.217475,0.000000,538.000000,526.000000,12.000000,27.000000,0.000000,0.000000,0.619057,0.566241,0.096656,0.217475,0.000000,538.000000,526.000000,12.000000,27.000000,0.000000,0.000000:
0000
0000
0000
0000
,
0000
0000
0000
0000
,
0000
0000
0000
0000
,
0000
0000
0000
0000
,
1000
0000
1000
0000
0000
0010
0100
0001
,
0000
0001
0000
0010
0000
0010
0000
0100
,
1000
0000
1000
0000
0000
0010
0000
0010
,
0100
0000
0100
0000
0001
0100
0001
1000
,
0100
0010
0000
0010
0100
1000
0001
1000
,
0000
0001
0010
0001
1000
0100
1000
0010
,
0000
0100
0010
0100
0001
0000
0001
0000
,
1000
0100
0010
0100
1000
0001
0010
0001
,
0100
0010
0000
0010
1000
0001
0010
0100
,
0000
0100
0010
0100
1000
0001
0100
0001
,
0000
0001
0010
0001
0100
0010
1000
0010
,
0000
1000
0100
0010
0001
0010
0100
1000
,
0002
0000
1003
0100
0010
0100
1000
0010
,
0000
1010
0000
0010
1000
0010
0100
0001
,
1000
0000
0020
0000
0130
0001
1000
0001
,
0000
1000
0100
0010
0001
1000
0001
0100
,
0010
0000
0001
0100
1000
0100
0001
1000
,
0000
1010
0000
0001
0010
0001
0100
0010
,
1000
0000
0002
0000
0103
0010
0100
0001
,
0000
1000
0010
1000
0100
0010
0001
1000
,
0001
0000
0001
0100
0001
1000
0100
0010
,
0000
0011
0000
0010
0100
1000
0001
0100
,
0001
0000
0020
0000
0130
1000
0001
1000
,
0000
0010
0100
0001
0010
0001
1000
0100
,
1000
0000
0010
0100
0001
0100
0010
0100
,
0000
1001
0000
0010
0002
0000
1003
0010
,
1000
0000
0200
0000
0310
0001
0010
0100
,
0000
1000
0010
1000
0001
0100
0001
0010
,
0100
0010
0000
0010
0100
1000
0001
1000
,
0000
0001
0010
0001
1000
0100
1000
0010
,
0000
0100
0010
0100
0001
0000
0001
0000
,
1000
0100
0010
0100
1000
0001
0010
0001
,
0100
0010
0000
0010
1000
0001
0010
0100
,
0000
0100
0010
0100
1000
0001
0100
0001
,
0000
0001
0010
0001
0100
0010
1000
0010
,
0000
1000
0100
0010
0001
0010
0100
1000
,
0001
0201
0010
0301
,
0001
0100
0010
2000
0000
3200
0000
0310
,
0001
0000
2100
0000
3010
0100
0001
0010
,
0000
1100
0000
0010
0002
0000
0103
0010
,
1000
0000
1200
0000
0310
0001
0000
0100
,
0000
0002
0000
1003
0010
1000
0100
0010
,
0001
0000
0200
0000
0301
1000
0010
1000
,
0000
0001
0010
0100
0010
0001
0100
0010
,
0100
0000
0020
0000
0000
0000
1030
0002
,
0000
0000
0000
0013
0000
0100
0000
1000
,
0000
0002
0000
0103
,
0001
0010
0001
2000
0000
0000
3100
0000
,
0010
0000
0001
0010
0001
0100
0010
0100
,
0000
0001
0000
0010
0200
0000
1300
0001
,
1000
0020
0000
0230
,
0310
0100
0001
0100
0010
1000
0100
0010
,
0001
0000
0001
0100
0001
0010
0100
1000
,
0000
0011
0000
0010
0100
0010
0001
1000
,
0001
0000
2000
0000
3010
0100
0001
0100
,
0000
0010
1000
0100
0010
0001
0010
0100
,
1000
0000
0001
0100
0010
0100
0001
0010
,
0000
0110
0000
0100
1000
0100
0010
0001
,
0100
0000
0020
0000
1030
0100
0010
0100
,
0000
1000
0001
1000
0010
0100
0001
0010
,
0100
0000
1000
0100
1000
0001
0100
0010
,
0000
1001
0000
0100
0001
0010
0001
1000
,
0100
0000
0020
0000
0130
1000
0001
1000
,
0000
0010
0100
0001
0010
0001
1000
0100
,
0010
0000
0001
1000
0100
1000
0010
0100
,
0000
1001
0000
1000
0020
0000
0130
0001
,
1000
0000
0200
0000
0310
0001
0010
0100
,
0000
1000
0010
1000
0001
0010
0002
0000
,
0103
0010
0000
0010
0100
0001
0010
0001
,
0000
1000
0010
1000
0100
0010
0001
1000
,
0000
0010
0100
0001
1000
0000
1000
0000
,
0001
0010
0100
0001
0100
0010
1000
0010
,
0100
0001
0000
0001
0010
0100
1000
0001
,
0000
0001
0100
0010
0100
0001
0010
0001
,
0000
0001
0010
0100
1000
0010
0100
0010
,
0000
1000
0100
0010
0001
0010
0100
1000
,
0100
0010
0000
0010
0100
1000
0001
1000
,
0000
0001
0010
0001
1000
0100
1000
0010
,
0000
0100
0010
0100
0001
0000
0001
0000
,
1000
0100
0010
0100
1000
0001
0010
0001
,
0100
0010
0000
0010
1000
0001
0010
0100
,
0000
0100
0010
0100
1000
0001
0100
0001
,
0000
0001
0010
0001
0100
0010
1000
0010
,
0000
1000
0100
0010
0001
0010
0100
1000
;

//---------------dance-single - ----------------
#NOTES:
     dance-single:
     :
     Easy:
     7:
     0.368212,0.496166,0.298022,0.467169,0.000000,320.000000,283.000000,37.000000,58.000000,0.000000,0.000000,0.368212,0.496166,0.298022,0.467169,0.000000,320.000000,283.000000,37.000000,58.000000,0.000000,0.000000:
0000
0000
0000
0000
,
0000
0000
0000
0000
,
0000
0000
0000
0000
,
0000
0000
0000
0000
,
0000
0000
0000
0000
,
0000
0000
0000
0000
,
0000
0000
0000
0000
,
0000
0000
0000
0000
,
0001
0101
1000
1100
,
0001
0101
1000
1100
,
0001
0101
1000
1100
,
0001
0101
1000
1100
,
0001
0001
1000
1000
,
0010
0010
0100
0100
,
0001
0000
0001
1000
0010
0000
0010
0100
,
0001
0000
0000
0000
,
0012
0000
0000
1000
0000
0000
0000
0100
,
0000
0100
0000
0013
0000
0000
0001
0000
,
2100
0000
0000
3001
0000
0000
0010
0000
,
2100
0000
3020
0130
,
0102
0000
0000
1000
0000
0000
0000
0010
,
0000
0010
0000
0103
0000
0000
0010
0000
,
0102
0000
0000
1003
0000
0000
0000
0010
,
0200
0000
0302
0013
,
2100
0000
0000
0000
3000
0000
0000
0101
,
0000
0101
0000
1020
0000
0000
0130
0000
,
1002
0000
0000
0103
0000
0000
0000
0000
,
2100
0000
3010
0100
,
1002
0000
0000
0103
0000
0000
0010
1000
,
0000
1100
0000
0100
0010
0000
0001
0000
,
0102
0000
0000
1003
0000
0000
0000
1000
,
0200
0000
0320
0000
,
0031
0100
1000
0100
,
0001
0100
1000
0100
,
0001
0010
1000
0010
,
0001
0000
1000
0000
0001
0010
0001
0000
,
0100
1000
0010
1000
,
0100
0000
0010
0000
0001
0000
0100
0010
,
0100
0001
1000
0100
,
1000
0001
0200
0320
,
1030
0002
0000
0013
,
0100
1000
0100
0010
0000
0001
0000
1000
,
0000
0000
0020
0000
0000
0130
0001
0100
,
0000
0010
0000
1000
0001
0000
1000
0100
,
1000
0000
0020
0000
0000
0130
0000
0010
,
0000
1000
0000
0001
0010
0001
1000
0000
,
0001
0000
0020
0000
0000
0130
1000
0100
,
0000
0010
0001
0000
0100
0001
1000
0000
,
0100
0000
2000
0000
0000
0010
0000
0001
,
0000
0001
0000
0100
0000
0100
0000
3100
,
0010
0000
0020
0000
0000
0100
0000
0001
,
0000
0001
0000
0031
1000
0000
1100
0000
,
0001
0000
0002
0000
0000
0100
0000
1000
,
0000
1000
0000
0010
0000
0010
0000
0013
,
0100
0000
0200
0000
0000
1000
0000
1300
,
0010
0000
0020
0000
0000
0130
0001
0000
,
0102
0000
0000
1000
0000
0000
0000
0100
,
0000
0100
0000
0013
0000
0000
0000
0000
,
2100
0000
0000
3001
0000
0000
0000
0000
,
0102
0000
0023
0030
,
2100
0000
0000
0001
0000
0000
0000
0100
,
0000
0100
0000
3010
0000
0000
0100
0000
,
1002
0000
0000
0103
0000
0000
0000
0010
,
2000
0000
3200
0310
,
0011
0000
0000
0000
0000
0000
0000
0101
,
0000
0101
0000
1020
0000
0000
0130
0000
,
1002
0000
0000
0100
0000
0000
0013
0000
,
2100
0000
3010
0100
,
1002
0000
0000
0103
0000
0000
0010
1000
,
0000
1100
0000
0100
0010
0000
0001
0000
,
0102
0000
0000
1003
0000
0000
0000
1000
,
0200
0000
0320
0000
,
0031
0000
2000
0000
0000
3010
0100
0020
,
0000
0000
0100
0000
0000
0000
1030
0001
,
1000
0200
0000
0010
,
0000
1300
0001
1000
0020
0000
0230
0000
,
0301
0000
2000
0000
0000
0000
0000
3100
,
0000
0010
0000
0001
0000
0000
0100
0010
,
0000
1000
0010
1000
0000
0000
0002
0000
,
0000
0000
2003
3020
,
0030
0000
0200
0000
0000
0301
1000
0002
,
0000
0000
0000
0000
0000
0000
0013
0100
,
0000
0000
2000
0000
0000
0000
0000
3001
,
0000
0100
0010
0100
0001
0000
1000
0100
,
1000
0000
0020
0000
0000
0000
0000
0130
,
0001
1000
0000
0100
0000
0000
0010
0001
,
0000
1000
0001
1000
0000
0000
0020
0000
,
0000
0000
0230
0320
,
0030
0000
0000
0000
;

//---------------dance-single - ----------------
#NOTES:
     dance-single:
     :
     Beginner:
     1:
     0.115066,0.175188,0.000000,0.000000,0.000000,100.000000,100.000000,0.000000,0.000000,0.000000,0.000000,0.115066,0.175188,0.000000,0.000000,0.000000,100.000000,100.000000,0.000000,0.000000,0.000000,0.000000:
0000
0000
0000
0000
,
0000
0000
0000
0000
,
0000
0000
0000
0000
,
0000
0000
0000
0000
,
0000
0000
0000
0000
,
0000
0000
0000
0000
,
0000
0000
0000
0000
,
0000
0000
0000
0000
,
1000
0000
0000
0000
,
0001
0000
0000
0000
,
1000
0000
0000
0000
,
1000
0000
0000
0000
,
0001
0000
0001
0000
,
0010
0000
0010
0000
,
0100
0000
0100
0000
,
1000
0000
0000
0000
,
0010
0000
0000
0000
,
0100
0000
0000
0000
,
0010
0000
0000
0000
,
1000
0000
0001
0000
,
1000
0000
0000
0000
,
0100
0000
0000
0000
,
0010
0000
0000
0000
,
0100
0000
1000
0000
,
0001
0000
0000
0000
,
0100
0000
0100
0000
,
0100
0000
0000
0000
,
0001
0000
0000
0000
,
1000
0000
0000
0000
,
0100
0000
0100
0000
,
1000
0000
0000
0000
,
0010
0000
0000
0000
,
1000
0000
0000
0000
,
0001
0000
0000
0000
,
1000
0000
0000
0000
,
0001
0000
0001
0000
,
0010
0000
0000
0000
,
0100
0000
0000
0000
,
0010
0000
0000
0000
,
0001
0000
1000
0000
,
0001
0000
0100
0000
,
0001
0000
0000
0000
,
1000
0000
0100
0000
,
1000
0000
0000
0000
,
0001
0000
0100
0000
,
0001
0000
0000
0000
,
1000
0000
0100
0000
,
1000
0000
0100
0000
,
1000
0000
0000
0000
,
0000
0000
0000
0000
,
0010
0000
0000
0000
,
0000
0000
0000
0000
,
0100
0000
0000
0000
,
0000
0000
0000
0000
,
0001
0000
0000
0000
,
0010
0000
0010
0000
,
0001
0000
0000
0000
,
0010
0000
0000
0000
,
1000
0000
0000
0000
,
0010
0000
0000
0000
,
0001
0000
0000
0000
,
0010
0000
0100
0000
,
0010
0000
0000
0000
,
0001
0000
1000
0000
,
0001
0000
0000
0000
,
0100
0000
0000
0000
,
0010
0000
0000
0000
,
0100
0000
0000
0000
,
0001
0000
0010
0000
,
0001
0000
0000
0000
,
1000
0000
0010
0000
,
1000
0000
0000
0000
,
0001
0000
0000
0000
,
0010
0000
0000
0000
,
0001
0000
0000
0000
,
0001
0000
0000
0000
,
1000
0000
0000
0000
,
0010
0000
0000
0000
,
1000
0000
0000
0000
,
1000
0000
0000
0000
,
0001
0000
0001
0000
,
0001
0000
0000
0000
,
0010
0000
0010
0000
,
0010
0000
0000
0000
,
0100
0000
0100
0000
,
0100
0000
0000
0000
,
1000
0000
1000
0000
,
1000
0000
0000
0000
;
