#TITLE:PULSE;
#SUBTITLE:;
#ARTIST:319;
#TITLETRANSLIT:;
#SUBTITLETRANSLIT:;
#ARTISTTRANSLIT:;
#GENRE:;
#CREDIT:;
#BANNER:Pulse.png;
#BACKGROUND:Pulse-bg.png;
#LYRICSPATH:;
#CDTITLE:;
#MUSIC:Pulse.ogg;
#OFFSET:-0.417000;
#SAMPLESTART:15.174996;
#SAMPLELENGTH:14.779999;
#SELECTABLE:YES;
#DISPLAYBPM:130.000000;
#BPMS:0.000000=130.000000
;
#STOPS:
;
#BGCHANGES:;
#KEYSOUNDS:;
#ATTACKS:;

//---------------dance-single - ----------------
#NOTES:
     dance-single:
     :
     Medium:
     8:
     0.324981,0.335278,0.000000,0.539620,0.238068,215.000000,215.000000,0.000000,51.000000,0.000000,0.000000,0.324981,0.335278,0.000000,0.539620,0.238068,215.000000,215.000000,0.000000,51.000000,0.000000,0.000000:
0000
0000
0000
0000
,
0000
0000
0000
0000
,
0000
0000
0000
0000
,
0000
0000
0000
0000
,
0001
0000
0000
0010
0000
0000
0100
0000
0000
0010
0000
0000
0001
0000
0000
0000
,
1000
0000
0000
0100
0000
0000
0010
0000
0000
0100
0000
0000
1000
0000
0000
0000
,
0001
0000
0000
0100
0000
0000
0010
0000
0000
0100
0000
0000
0001
0000
0000
0000
,
2000
3020
0230
0302
,
1003
0000
0000
0010
0000
0000
0100
0000
0000
0010
0000
0000
1000
0000
0000
0000
,
0002
0103
2000
3100
,
0001
0000
0000
0010
0000
0000
0100
0000
0000
0010
0000
0000
0001
0000
0000
0000
,
2000
3200
0320
0032
,
1003
0000
0000
0100
0000
0000
0010
0000
0000
0100
0000
0000
1000
0000
0000
0000
,
0001
0010
0001
0000
1000
0010
1000
0000
,
0001
0000
0000
0100
0000
0000
0010
0000
0000
0100
0000
0000
0001
0000
0000
0000
,
2000
3200
0320
0032
,
1003
0000
0000
0100
0000
0000
1000
0000
0000
0010
0000
0000
1000
0000
0000
0000
,
0001
0000
0000
0100
0000
0000
0010
0000
0000
1000
0000
0000
0002
0000
0000
0000
,
1003
0000
0000
0010
0000
0000
1000
0000
0000
0100
0000
0000
0010
0000
0000
0000
,
0001
0000
0000
0100
0000
0000
1000
0000
0000
0100
0000
0000
0001
0000
0000
0000
,
2000
3200
0320
0032
,
0203
0000
0000
0320
0000
0000
1030
0001
,
2000
0000
0001
0000
0001
0000
3100
0010
,
0200
0000
1000
0000
1000
0000
0310
0001
,
0020
0000
0100
0000
0100
0000
0031
1000
,
0020
0000
0000
0000
0130
0001
1000
0010
,
1000
0000
0000
0100
0000
0000
1000
0000
0000
0000
0001
0000
0010
0000
0100
0000
,
1000
0000
0000
0010
0000
0000
1000
0000
0000
0000
0000
0000
0001
0000
0100
0000
,
0010
0000
0000
0010
0000
0000
0010
0000
0000
0000
1000
0000
0100
0000
0010
0000
,
0001
0000
0000
1000
0000
0000
0010
0000
0000
1000
0000
0000
0100
0000
0010
0000
,
0002
0000
0203
0000
0320
0000
1030
0001
,
2000
0000
3200
0000
0320
0000
0031
1000
,
0001
0000
0000
0100
0000
0000
0010
0000
0000
1000
0000
0000
0010
0000
0000
0000
,
2000
3200
0302
0203
,
1300
0001
0010
0001
0200
0000
0010
0000
,
0301
0000
0000
0100
0000
0000
0010
0000
0000
0100
0000
0000
0001
0000
0000
0000
,
2000
3010
0002
0013
,
1000
0000
0000
0100
0000
0000
0010
0000
0000
0100
0000
0000
1000
0000
0000
0000
,
0002
0023
0230
2300
,
3001
0000
0000
0010
0000
0000
0100
0000
0000
0010
0000
0000
0001
0000
0000
0000
,
1000
0100
1000
0000
0001
0100
0001
0000
,
1000
0000
0000
0010
0000
0000
0100
0000
0000
0010
0000
0000
1000
0000
0000
0000
,
0002
0023
0230
2300
,
3001
0000
0000
0010
0000
0000
0001
0000
0000
0100
0000
0000
0001
0000
0000
0000
,
1000
0000
0000
0010
0000
0000
0100
0000
0000
0001
0000
0000
2000
0000
0000
0000
,
3001
0000
0000
0100
0000
0000
0001
0000
0000
0010
0000
0000
0100
0000
0000
0000
,
1000
0000
0000
0010
0000
0000
0001
0000
0000
0010
0000
0000
1000
0000
0000
0000
,
0200
0000
0300
0020
0000
0030
0002
0000
,
2000
0000
0000
3003
;

//---------------dance-double - ----------------
#NOTES:
     dance-double:
     :
     Hard:
     7:
     0.196500,0.197861,0.074065,0.158712,0.105808,130.000000,123.000000,7.000000,15.000000,0.000000,0.000000,0.196500,0.197861,0.074065,0.158712,0.105808,130.000000,123.000000,7.000000,15.000000,0.000000,0.000000:
// measure 0
00000001
00000000
00000000
00001000
00000000
00000000
00000010
00000000
00000000
00010000
00000000
00000000
00001000
00000000
00010000
00000000
,  // measure 1
00001000
00100000
00010000
01000000
00100000
01000000
00010000
00000000
,  // measure 2
10000000
00000000
00000000
00010000
00000000
00000000
01000000
00000000
00000000
00001000
00000000
00000000
00100000
00000000
00001000
00000000
,  // measure 3
00020000
00032000
00003020
00002030
,  // measure 4
00013000
00000000
00000000
01000000
00000000
00000000
10000000
00000000
00000000
01000000
00000000
00000000
00010000
00000000
00001000
00000000
,  // measure 5
00010000
00000010
00001000
00000010
00000100
00000001
00000010
00000000
,  // measure 6
00000001
00000000
00000000
00000100
00000000
00000000
00001000
00000000
00000000
00000100
00000000
00000000
00000001
00000000
00000010
00000000
,  // measure 7
00002000
00010000
00103000
00011000
,  // measure 8
00010000
00000000
00000000
01000000
00000000
00000000
10000000
00000000
00000000
00100000
00000000
00000000
00010000
00000000
00001000
00000000
,  // measure 9
00010000
00000100
00001000
00000100
00000010
00000100
00000001
00000000
,  // measure 10
00001000
00000000
00000000
00000010
00000000
00000000
00000001
00000000
00000000
00000010
00000000
00000000
00001000
00000000
00010000
00000000
,  // measure 11
00002000
00000010
00010000
00003100
,  // measure 12
00000001
00000000
00000000
00000100
00000000
00000000
00000010
00000000
00000000
00001000
00000000
00000000
00000100
00000000
00000010
00000000
,  // measure 13
00000100
00010000
00001000
00010000
00000100
00010000
00001000
01000000
,  // measure 14
00010000
00000000
00000000
01000000
00000000
00000000
00100000
00000000
00000000
10000000
00000000
00000000
01000000
00000000
00100000
00000000
,  // measure 15
01000000
00100000
00010000
00100000
00001000
00010000
00000100
00001000
,  // measure 16
00000200
00000000
00000001
00000000
00000010
00000000
00010300
00001000
,  // measure 17
02000000
00000000
10000000
00000000
00100000
00000000
03001000
00010000
,  // measure 18
00000020
00000000
00000000
00001000
00000000
00000000
00000100
00000000
00000000
00000001
00000000
00000000
00000130
00000000
00000000
00000000
,  // measure 19
00001010
00000000
00000000
00010010
00000000
00000000
00011000
00000000
00000000
01001000
00000000
00000000
01010000
00000000
00000000
00000000
,  // measure 20
12000000
03020000
00032000
00003020
,  // measure 21
00000032
00000000
00000000
00000200
00000000
00000000
00000000
00000000
,  // measure 22
00000303
00000000
00000000
00000000
;

//---------------dance-single - ----------------
#NOTES:
     dance-single:
     :
     Easy:
     4:
     0.232777,0.232116,0.000000,0.264519,0.000000,154.000000,154.000000,0.000000,25.000000,0.000000,0.000000,0.232777,0.232116,0.000000,0.264519,0.000000,154.000000,154.000000,0.000000,25.000000,0.000000,0.000000:
0000
0000
0000
0000
,
0000
0000
0000
0000
,
0000
0000
0000
0000
,
0000
0000
0000
0000
,
1000
0100
1000
0000
,
0010
0100
0001
0001
,
1000
0100
1000
0000
,
2000
3200
0320
0032
,
1003
0010
1000
0000
,
0001
0010
0100
1000
,
0001
0010
0001
0000
,
0200
0320
2030
3002
,
1003
0100
1000
0000
,
0001
0010
0100
1000
,
0001
0100
0001
0000
,
2000
3200
0320
0230
,
1300
0010
1000
0000
,
0001
0010
0001
0000
,
0100
0010
0100
0000
,
0001
0100
1000
0100
,
0002
0000
0023
0000
,
0130
0000
0000
0100
0000
0000
1000
0000
,
0001
0100
0100
0001
,
1000
0100
0100
1000
,
0001
0010
0010
0001
,
2000
0000
3010
0100
,
0001
0100
0010
0010
,
1000
0100
0010
0010
,
0001
0100
1000
0100
,
0001
0010
0001
0100
,
0001
0010
0100
0100
,
1000
0010
0100
0100
,
0001
1000
0100
0100
,
1000
0001
0010
0001
,
0100
0100
0100
0000
,
1000
0010
1000
0000
,
0001
0010
0100
1000
,
0001
0010
0001
0000
,
0200
0320
2030
3002
,
1003
0100
1000
0000
,
0001
0010
0100
1000
,
0001
0100
0001
0000
,
2000
3200
0320
0230
,
1300
0010
0001
0000
,
1000
0100
0001
0000
,
1000
0100
0010
0000
,
0001
0010
0100
0000
,
1000
0000
0000
0010
0000
0000
0200
0000
,
0002
0000
0000
0303
;

//---------------dance-single - ----------------
#NOTES:
     dance-single:
     :
     Beginner:
     2:
     0.114877,0.177757,0.000000,0.021162,0.000000,76.000000,76.000000,0.000000,2.000000,0.000000,0.000000,0.114877,0.177757,0.000000,0.021162,0.000000,76.000000,76.000000,0.000000,2.000000,0.000000,0.000000:
0000
0000
0000
0000
,
0000
0000
0000
0000
,
0000
0000
0000
0000
,
0000
0000
0000
0000
,
1000
0000
0000
0000
,
0010
0000
0000
0000
,
0001
0000
0000
0000
,
0020
0000
0030
0000
,
1000
0000
0000
0000
,
0100
0100
0100
0000
,
0001
0000
0000
0000
,
0100
0000
0100
0000
,
1000
0000
0000
0000
,
0010
0010
0010
0000
,
0001
0000
0000
0000
,
0010
0000
0010
0000
,
1000
0000
0000
0000
,
0001
0000
0000
0000
,
0010
0000
0000
0000
,
0100
0000
0000
0000
,
1000
0000
0001
0000
,
1000
0000
0000
0000
,
0010
0000
0000
0000
,
0100
0000
0000
0000
,
0001
0000
0000
0000
,
0100
0000
0100
0000
,
0010
0010
0010
0000
,
1000
1000
1000
0000
,
0001
0001
0001
0000
,
0010
0000
0010
0000
,
0100
0100
0100
0000
,
1000
1000
1000
0000
,
0001
0001
0001
0000
,
0100
0000
0100
0000
,
0200
0000
0300
0000
,
0001
0000
0000
0000
,
0010
0010
0010
0000
,
1000
0000
0000
0000
,
0010
0000
0010
0000
,
0001
0000
0000
0000
,
0100
0100
0100
0000
,
1000
0000
0000
0000
,
0100
0000
0100
0000
,
0001
0000
0000
0000
,
1000
0000
0000
0000
,
0010
0000
0000
0000
,
0100
0000
0100
0000
,
0001
0000
0000
0001
0000
0000
1000
0000
,
0001
0000
0000
0000
;

//---------------dance-single - ----------------
#NOTES:
     dance-single:
     :
     Hard:
     13:
     0.575897,0.799510,0.349166,0.328004,0.560781,381.000000,348.000000,33.000000,31.000000,0.000000,0.000000,0.575897,0.799510,0.349166,0.328004,0.560781,381.000000,348.000000,33.000000,31.000000,0.000000,0.000000:
0000
0000
0000
0000
,
0000
0000
0000
0000
,
0000
0000
0000
0000
,
0000
0000
0000
0000
,
1000
0000
0000
0100
0000
0000
0001
0000
0000
0100
0000
0000
1000
0000
0001
0000
,
1000
0000
0000
0010
0000
0000
0001
0000
0000
0010
0000
0000
1000
0000
0001
0000
,
1000
0000
0000
0100
0000
0000
0010
0000
0000
0100
0000
0000
1000
0000
0001
0000
,
2000
3020
0230
0302
,
1003
0000
0000
1010
0000
0000
0001
0000
0000
0011
0000
0000
1000
0000
0100
0000
,
1000
0001
0010
0001
1000
0100
0010
0100
1000
0001
0100
0001
1000
0010
0100
0010
,
1000
0000
0000
1100
0000
0000
0001
0000
0000
0101
0000
0000
0010
0000
1000
0000
,
0001
0010
1000
0010
0001
0100
1000
0100
,
0001
0000
0000
0101
0000
0000
0010
0000
0000
1010
0000
0000
1000
0000
0001
0000
,
1000
0100
0010
0100
1000
0001
0010
0001
1000
0010
0100
0010
1000
0001
0100
0001
,
1000
0000
0000
1100
0000
0000
0001
0000
0000
0011
0000
0000
0001
0000
1000
0000
,
0001
0100
0010
1000
0001
0010
0100
0010
,
0001
0000
0000
0100
0000
0000
1000
0000
0000
0100
0000
0000
0001
0000
1000
0000
,
1200
0000
0000
0320
0000
0000
0032
0000
0000
0023
0000
0000
0230
0000
0000
0000
,
1300
0000
0000
0010
0000
0000
0001
0000
0000
0010
0000
0000
1000
0000
0001
0000
,
1000
0100
1000
0001
0100
0001
1000
0010
1000
0001
0010
0001
1000
0100
0010
0001
,
2000
3020
0230
0302
,
0023
0000
0000
0230
0000
0000
1300
0010
,
1000
0000
0001
0010
0002
0000
0103
0010
,
1000
0000
0100
0010
0200
0000
1300
0010
,
0001
0000
0010
0100
0020
0000
1030
0100
,
0002
0000
0103
0000
1000
0010
1000
0001
,
0101
0000
0000
0110
0000
0000
1010
0000
0000
0000
1000
0000
0100
0000
0010
0000
,
0011
0000
0000
0110
0000
0000
1100
0000
0000
0000
1000
0000
0001
0000
0100
0000
,
0110
0000
0000
1010
0000
0000
1001
0000
0000
0000
1000
0000
0100
0000
0010
0000
,
0011
0000
0000
0110
0000
0000
1100
0000
0000
1001
0000
0000
1010
0000
0010
0000
,
2000
0000
3200
0000
0320
0031
0100
0010
,
2000
0000
3002
0000
0023
0031
0100
0010
,
1010
0000
0000
0110
0000
0000
0101
0000
0000
1001
0000
0000
0011
0000
0010
0000
,
0100
1000
0100
0010
0001
0100
0010
1000
0001
0010
0100
1000
0001
0100
0010
1000
,
0001
0000
0010
0000
1000
0000
0010
0000
0001
0000
1000
0100
0010
0001
0100
0010
,
1000
0000
0000
0010
0000
0000
0001
0000
0000
0010
0000
0000
1000
0000
0001
0000
,
1000
0100
0010
0100
1000
0001
0010
0001
1000
0010
0100
0010
1000
0001
0100
0001
,
1000
0000
0000
1100
0000
0000
0001
0000
0000
0101
0000
0000
0010
0000
0100
0000
,
0001
0100
1000
0100
0001
0010
1000
0010
,
0001
0000
0000
1000
0000
0000
0010
0000
0000
1000
0000
0000
0001
0000
0100
0000
,
0001
0010
0100
0010
0001
1000
0100
1000
0001
0100
0010
0100
0001
1000
0010
1000
,
0001
0000
0000
0101
0000
0000
1000
0000
0000
1100
0000
0000
0010
0000
0100
0000
,
0001
0100
0010
1000
0001
0010
0100
0010
,
0001
0000
0000
0100
0000
0000
1000
0000
0000
0100
0000
0000
0001
0000
1000
0000
,
1200
0000
0000
0320
0000
0000
0032
0000
0000
0023
0000
0000
0230
0000
0000
0000
,
1300
0000
0000
0010
0000
0000
0001
0000
0000
0010
0000
0000
1000
0000
0001
0000
,
1000
0100
1000
0001
0100
0001
1000
0010
1000
0001
0010
0001
1000
0100
0010
0001
,
1000
0100
0010
0100
1000
0000
0001
0010
0100
0010
0001
0000
1000
0010
0100
0001
,
2000
0000
0000
3000
;
