#TITLE:On the FM;
#SUBTITLE:;
#ARTIST:C-Show;
#TITLETRANSLIT:;
#SUBTITLETRANSLIT:;
#ARTISTTRANSLIT:;
#GENRE:;
#CREDIT:;
#BANNER:On the FM.png;
#BACKGROUND:On the FM-bg.png;
#LYRICSPATH:;
#CDTITLE:;
#MUSIC:On the FM.ogg;
#OFFSET:0.079998;
#SAMPLESTART:20.300041;
#SAMPLELENGTH:9.600002;
#SELECTABLE:YES;
#BPMS:0.000000=200.000000
;
#STOPS:
;
#BGCHANGES:;
#KEYSOUNDS:;
#ATTACKS:;

//---------------dance-single - ----------------
#NOTES:
     dance-single:
     :
     Hard:
     13:
     0.837131,0.854852,0.595598,0.432289,0.624418,610.000000,548.000000,62.000000,45.000000,0.000000,0.000000,0.837131,0.854852,0.595598,0.432289,0.624418,610.000000,548.000000,62.000000,45.000000,0.000000,0.000000:
// measure 0
0000
0000
0000
0000
,  // measure 1
0000
0000
0000
0000
,  // measure 2
0000
0000
0000
0000
,  // measure 3
1000
0100
1000
0100
0010
0001
0010
0001
,  // measure 4
0100
0010
0100
0000
0001
0000
1000
0100
0010
0000
0001
0000
0010
0000
0100
0000
,  // measure 5
1000
0010
0100
0001
0000
1010
0000
1000
,  // measure 6
0200
0000
0000
0310
,  // measure 7
1000
0000
0100
0000
1000
0000
0001
0000
0100
0000
0001
0000
1000
0000
0000
0001
0000
0000
0001
0000
0000
1000
0000
0000
,  // measure 8
0100
0000
0001
0000
0100
0000
1000
0000
0010
0100
0001
0000
0010
0000
0000
0000
,  // measure 9
1100
0000
0000
0000
0001
0000
0001
0000
1000
0000
0010
0100
0010
0000
1000
0000
,  // measure 10
0100
0001
0100
1000
0001
0010
0001
0000
,  // measure 11
0101
0000
0000
0110
0000
0000
1010
0000
,  // measure 12
0000
1001
0000
0000
1100
0000
0110
0000
,  // measure 13
2002
0000
0000
3003
,  // measure 14
0000
0000
0000
0000
,  // measure 15
0001
0100
0001
0100
0010
1000
0010
1000
,  // measure 16
0100
0010
0100
0000
1000
0000
0010
0100
0001
0000
1000
0000
0002
0000
0000
0000
,  // measure 17
1003
0000
0010
0000
1000
0100
0010
0000
0001
0000
0010
0000
1000
0000
0010
0000
,  // measure 18
0001
0010
0100
0100
2000
0000
3001
0100
,  // measure 19
0001
1000
0001
0000
1000
0100
0010
0000
0001
0000
0010
0000
1000
0000
0010
0000
,  // measure 20
0001
0010
0100
1000
0010
0100
0001
0000
,  // measure 21
0001
0010
0001
0000
1000
0100
0010
0000
0001
0000
0010
0000
1000
0000
0010
0000
,  // measure 22
0001
0010
0100
0100
2000
0000
3001
0100
,  // measure 23
0001
1000
0001
0000
1000
0100
0010
0000
0001
0000
0010
0000
0100
0000
1000
0000
,  // measure 24
0000
0000
1000
0010
1000
0000
0001
0100
0001
0000
0010
0001
0020
0000
0000
0000
,  // measure 25
0130
1000
0100
0000
0010
0001
0010
0000
0001
0000
0100
0000
1000
0000
0100
0000
,  // measure 26
0001
0100
0010
1000
0002
0000
0013
0010
,  // measure 27
0001
0010
0001
0000
1000
0100
1000
0000
0001
0000
0100
0000
1000
0000
0100
0000
,  // measure 28
0001
0100
0010
1000
0100
0000
0011
0000
,  // measure 29
0001
0100
0001
0000
1000
0100
1000
0000
0001
0000
0010
0000
0100
0000
0010
0000
,  // measure 30
0001
0010
0100
1000
0020
0000
1030
0010
,  // measure 31
0100
0001
0100
0000
0001
1000
0001
0000
1000
0000
0100
0000
0010
0000
0200
0000
,  // measure 32
0000
0000
1300
0010
1000
0000
0010
0100
0010
0000
0100
0001
2000
0000
0000
0000
,  // measure 33
3001
0010
0001
0000
1000
0010
1000
0000
0001
0000
1000
0000
0001
0000
1000
0000
,  // measure 34
0001
0010
0100
1000
0020
0000
0130
0000
,  // measure 35
0101
0000
1010
0000
0010
1000
0100
0010
,  // measure 36
0100
1000
0010
0100
0010
0000
1000
0000
,  // measure 37
1100
0000
0011
0000
0001
0100
0010
0100
,  // measure 38
0001
0010
1000
0010
0001
0100
0010
0000
,  // measure 39
0101
0000
0100
0010
1000
0000
1100
0000
,  // measure 40
0010
0001
0100
0000
1100
0100
0010
0000
,  // measure 41
0001
0000
1000
0100
1000
0000
0010
0000
0100
0000
0001
0000
0010
0000
0001
0000
,  // measure 42
0100
0000
0010
1000
0010
0000
0100
0000
0002
0000
0000
0000
0013
0000
0000
0000
,  // measure 43
0011
0000
0000
0110
0000
0000
1100
0000
,  // measure 44
0000
0110
0000
0000
0011
0000
1001
0000
,  // measure 45
1010
0000
0000
0110
0000
0000
0101
0000
,  // measure 46
0000
0110
0000
0000
1010
0000
0101
0000
,  // measure 47
2010
3100
0012
0103
,  // measure 48
0001
0100
0001
1000
0100
1000
0001
0010
0100
1000
0100
0010
,  // measure 49
0001
0000
0000
0101
0000
0000
1100
0000
,  // measure 50
0010
0000
0000
0100
0000
0000
0002
0000
1003
0100
0010
0001
,  // measure 51
1000
0000
1000
0010
0000
0010
0100
0000
0100
0001
0000
0020
,  // measure 52
0000
0000
0031
1000
0010
1000
0001
0100
0001
1000
0000
1000
,  // measure 53
0100
0010
0100
1000
0001
1000
0100
0000
0020
0000
0000
0032
,  // measure 54
0000
0000
0103
0010
0000
0010
2000
0000
0000
3001
0100
0010
,  // measure 55
1000
0000
1000
0100
0000
0100
0010
0000
0001
0000
0000
0200
,  // measure 56
0000
0000
0310
1000
0000
1000
0001
0010
0001
1000
0100
1000
,  // measure 57
0001
0000
0100
0001
0000
0010
0001
0000
0010
0100
0000
2000
,  // measure 58
0000
0000
3010
0100
0000
0100
0002
0000
0000
0013
0000
0100
,  // measure 59
1000
0000
1000
0001
0000
0001
0100
0000
0010
0000
0000
2000
,  // measure 60
0000
0000
3001
0010
0001
0100
0010
1000
0010
1000
0000
0010
,  // measure 61
0100
0001
0100
0001
1000
0100
1000
0000
0010
0000
0000
0200
,  // measure 62
0000
0000
0301
0010
0000
0010
0200
0000
0000
1300
0100
0010
,  // measure 63
0001
0000
0001
0100
0000
0100
0010
0000
1000
0000
0000
0200
,  // measure 64
0000
0000
0310
0001
0000
0001
1000
0010
1000
0001
0100
0001
,  // measure 65
1000
0000
0100
1000
0000
0001
1000
0000
0010
0100
0000
0002
,  // measure 66
0000
0000
0000
0000
0013
0000
0100
0000
0000
0000
0100
0000
1000
0000
0000
0000
1000
0000
0001
0000
0000
0010
0000
0000
,  // measure 67
0012
0000
0003
0021
0000
0030
0012
0000
,  // measure 68
0003
0021
0000
0030
0110
0000
1001
0000
,  // measure 69
2100
0000
3000
1200
0000
0300
2100
0000
,  // measure 70
3000
1200
0000
0300
0011
0000
0011
0000
,  // measure 71
1100
0101
1100
0101
,  // measure 72
1000
0100
1000
0001
0100
0001
1000
0100
0010
0001
0010
0100
,  // measure 73
2000
0000
3000
1200
0000
0300
1100
0000
,  // measure 74
1001
0000
0020
0000
0130
0002
0000
0013
,  // measure 75
0011
0000
1100
0000
0010
0001
0100
0010
,  // measure 76
0100
0001
0010
0100
1000
0010
0100
0000
,  // measure 77
0101
0000
1010
0000
0010
1000
0100
0010
,  // measure 78
0100
1000
0010
0100
0001
0010
0100
0000
,  // measure 79
0101
0000
0100
1000
0010
0000
1010
0000
,  // measure 80
0010
0100
0001
0000
0011
0010
0100
0000
,  // measure 81
0001
0000
1000
0100
1000
0000
0010
0000
0100
0000
0001
0000
0010
0000
0001
0000
,  // measure 82
0100
0000
0010
1000
0010
0000
0100
0000
0002
0000
0000
0000
0013
0000
0000
0000
,  // measure 83
2100
0000
3000
0102
0000
0003
2100
0000
,  // measure 84
3010
0001
0200
0300
;

//---------------dance-single - ----------------
#NOTES:
     dance-single:
     :
     Medium:
     11:
     0.713620,0.732730,0.710875,0.211341,0.235357,520.000000,446.000000,74.000000,22.000000,0.000000,0.000000,0.713620,0.732730,0.710875,0.211341,0.235357,520.000000,446.000000,74.000000,22.000000,0.000000,0.000000:
0000
0000
0000
0000
,
0000
0000
0000
0000
,
0000
0000
0000
0000
,
0001
0100
0001
0100
0010
1000
0010
1000
,
0001
0010
1000
0020
0000
0031
0100
0010
,
1000
0100
1000
0001
0000
0101
0000
2200
,
0000
0000
3300
0000
,
1001
0000
1001
0000
0001
0100
0010
0100
,
0001
0100
0010
0100
0001
0000
1000
0000
,
1100
0000
0010
0001
1000
0100
0010
0100
,
1000
0100
0010
0100
1000
0000
1010
0000
,
0101
0000
0000
1001
0000
0000
1100
0000
,
0000
1001
0000
0000
0011
0000
0110
0000
,
2200
0000
0000
3300
,
0000
0000
0000
0000
,
1000
0100
0010
0000
0001
0100
0010
0000
,
1000
0100
0010
0001
0010
0100
1000
0000
,
0001
0100
0001
0100
1000
0100
1000
0100
,
0001
0100
1000
0100
0001
0000
0110
0000
,
1000
0100
1000
0100
0001
0100
0001
0100
,
0010
0001
0100
0010
1000
0100
0010
0000
,
0001
0100
0001
0100
1000
0100
1000
0100
,
0001
0100
1000
0100
0001
0000
0110
0000
,
1000
0100
1000
0100
0001
0100
0010
0001
,
0000
0001
0010
0100
1000
0010
0100
0000
,
0100
0001
0000
0011
0000
1010
0000
1100
,
0000
0100
0001
1000
0001
0000
0110
0000
,
0010
0100
1000
0100
0010
0001
0000
0101
,
0000
1100
0000
0010
0001
0010
0200
0000
,
1300
0100
0001
0100
0000
1100
0000
1010
,
0000
0100
0010
0100
0002
0000
1003
0000
,
1000
0100
0001
0100
1000
0100
0010
0002
,
0000
1003
0010
0100
0010
1000
0200
0000
,
1300
0010
1000
0010
0100
0001
0100
0001
,
0010
0100
1000
0100
0010
0000
0001
0000
,
1001
0000
0201
0000
0000
1000
0000
0010
,
0000
0001
0000
0310
1000
0000
1100
0000
,
0011
0000
0100
1000
0010
0200
0000
0001
,
0000
0010
0000
0301
1000
0100
0010
0000
,
1001
0000
0001
0100
0010
2000
0000
0100
,
0000
3001
0100
0001
0010
0100
1000
0000
,
0100
0010
0001
1000
0001
1000
0010
0100
,
0001
0010
0100
0000
2000
0000
3001
0000
,
0101
0000
0000
1100
0000
0000
0101
0000
,
0000
1100
0000
0000
0110
0000
0011
0000
,
1100
0000
0000
0101
0000
0000
1100
0000
,
0000
0101
0000
0000
0110
0000
1010
0000
,
0101
0101
0101
0101
,
0001
0010
0001
0010
0000
0000
0100
1000
0100
1000
0000
0000
,
1010
0000
0000
1010
0000
0000
1010
0000
,
0010
0000
0000
0100
0000
0000
0001
0000
1000
0010
0000
0000
,
1000
0000
1000
0100
0000
0000
0001
0000
0001
0100
0000
0000
,
1000
0000
1000
0100
0000
0100
0010
0000
0010
0001
0000
0001
,
0100
0000
0100
0010
0000
0000
1000
0000
1000
0001
0000
0000
,
0010
0000
0010
0100
0000
0100
2000
0000
0000
3010
0000
0000
,
1000
0000
1000
0100
0000
0000
0001
0000
0001
0100
0000
0000
,
1000
0000
1000
0010
0000
0010
0100
0000
0100
0001
0000
0001
,
1000
0000
1000
0010
0000
0010
0001
0000
0001
0010
0000
0000
,
0100
0000
0001
0100
0000
0001
2000
0000
0000
3100
0000
0000
,
1000
0000
1000
0100
0000
0000
0001
0000
0001
0100
0000
0000
,
1000
0000
1000
0100
0000
0100
0010
0000
0010
0001
0000
0001
,
0100
0000
0100
0010
0000
0000
1000
0000
1000
0001
0000
0000
,
0010
0000
0010
0100
0000
0100
2000
0000
0000
3010
0000
0000
,
1000
0000
1000
0100
0000
0000
0001
0000
0001
0100
0000
0000
,
1000
0000
1000
0010
0000
0010
0100
0000
0100
0001
0000
0001
,
1000
0000
1000
0010
0000
0010
0001
0000
0001
0010
0000
0000
,
0100
0000
0001
0100
0000
0001
2000
0000
0000
3100
0000
0000
,
1100
0000
0000
0101
0000
0000
1100
0000
,
0000
0101
0000
0000
1001
0000
0110
0000
,
0101
0000
0000
1100
0000
0000
0101
0000
,
0000
1100
0000
0000
0110
0000
0110
0000
,
1010
1010
1100
1100
,
0010
0000
0010
0001
0000
0000
1000
0000
1000
0100
0000
0000
,
0011
0000
0000
1001
0000
0000
0101
0000
,
0110
0000
0010
0000
1000
0100
0000
0010
,
0001
0000
0201
0000
0000
1000
0000
0010
,
0000
0001
0000
0310
1000
0000
1100
0000
,
0011
0000
0100
1000
0010
0200
0000
0001
,
0000
0010
0000
0301
1000
0100
0010
0000
,
1001
0000
0001
0100
0010
2000
0000
0100
,
0000
3001
0100
0001
0010
0100
1000
0000
,
0100
0010
0001
1000
0001
1000
0010
0100
,
0001
0010
0001
0000
2000
0000
3001
0000
,
0011
0000
0000
0110
0000
0000
1100
0000
,
1000
0010
0200
0300
;

//---------------dance-single - ----------------
#NOTES:
     dance-single:
     :
     Easy:
     8:
     0.496789,0.568220,0.413076,0.489928,0.028819,362.000000,319.000000,43.000000,51.000000,0.000000,0.000000,0.496789,0.568220,0.413076,0.489928,0.028819,362.000000,319.000000,43.000000,51.000000,0.000000,0.000000:
0000
0000
0000
0000
,
0000
0000
0000
0000
,
0000
0000
0000
0000
,
0001
0010
0100
0100
,
1000
0100
1000
0001
0000
0001
0100
0000
,
0001
1000
0101
1100
,
2002
0000
0000
3003
,
0010
0020
0031
1000
,
1100
0100
0110
0001
,
1000
0000
0001
0100
0000
0000
0010
0000
,
1001
0100
1100
0001
,
0020
0000
0000
0032
0000
0000
0203
0000
,
0000
2300
0000
0000
3020
0000
0031
0000
,
0202
0000
0000
0303
,
0000
0000
0000
0000
,
1000
1000
0100
0100
,
0010
0000
0010
0001
0000
1000
0020
0000
,
0130
0001
0100
0100
,
0010
1000
0010
0000
1010
0000
0000
0000
,
0100
1000
0100
0100
,
0010
0001
0010
0000
0110
0000
0110
0000
,
0001
0001
0100
0100
,
0010
1000
0010
0000
1010
0000
0000
0000
,
1000
0000
1000
0000
0100
0000
0100
0010
,
0000
0010
0001
0000
1000
0000
1001
0000
,
0001
0100
1000
0100
,
0001
0000
0100
0000
0010
1000
0010
0000
,
1000
0100
0001
0100
,
1000
0000
0100
0000
0010
0001
0010
0000
,
0001
0100
0001
0100
,
0010
1000
0010
1000
,
0100
1000
0100
0000
0010
0001
0010
0000
,
0001
1000
1001
1001
,
0010
0010
0010
0010
,
0100
0100
0002
1003
,
1100
0000
0002
0000
0000
0013
0000
0100
,
0000
1000
0000
0100
0010
0000
0001
0000
,
0101
0000
0200
0000
0000
0310
0000
1000
,
0000
0010
0000
0100
0001
0000
1000
0000
,
1100
0000
0200
0000
0000
0310
0000
0001
,
0000
0010
0000
0100
1000
0000
0010
0000
,
0101
0000
0200
0000
0000
0310
0000
1000
,
0000
1000
0100
0000
0010
0000
0001
0000
,
0201
0000
0000
0302
0000
0000
0203
0000
,
0000
0302
0000
0000
0023
0000
0130
0000
,
2000
0000
0000
3200
0000
0000
2300
0000
,
0000
3200
0000
0000
0320
0000
0031
0000
,
0101
0100
1010
0010
,
1100
1000
0001
0100
,
0210
0000
0000
0010
0000
0000
0310
0000
,
2000
3002
0103
0000
,
0001
1000
0100
1000
,
0001
1000
0100
1000
,
1010
0010
0101
0100
,
0001
0000
0001
0010
0000
0000
0200
0000
0000
1300
0000
0000
,
1000
0001
0100
0001
,
1000
0001
0100
0001
,
0011
0010
1100
0100
,
1000
0000
1000
0001
0000
0001
2000
0000
0000
3100
0000
0000
,
1000
0010
0100
0010
,
1000
0010
0100
0110
,
0001
0010
0100
1000
,
0100
0000
0100
0010
0000
0000
0002
0000
0000
0103
0000
0000
,
0001
0010
0100
0010
,
0001
0010
0100
0110
,
1000
0100
0010
0001
,
0100
0000
0100
0010
0000
0010
0100
0000
0000
0001
0000
0000
,
2100
0000
0000
3002
0000
0000
0203
0000
,
0000
0302
0000
0000
1003
0000
0101
0000
,
2010
0000
0000
3002
0000
0000
0023
0000
,
0000
0032
0000
0000
1003
0000
0110
0000
,
0101
0001
0011
0010
,
1100
0100
0010
0001
,
2100
0000
0000
3020
0000
0000
0130
0000
,
0101
0000
0001
0000
1000
0100
0000
0010
,
0001
0000
0002
0000
0000
0013
0000
0100
,
0000
1000
0000
0100
0010
0000
0001
0000
,
0101
0000
0200
0000
0000
0310
0000
1000
,
0000
0010
0000
0100
0001
0000
1000
0000
,
1100
0000
0200
0000
0000
0310
0000
0001
,
0000
0010
0000
0100
1000
0000
0010
0000
,
0101
0000
0200
0000
0000
0310
0000
1000
,
0000
1000
0100
0000
0010
0000
0001
0000
,
2001
0000
0000
3002
0000
0000
2003
0000
,
3200
0320
0031
0000
;

//---------------dance-single - ----------------
#NOTES:
     dance-single:
     :
     Beginner:
     2:
     0.245650,0.284951,0.048032,0.009606,0.000000,179.000000,174.000000,5.000000,1.000000,0.000000,0.000000,0.245650,0.284951,0.048032,0.009606,0.000000,179.000000,174.000000,5.000000,1.000000,0.000000,0.000000:
0000
0000
0000
0000
,
0000
0000
0000
0000
,
0000
0000
0000
0000
,
0001
0000
0001
0000
,
1000
0000
1000
0000
,
0010
0100
0010
0010
,
0100
0000
0000
0000
,
0000
0000
0001
1000
,
0001
0000
0001
0000
,
1000
0000
1000
0001
,
1000
0000
0001
0000
,
0010
0000
0100
0000
,
0010
0000
0100
0000
,
1001
0000
0000
0000
,
0000
0000
0000
0000
,
0010
0000
0010
0000
,
1000
0001
1000
0000
,
0001
0000
0010
0000
,
0001
0001
1000
0000
,
1000
0000
0010
0000
,
1000
0001
1000
0001
,
0100
0000
0010
0000
,
0100
0100
0001
0000
,
0100
0000
0100
0000
,
0010
1000
0010
0000
,
0001
1000
0001
0000
,
0010
0000
0010
0000
,
1000
0010
1000
0000
,
0010
0000
0010
0000
,
0001
0100
0001
0000
,
1000
0000
0001
0000
,
0010
0000
0010
0000
,
0100
0010
0100
0000
,
1000
0000
1000
0000
,
0100
0000
0100
0000
,
0010
0000
0001
0000
,
1000
0001
0100
0000
,
0010
0000
0010
0000
,
1000
0001
0100
0000
,
0010
0000
1000
0000
,
0100
0010
0001
0000
,
1000
0000
0001
0000
,
0100
0010
1000
0000
,
0001
0000
0000
0000
,
0000
0000
0100
0010
,
0001
0000
0000
0000
,
0000
0000
0100
0010
,
1000
0000
1000
0000
,
0001
0000
0001
0000
,
1001
0000
0000
0000
,
0000
0000
0000
0000
,
0010
0000
1000
0000
,
0100
0000
0001
0000
,
0100
0000
1000
0000
,
0010
0000
0010
0000
,
0100
0000
0001
0000
,
0010
0000
1000
0000
,
0010
0000
0001
0000
,
0100
0000
0100
0000
,
0001
0000
0010
0000
,
0100
0000
1000
0000
,
0100
0000
0010
0000
,
0001
0000
1001
0000
,
1000
0000
0010
0000
,
0100
0000
0001
0000
,
0100
0000
0010
0000
,
1000
0000
1001
0000
,
0001
0000
0001
0000
,
0001
0000
1000
0000
,
0010
0000
0010
0000
,
0010
0000
0100
0000
,
0001
0000
0001
0000
,
1000
0000
1000
0000
,
1001
0000
0000
0000
,
0010
0000
0000
0000
,
0100
0000
0010
0000
,
0100
0010
0100
0000
,
0001
0000
1000
0000
,
0001
1000
0001
0000
,
1000
0000
0100
0000
,
0010
0001
0010
0000
,
0100
0000
1000
0000
,
0001
0100
0001
0000
,
0010
0000
0100
0000
,
1000
0000
0200
0300
;
