#TITLE:Never See You Again;
#SUBTITLE:;
#ARTIST:Bemani Sound Team "U1 overground";
#TITLETRANSLIT:;
#SUBTITLETRANSLIT:;
#ARTISTTRANSLIT:;
#GENRE:;
#CREDIT:;
#BANNER:Never See You Again.png;
#BACKGROUND:Never See You Again-bg.png;
#LYRICSPATH:;
#CDTITLE:;
#MUSIC:Never See You Again.ogg;
#OFFSET:-1.149921;
#SAMPLESTART:26.647459;
#SAMPLELENGTH:12.000000;
#SELECTABLE:YES;
#BPMS:0.000000=160.000000
,68.000000=80.000000
,84.000000=160.000000
;
#STOPS:
;
#BGCHANGES:;
#KEYSOUNDS:;
#ATTACKS:;

//---------------dance-single - ----------------
#NOTES:
     dance-single:
     :
     Hard:
     15:
     0.697433,1.081814,0.118881,0.388343,0.800463,616.000000,601.000000,15.000000,49.000000,0.000000,0.000000,0.697433,1.081814,0.118881,0.388343,0.800463,616.000000,601.000000,15.000000,49.000000,0.000000,0.000000:
0000
0000
0000
0000
,
0000
0000
0000
0000
,
0000
0000
0000
0000
,
0000
0000
0000
0000
,
0000
0000
0000
0000
,
0001
0100
0010
1000
0100
0010
0001
0000
,
1000
0100
0010
0100
1000
0010
0100
0001
,
0020
0000
0000
0000
,
0030
0000
0000
0000
,
0001
0000
0100
0000
0010
1000
0000
0010
1000
0000
0100
0000
0010
0001
0010
0000
,
0100
1000
0020
0000
0130
0001
0010
0001
,
1000
0000
0100
0000
0010
0001
0000
0010
0001
0000
0100
0000
0010
1000
0010
0000
,
0100
0001
0010
0000
0200
0000
2300
0000
,
3001
0000
0000
0000
0000
0000
0100
0000
0000
0000
0000
0000
0010
0000
0000
1000
0000
0000
0000
0000
0000
0010
0000
0000
1000
0000
0000
0000
0100
0000
0000
0000
1000
0000
0000
0000
0001
0000
0000
0000
0100
0000
0000
0000
0001
0000
0000
0000
,
0010
0000
0100
0000
0020
0000
0000
0000
0031
0000
0100
0000
0010
0000
1000
0001
,
1000
0100
0010
0001
0100
0010
1000
0100
1000
0000
0010
0000
0100
0000
0001
0000
,
1000
0100
1000
0010
0100
0010
1000
0100
0010
0001
0000
0000
,
1000
0000
0000
0000
0000
0000
0000
0000
0000
0000
0000
0000
0000
0000
0000
0000
0000
0000
0010
0000
0000
0000
0000
0000
0200
0000
0000
0000
0000
0000
0000
0000
0000
0000
0000
0000
0000
0000
0000
0000
0000
0000
0000
0000
0000
0000
0000
0000
0301
0000
0000
0000
0000
0000
0000
0000
1000
0000
0000
0000
0000
0000
0000
0000
0001
0000
0000
0000
0000
0000
0000
0000
0010
0000
0000
0000
0000
0000
0000
0000
0100
0000
0000
0000
0000
0000
0000
0000
1000
0000
0000
0000
0000
0000
0000
0000
0001
0000
0000
0000
0000
0000
0000
0000
0000
0000
0000
0000
0100
0000
0000
0000
0000
0000
0000
0000
0000
0000
0000
0000
1000
0000
0000
0000
0000
0000
0000
0000
0000
0000
0000
0000
0000
0000
0000
0000
0000
0000
0000
0000
0000
0000
0000
0000
0100
0000
0000
0000
0000
0000
0000
0000
0000
0000
0000
0000
0010
0000
0000
0000
0000
0000
0000
0000
0000
0000
0000
0000
1000
0000
0000
0000
0000
0000
0001
0000
0000
0000
0000
0000
1000
0000
0000
0000
0000
0000
0000
0000
0000
0000
0000
0000
,
0100
0000
0000
0000
0000
0000
0000
0000
0000
0000
0000
0000
0010
0000
0000
0000
0000
0000
0000
0000
0000
0000
0000
0000
0001
0000
0000
0000
0000
0000
0000
0000
0000
0000
0000
0000
0000
0000
0000
0000
0000
0000
0000
0000
0000
0000
0000
0000
0011
0000
0000
0000
0000
0000
0000
0000
0000
0000
0000
0000
0000
0000
0000
0000
0000
0000
0001
0000
0000
0000
0000
0000
1000
0000
0000
0000
0000
0000
0000
0000
0000
0000
0000
0000
0010
0000
0000
0000
0000
0000
0000
0000
0000
0000
0000
0000
0100
0000
0000
0000
0000
0000
0000
0000
0000
0000
0000
0000
0001
0000
0000
0000
0000
0000
0000
0000
0000
0000
0000
0000
0001
0000
0000
0000
0000
0000
0000
0000
0000
0000
0000
0000
0001
0000
0000
0000
0000
0000
0000
0000
0000
0000
0000
0000
1000
0000
0000
0000
0000
0000
0000
0000
0100
0000
0000
0000
0000
0000
0000
0000
0010
0000
0000
0000
0000
0000
0000
0000
0001
0000
0000
0000
0000
0000
0000
0000
0000
0000
0000
0000
0100
0000
0000
0000
0000
0000
0000
0000
0000
0000
0000
0000
,
0001
0010
0200
0000
2300
0000
3001
0100
0001
0000
0100
0001
0011
0000
1010
0000
,
1000
0000
0001
0100
0001
0000
0010
0000
0100
0000
0000
0000
1000
0000
0010
0000
2000
0000
0000
0000
3001
0000
0100
0000
1000
0000
0100
0000
0001
0000
0010
0000
,
0100
0000
0110
0000
0001
0100
1000
0100
,
0002
0000
0000
0000
0023
0000
0000
0000
0031
0000
1000
0000
0010
0100
0001
0000
,
1000
0100
0021
0000
0130
1000
0010
1000
,
0100
0000
0000
0010
0000
0000
0010
0000
0000
0010
0000
0000
0001
0000
0100
0000
0010
0000
1000
0000
0000
0100
0000
0000
,
1000
0010
1020
0000
0230
0000
0301
1000
,
0100
0000
0010
0000
0001
0100
0001
0000
0000
0000
1000
0100
1000
0000
0010
0000
,
0100
0010
1020
0000
0130
0001
1000
0001
,
0020
0000
0000
0000
0130
0000
1000
0000
0010
0100
0010
0000
1000
0000
0100
0000
,
0010
0000
0000
0001
0000
0000
0010
0000
0000
0001
0000
0000
2000
0000
0000
0000
0000
0000
0000
0000
0000
0000
0000
0000
3010
0000
0000
0100
0000
0000
0010
0000
0000
0000
0000
0000
1000
0000
0000
0000
0100
0000
0000
0000
1000
0000
0000
0000
,
0010
0000
0000
0000
0000
0000
0010
0000
0000
0100
0000
0000
0002
0000
0000
0000
0000
0000
0000
0000
0000
0000
0000
0000
1003
0000
0000
0000
0100
0000
0000
0000
1000
0000
0000
0000
0010
0000
0000
0000
0000
0000
0010
0000
0000
0000
0000
0000
,
0100
0001
1000
0001
0020
0000
0130
1000
,
0001
0000
0000
1000
0000
0000
0010
0000
0000
1000
0000
0000
0100
0000
0010
0000
0001
0000
1000
0000
0010
0000
0100
0000
,
0001
0000
0000
1000
0000
0000
0001
0000
0000
1000
0000
0000
0020
0000
0000
0000
0000
0000
0000
0000
0000
0000
0000
0000
0130
0000
0000
0001
0000
0000
0100
0000
0000
0000
0000
0000
0001
0000
0000
0000
0010
0000
0000
0000
0100
0000
0000
0000
,
1000
0000
1000
0100
0010
0000
0010
0000
0001
0100
0001
0100
0010
0000
1000
0000
,
0100
0010
0001
0010
2000
0000
3001
0100
,
1000
0000
0000
1000
0000
0000
0010
0000
0000
0010
0000
0000
0100
0000
0001
0000
1000
0000
0100
0000
0010
0000
0001
0000
,
0100
0000
0000
0000
0101
0000
0000
0000
0010
0000
0000
0110
0000
0010
1000
0000
,
0001
0000
0000
0000
0101
0000
0000
0000
0010
0000
0000
0110
0000
0010
1000
0001
,
0100
0000
0000
0000
0101
0000
0000
0000
0010
0000
0000
0110
0000
0010
1000
0000
,
0001
0000
0000
0000
0101
0000
0000
0000
0010
0000
0000
0110
0000
0010
1000
0000
,
0001
0000
0100
0000
0001
0000
1000
0000
0010
1000
0010
1000
0100
0010
0100
0000
,
1000
0000
0001
0000
0100
0010
0100
0000
0010
1000
0001
1000
0100
0000
0000
0000
,
0001
0100
1000
0010
0001
0010
1000
0100
,
0010
0000
0010
0001
2000
0000
0000
0000
3010
0000
0100
0001
0100
0000
0010
0000
,
0200
0000
0000
0000
,
0320
0000
0000
0000
,
2030
0000
0000
0000
,
3002
0000
0000
0000
,
0023
0100
0100
0100
,
0032
1000
1000
1000
,
0203
0010
0010
0010
,
0302
1000
1000
1000
,
0013
0000
0001
0000
0100
0010
1000
0010
0100
0000
0001
0000
0010
0000
0100
1000
,
0002
0000
0013
0100
1000
0000
1000
0000
,
1000
0000
0100
0000
0010
0001
1000
0001
0010
0000
0100
0000
1000
0000
0010
0100
,
0002
0000
1003
0100
0020
0000
0031
1000
,
0001
0000
0100
0000
0010
1000
0001
1000
0010
0000
0100
0000
0001
0000
0010
0000
,
0200
0000
0000
0000
1300
0000
0010
0000
1000
0000
0100
0000
0010
0000
0001
1000
,
0001
0000
0000
0000
0000
0000
0100
0000
0000
0000
0000
0000
0010
0000
0000
1000
0000
0000
0001
0000
0000
1000
0000
0000
0010
0000
0000
0000
0000
0000
0100
0000
0000
0000
0000
0000
0001
0000
0000
0000
0000
0000
0010
0000
0100
0000
0000
0000
,
2000
0000
3010
0100
0002
0000
0013
0000
,
0001
1000
0010
1000
0001
0100
0010
0100
0001
1000
0100
1000
,
0020
0000
0230
0000
0302
0000
0023
0000
0230
0000
2300
0000
,
3001
0100
0010
0100
0001
0010
0100
0010
0001
1000
0010
0100
,
0001
1000
0100
1000
0001
0100
0020
0000
2030
0000
3200
0000
,
0310
0001
0010
0100
1000
0001
1000
0010
0100
0001
1000
0001
,
0010
0100
1000
0001
0100
0001
1000
0100
0010
0100
1000
0001
,
0100
0010
1000
0010
0100
0010
1000
0001
0010
0001
1000
0001
,
0010
0100
1000
0100
0010
0001
1000
0010
0100
0001
0000
0000
,
1000
0100
0010
0001
1000
0000
0001
0010
0100
1000
0001
0000
1000
0001
0000
0000
,
0020
0000
0000
0000
0130
0000
1000
0000
0001
0100
0010
1000
0002
0000
0000
0000
,
1003
0100
0010
0001
0100
0010
1000
0001
1000
0100
0010
0001
0100
0010
1000
0001
,
1000
0010
0000
0100
0000
0100
0000
0001
1000
0000
0001
0000
0020
0000
0030
0001
,
1000
0000
0010
1000
0000
0001
1000
0000
0100
1000
0000
0001
1000
0000
0010
0100
,
0001
0100
0010
0000
1000
0010
0000
1000
0001
0000
1000
0100
0000
0000
0010
0000
,
0001
0010
0100
1000
0001
0100
0001
0010
0100
1000
0010
0100
0001
0010
0001
0100
,
0020
0000
0000
0000
,
0000
0000
0000
0000
,
0030
0000
0000
0000
;

//---------------dance-single - ----------------
#NOTES:
     dance-single:
     :
     Medium:
     10:
     0.443821,0.640767,0.079254,0.293239,0.162470,392.000000,382.000000,10.000000,37.000000,0.000000,0.000000,0.443821,0.640767,0.079254,0.293239,0.162470,392.000000,382.000000,10.000000,37.000000,0.000000,0.000000:
// measure 0
0000
0000
0000
0000
,  // measure 1
0000
0000
0000
0000
,  // measure 2
0000
0000
0000
0000
,  // measure 3
0000
0000
0000
0000
,  // measure 4
0000
0000
0000
0000
,  // measure 5
0001
0100
0001
0000
1000
0100
0010
0000
,  // measure 6
0001
0010
0001
0000
0100
0000
0010
0000
,  // measure 7
2000
0000
0000
0000
,  // measure 8
3000
0000
0000
0000
,  // measure 9
0001
0000
0010
0000
0001
0100
0010
0000
,  // measure 10
2000
3100
0020
0130
,  // measure 11
1000
0000
0010
0000
1000
0100
0010
0000
,  // measure 12
0002
0103
0020
1030
,  // measure 13
0001
0000
0010
0000
0001
0100
0001
0100
,  // measure 14
0010
0000
1000
0000
0100
0000
0010
0100
,  // measure 15
1000
0000
0010
0000
0100
0001
1000
0001
,  // measure 16
0010
0000
0100
0000
0010
0000
0001
0000
1000
0000
0001
0000
,  // measure 17
0100
0000
0010
0000
2000
0000
0000
0000
3100
0000
0010
0000
0001
1000
0001
0000
,  // measure 18
1000
0000
0100
0000
0010
0000
0001
0000
1000
0010
1000
0010
0100
0000
0001
1000
,  // measure 19
0100
0000
0010
0000
0002
0000
0000
0000
1003
0000
0010
0100
0010
0000
0010
0000
,  // measure 20
1000
0000
0200
0000
0301
0000
0200
0000
1300
0000
0001
0010
0100
1000
0010
0000
,  // measure 21
0100
0000
1010
0000
1000
0100
0001
0100
,  // measure 22
1000
0000
1010
0000
0001
0100
0001
0000
,  // measure 23
0010
0011
0100
1100
,  // measure 24
1000
0010
0001
0010
2000
0000
3100
0010
,  // measure 25
0100
0000
2000
0000
3002
0000
0103
0010
,  // measure 26
1000
0000
0001
0010
0000
0001
1000
0010
,  // measure 27
1000
1200
0310
0201
,  // measure 28
0310
0000
1000
0100
0001
0100
1000
0000
,  // measure 29
0001
0010
0001
0000
1000
0100
0001
0100
,  // measure 30
1000
0010
1000
0000
0001
0100
0001
0000
,  // measure 31
2000
0000
3100
0000
0020
0000
0031
1000
,  // measure 32
0001
0100
0001
0100
0010
0000
0010
0000
,  // measure 33
1000
0010
1000
0000
0001
0100
1000
0100
,  // measure 34
0001
0010
0001
0000
1000
0100
1000
0000
,  // measure 35
0020
0000
0130
0000
0002
0000
1003
0100
,  // measure 36
0010
0001
0010
0001
0100
0000
0100
0000
,  // measure 37
0010
0000
1000
0000
1010
0000
1000
0100
,  // measure 38
0010
0000
0001
0000
0011
0000
0001
0100
,  // measure 39
0010
0000
1000
0000
1010
0000
1000
0100
,  // measure 40
0010
0000
0001
0000
0011
0000
0001
0100
,  // measure 41
0020
0000
1030
0000
0001
0010
0100
0010
,  // measure 42
0001
0000
1000
0000
0001
0010
0001
0000
,  // measure 43
1000
0100
0010
0001
0010
0100
1000
0000
,  // measure 44
0001
0000
0100
0000
0001
0000
0000
0000
0010
0000
0000
0100
0000
0000
1000
0000
,  // measure 45
0002
0000
0000
0000
,  // measure 46
0203
0000
0000
0000
,  // measure 47
2300
0000
0000
0000
,  // measure 48
3200
0000
0000
0000
,  // measure 49
0301
0001
0010
0010
,  // measure 50
1000
1000
0100
0100
,  // measure 51
0001
0001
0010
0010
,  // measure 52
0100
0100
1000
1000
,  // measure 53
0001
0000
0010
0000
0001
1000
0010
1000
,  // measure 54
0002
0013
0100
0100
,  // measure 55
1000
0000
0010
0000
1000
0001
0010
0001
,  // measure 56
2000
3100
0020
0031
,  // measure 57
2000
0000
3010
0000
0100
0001
1000
0001
,  // measure 58
0200
0000
0310
0000
1000
0001
0100
0001
,  // measure 59
2000
0000
3100
0000
0010
0001
0010
0100
,  // measure 60
1000
0000
0000
0000
,  // measure 61
1000
0000
0100
0000
0010
0000
0001
0000
0100
0000
0010
0000
,  // measure 62
2000
0000
3001
0000
1000
0000
0200
0000
0310
0000
0100
0000
,  // measure 63
1000
0000
0010
0000
0100
0000
0001
0000
0010
0000
0100
0000
,  // measure 64
2000
0000
3010
0000
1000
0000
0002
0000
0013
0000
0001
0000
,  // measure 65
1000
0000
0100
0000
0010
0000
1000
0000
0100
0000
0010
0000
,  // measure 66
0001
0000
0010
0000
0100
0000
0001
0000
0010
0000
0100
0000
,  // measure 67
0001
0000
1000
0000
0010
0000
0100
0000
0010
0000
1000
0000
,  // measure 68
0100
0000
0000
0000
0010
0000
0000
0000
0000
0000
0000
0000
0000
0000
0000
0100
0000
0000
2000
0000
0000
0000
0000
0000
,  // measure 69
3001
0010
0100
1000
0010
0100
0001
0000
,  // measure 70
1000
0100
0001
0000
1000
0100
0020
0000
,  // measure 71
1030
0100
0010
0001
1000
0100
0010
0001
,  // measure 72
0100
0010
1000
0010
0100
0001
0020
0000
,  // measure 73
0130
1000
0001
1000
0100
1000
0001
1000
,  // measure 74
0010
0100
0001
0100
0010
1000
0001
0000
,  // measure 75
1000
0100
1000
0100
0001
0100
1000
0010
,  // measure 76
0200
0000
0000
0000
,  // measure 77
0300
0000
0000
0000
;

//---------------dance-single - ----------------
#NOTES:
     dance-single:
     :
     Easy:
     7:
     0.335130,0.427178,0.023776,0.277388,0.083216,296.000000,293.000000,3.000000,35.000000,0.000000,0.000000,0.335130,0.427178,0.023776,0.277388,0.083216,296.000000,293.000000,3.000000,35.000000,0.000000,0.000000:
0000
0000
0000
0000
,
0000
0000
0000
0000
,
0000
0000
0000
0000
,
0000
0000
0000
0000
,
0000
0000
0000
0000
,
0001
0100
0001
1000
,
0100
0010
0001
0100
,
0020
0000
0000
0000
,
0030
0000
0000
0000
,
1000
0010
1000
0010
,
0100
0000
0001
0000
0010
0100
0010
0000
,
0001
0010
0001
0010
,
0100
1000
0020
0130
,
0001
0000
0100
0000
0010
1000
0010
0000
,
0100
0000
0001
0000
0010
0100
0010
0000
,
0001
1000
0100
1000
,
0010
0000
0100
0000
,
0101
0000
0010
0000
1000
0100
0010
0100
,
1000
0000
0010
0000
0100
0001
1000
1000
,
0200
0000
0300
0000
0010
0001
1000
1000
,
0001
0100
1000
0100
0001
0010
0100
0000
,
1000
0000
0010
0000
1000
0001
1000
0000
,
0100
0010
1001
1001
,
0100
0000
0010
0000
1000
0100
1000
0000
,
0010
0100
0001
0001
,
1000
0200
0320
0032
,
1003
0000
0001
0100
0000
0010
1000
0000
,
0001
0000
0020
0000
0130
0000
1000
0001
,
1000
0000
0001
0100
0001
0000
0001
0000
,
1000
0000
0100
0000
0010
0001
0010
0000
,
0100
1000
0010
0010
,
0200
0002
0303
0000
,
1000
0000
0001
0000
1000
0010
1000
0010
,
0100
0000
0001
0000
1000
0010
1000
0000
,
0001
0010
0100
0100
,
2000
0020
3030
0000
,
0100
0000
0001
0000
1000
0100
0010
0100
,
2000
0000
3020
0000
,
0230
0000
0302
0000
,
1003
0100
0010
0010
,
0001
0100
0010
0010
,
1000
0000
0100
0000
0010
0001
0010
0000
,
0100
0000
1000
0000
0001
0010
0001
0000
,
2000
3020
0032
0203
,
1300
0001
1000
0000
0010
0000
0100
0000
,
0002
0000
0000
0000
,
0023
0000
0000
0000
,
0230
0000
0000
0000
,
0320
0000
0000
0000
,
0031
0001
0100
0100
,
0010
0010
1000
1000
,
0100
0010
0001
0010
,
0100
1000
0001
0100
,
0001
0000
0010
0000
0001
1000
0001
0000
,
0200
0020
0330
0000
,
1000
0000
0010
0000
1000
0100
1000
0000
,
0020
0130
0002
0013
,
0001
0000
1000
0000
0001
0100
0001
0000
,
1000
0000
0001
0000
1000
0100
1000
0000
,
0010
0000
0100
0000
0001
0010
0001
0000
,
1000
0000
0000
0000
,
0001
0000
0010
0000
0001
0000
1000
0000
0010
0000
1000
0000
,
0200
0000
0320
0000
,
0031
0000
0100
0000
0001
0000
1000
0000
0100
0000
1000
0000
,
0020
0000
0230
0000
,
0301
0000
0010
0000
0001
0000
1000
0000
0010
0000
1000
0000
,
0001
0000
0100
0000
0001
0000
1000
0000
0100
0000
1000
0000
,
0010
0000
0100
0000
0010
0000
0100
0000
0010
0000
0100
0000
,
0001
0000
0010
0000
0000
0000
0000
0000
0000
0010
0000
0000
,
0001
0100
0001
0000
1000
0100
1000
0000
,
0020
0230
0302
0013
,
0100
1000
0100
0000
0100
1000
0100
0000
,
0010
0000
0001
0000
1000
0010
1000
0000
,
0001
0100
1000
0100
,
0010
0100
1000
0100
,
0001
0010
0001
0000
1000
0010
1000
0000
,
0200
0000
0000
0000
,
0300
0000
0000
0000
;

//---------------dance-single - ----------------
#NOTES:
     dance-single:
     :
     Beginner:
     3:
     0.197002,0.271048,0.000000,0.007925,0.000000,174.000000,174.000000,0.000000,1.000000,0.000000,0.000000,0.197002,0.271048,0.000000,0.007925,0.000000,174.000000,174.000000,0.000000,1.000000,0.000000,0.000000:
0000
0000
0000
0000
,
0000
0000
0000
0000
,
0000
0000
0000
0000
,
0000
0000
0000
0000
,
0000
0000
0000
0000
,
0001
0000
0001
0000
,
1000
0000
0010
0000
,
0200
0000
0300
0000
,
0000
0000
0000
0000
,
0001
0001
0010
0010
,
0001
0000
1000
0000
,
0001
0001
0100
0100
,
0001
0000
1000
0000
,
0100
0100
0010
0000
,
0001
0001
1000
0000
,
0010
0000
0100
0001
,
1000
0000
0000
0000
,
1000
0010
1000
0010
,
0100
0001
1000
1000
,
0001
0000
0001
0010
,
0100
0100
1000
1000
,
0001
0000
0100
0000
,
0001
1000
0001
0000
,
0010
0100
0010
0100
,
1000
0000
1000
0000
,
0001
0100
0001
0000
,
0010
0000
0100
0000
,
1000
0010
1000
0000
,
0001
0000
0001
0000
,
0100
0100
0010
0010
,
0100
0000
0001
0000
,
1000
0000
1000
0000
,
0100
0100
0100
0000
,
1000
1000
0010
0010
,
1000
0000
0100
0000
,
0010
0001
0010
0000
,
0100
0100
0100
0000
,
1000
0000
0010
0000
,
0001
0000
0010
0000
,
1000
0000
0100
0000
,
0001
0000
0100
0000
,
1000
1000
0001
0001
,
0100
0000
0001
0000
,
1000
0100
0010
0000
,
0010
0100
1000
0000
,
0001
0000
0000
0000
,
0100
0000
0000
0000
,
0010
0000
0000
0000
,
0100
0000
0000
0000
,
0001
0000
0001
0000
,
0010
0000
0010
0000
,
0100
0000
0100
0000
,
1000
0000
1000
0000
,
0001
0100
0001
0000
,
0010
0000
0000
0000
,
1000
0100
1000
0000
,
0010
0000
0100
0000
,
0001
1000
0001
0000
,
0100
0010
0100
0000
,
0001
1000
0001
0000
,
0010
0000
0000
0000
,
0001
0000
0001
0000
,
1000
0000
1000
0000
,
0010
0000
0010
0000
,
0100
0000
0100
0000
,
0001
0000
0010
0000
,
1000
0000
0010
0000
,
0001
0000
0100
0000
,
0010
0000
1000
0000
,
0100
1000
0100
0100
,
0010
0000
0001
0000
,
1000
0010
1000
0000
,
0001
0010
0001
0000
,
0100
0000
0100
0000
,
0010
0000
0010
0000
,
1000
0100
1000
0001
,
0100
0000
0000
0000
;
