#TITLE:MAKE ME SO;
#SUBTITLE:;
#ARTIST:YELLOWCARD;
#TITLETRANSLIT:;
#SUBTITLETRANSLIT:;
#ARTISTTRANSLIT:;
#GENRE:;
#CREDIT:;
#BANNER:MAKE ME SO.png;
#BACKGROUND:MAKE ME SO-bg.png;
#LYRICSPATH:;
#CDTITLE:;
#MUSIC:MAKE ME SO.ogg;
#OFFSET:0.440408;
#SAMPLESTART:84.907837;
#SAMPLELENGTH:12.880015;
#SELECTABLE:YES;
#BPMS:0.000000=149.000000
;
#STOPS:
;
#BGCHANGES:;
#KEYSOUNDS:;
#ATTACKS:;

//---------------dance-single - ----------------
#NOTES:
     dance-single:
     :
     Hard:
     11:
     0.509481,0.514437,0.236183,0.433003,0.003936,453.000000,423.000000,30.000000,55.000000,0.000000,0.000000,0.509481,0.514437,0.236183,0.433003,0.003936,453.000000,423.000000,30.000000,55.000000,0.000000,0.000000:
// measure 0
0000
0000
0000
0000
,  // measure 1
0010
0100
0001
0100
0010
1000
0001
1000
,  // measure 2
0010
0100
0001
0010
0100
1000
0001
1000
,  // measure 3
0020
0100
1000
0130
,  // measure 4
0002
0000
0013
0100
1000
0100
0010
0000
,  // measure 5
0001
0100
0010
0100
0001
1000
0010
1000
,  // measure 6
0100
0010
0001
0010
0100
1000
0001
1000
,  // measure 7
0020
0100
0001
0130
,  // measure 8
2000
0000
3100
0010
0001
1000
0010
1000
,  // measure 9
0002
0000
1003
0010
1000
0000
0002
0000
,  // measure 10
0103
0010
0100
0000
0010
0000
1000
0000
,  // measure 11
0002
0000
0013
0100
0010
0000
0002
0000
,  // measure 12
1003
0100
1000
0000
0001
0000
0010
0000
,  // measure 13
0200
0000
1300
0010
1000
0000
0200
0000
,  // measure 14
0310
0001
0010
0000
0100
0000
1000
0000
,  // measure 15
0002
0000
0103
0010
0100
0000
0002
0000
,  // measure 16
1003
0010
1000
0000
0001
0000
0010
0100
,  // measure 17
2000
0000
3100
0010
0001
0000
2100
0000
,  // measure 18
3001
0010
0001
0000
1000
0000
0010
0000
,  // measure 19
2010
0000
3100
0010
0001
0000
2100
0000
,  // measure 20
3001
0010
0001
0000
0100
0000
0010
0000
,  // measure 21
2010
0000
3001
0100
0010
0000
0201
0000
,  // measure 22
0310
1000
0010
0000
1000
0000
0100
0000
,  // measure 23
2100
0000
3001
0100
0010
0000
0201
0000
,  // measure 24
0310
1000
0010
0000
1000
0000
0100
1000
,  // measure 25
0020
0000
0000
0230
0000
0000
0302
0000
,  // measure 26
0000
0000
0000
0003
,  // measure 27
0010
1000
0001
1000
0010
0100
0001
0100
,  // measure 28
0010
1000
0100
0010
0001
0010
0100
1000
,  // measure 29
0002
0100
1000
0103
,  // measure 30
0020
0000
1030
0100
0010
0001
1000
0000
,  // measure 31
0100
1000
0001
1000
0100
0010
0001
0010
,  // measure 32
0100
1000
0010
0100
0001
0100
0010
1000
,  // measure 33
0200
0010
1000
0310
,  // measure 34
0002
0000
0103
0010
1000
0100
0010
0001
,  // measure 35
2000
0000
3010
0200
0010
0000
0302
0000
,  // measure 36
0013
0100
0010
0000
0001
0000
1000
0000
,  // measure 37
0002
0000
0103
0020
0100
0000
2030
0000
,  // measure 38
3100
0020
0100
0000
0031
0000
0100
0000
,  // measure 39
0002
0000
1003
0200
1000
0000
0320
0000
,  // measure 40
0031
1000
0001
0000
0100
0000
0010
0000
,  // measure 41
2000
0000
3001
0020
0001
0000
0230
0000
,  // measure 42
1300
0001
1000
0000
0010
0000
0100
0001
,  // measure 43
2000
0000
3100
0010
0100
0000
2001
0000
,  // measure 44
3100
0010
0001
0000
1000
0000
1000
0000
,  // measure 45
0002
0000
0103
0010
0100
0000
1002
0000
,  // measure 46
0103
0010
1000
0000
0001
0000
0010
0000
,  // measure 47
0200
0000
1300
0010
1000
0000
1200
0000
,  // measure 48
0310
0001
1000
0000
0010
0000
0010
0000
,  // measure 49
2000
0000
3001
0010
0001
0000
0201
0000
,  // measure 50
0310
1000
0001
0000
0100
0000
0010
1000
,  // measure 51
0002
0000
0000
0023
0000
0000
0230
0000
,  // measure 52
0000
0000
0000
0300
,  // measure 53
0010
1000
0001
1000
0010
0100
0001
0100
,  // measure 54
0010
1000
0100
0010
0001
0010
0100
1000
,  // measure 55
0002
0100
1000
0103
,  // measure 56
0020
0000
1030
0100
0010
0001
1000
0000
,  // measure 57
0100
1000
0001
1000
0100
0010
0001
0010
,  // measure 58
0100
1000
0010
0100
0001
0100
0010
1000
,  // measure 59
0200
0010
1000
0310
,  // measure 60
0002
0000
0103
0010
1000
0100
0001
0100
,  // measure 61
1000
0000
1010
0000
0001
0100
0010
1000
,  // measure 62
0100
1000
0001
1000
0001
0000
0100
0010
,  // measure 63
1000
0001
1000
0010
0100
0000
0101
0000
,  // measure 64
1000
0000
1100
0000
0001
0000
0101
0100
,  // measure 65
0010
0000
1010
0000
0001
0100
0010
1000
,  // measure 66
0100
1000
0001
1000
0001
0000
0100
0010
,  // measure 67
1000
0001
1000
0010
0100
0000
0101
0000
,  // measure 68
1000
0000
0000
0000
1100
0000
0000
0000
0001
0000
1000
0100
1000
0000
0001
0000
,  // measure 69
0010
0000
0110
0000
1100
0000
1000
0010
,  // measure 70
0100
0000
0101
0000
1000
0010
0001
0010
,  // measure 71
1000
0000
0110
0000
0101
0000
1000
0100
,  // measure 72
0010
0000
0011
0000
0001
0100
1000
0100
,  // measure 73
0001
0000
0110
0000
1010
0000
0010
0100
,  // measure 74
0001
0000
0011
0000
1000
0100
0001
0100
,  // measure 75
1000
0000
0110
0000
0011
0000
0001
0100
,  // measure 76
0010
0000
1010
0000
0001
0100
1000
0100
;

//---------------dance-single - ----------------
#NOTES:
     dance-single:
     :
     Medium:
     8:
     0.359898,0.363132,0.023618,0.283420,0.000000,320.000000,317.000000,3.000000,36.000000,0.000000,0.000000,0.359898,0.363132,0.023618,0.283420,0.000000,320.000000,317.000000,3.000000,36.000000,0.000000,0.000000:
0000
0000
0000
0000
,
1000
0100
1000
0000
0001
0000
0010
0000
,
0001
0100
0001
0000
1000
0100
1000
0000
,
0200
1000
0010
1300
,
0002
0000
0103
0000
0010
1000
1000
0000
,
0001
0010
0001
0000
1000
0000
0010
0000
,
1000
0100
1000
0000
0001
0100
0001
0000
,
0020
0001
0100
0031
,
2000
0000
3010
0000
0100
0001
0001
0000
,
1000
0000
0000
0100
0000
0000
0001
0000
,
0000
0010
0000
0000
1000
0000
0100
1000
,
0001
0000
0000
0100
0000
0000
1000
0000
,
0000
0010
0000
0000
0001
0000
0100
0000
,
0001
0000
0000
0100
0000
0000
1000
0000
,
0000
0100
0000
0000
0001
0000
0010
0000
,
1000
0000
0000
0100
0000
0000
0001
0000
,
0000
0100
0000
0000
1000
0000
0001
0000
,
1000
0000
0100
0010
0000
0000
0001
0000
,
0010
0100
1000
0000
0010
0000
0100
0000
,
0001
0000
0100
0010
0000
0000
1000
0000
,
0100
0010
0001
0000
1000
0000
0010
0000
,
0100
0000
0001
0010
0000
0000
0100
0000
,
1000
0010
1000
0000
0100
0000
0010
0000
,
0001
0000
1000
0100
0000
0000
0010
0000
,
0001
0100
0001
0000
0010
0000
0100
0000
,
2000
0000
0000
3020
0000
0000
0230
0000
,
0000
0000
0000
0300
,
0001
0000
1000
0010
0000
0100
0000
0002
,
0000
0000
0010
0000
1003
0100
0010
0100
,
0000
1000
0000
0002
0000
0000
1003
0000
,
0010
0000
1000
0000
0001
0010
0001
0000
,
1000
0000
0100
0010
0000
0001
0000
2000
,
0000
0000
3001
0000
0100
0001
1000
0001
,
0000
0010
0000
0200
0000
0000
1300
0000
,
0100
0001
0100
1000
,
0010
0000
0100
0001
0000
0000
0100
0000
,
0010
1000
0010
0000
1000
0000
0100
0000
,
0010
0000
0001
1000
0000
0000
0010
0000
,
1000
0001
1000
0000
0100
0000
0010
0000
,
0001
0000
1000
0010
0000
0000
0100
0000
,
0010
1000
0010
0000
0100
0000
0001
0000
,
0010
0000
0100
1000
0000
0000
0001
0000
,
1000
0100
1000
0000
0010
0000
0100
0000
,
0001
0000
1000
0000
0100
0010
0001
0020
,
0000
0031
1000
0010
,
1000
0000
0100
0000
0010
0001
0010
0200
,
0000
0000
1300
0000
0001
0100
0001
0000
,
1000
0000
0100
0000
0010
0001
1000
0002
,
0000
0103
0010
1000
,
0001
0000
0010
0000
0100
1000
0001
2000
,
0000
3010
0100
0001
,
0020
0000
0000
0230
0000
0000
2300
0000
,
0000
0000
0000
3000
,
0001
0000
1000
0010
0000
0100
0000
0002
,
0000
0000
0010
0000
1003
0100
0010
0100
,
0000
1000
0000
0002
0000
0000
1003
0000
,
0010
0000
1000
0000
0001
0010
0001
0000
,
1000
0000
0100
0010
0000
0001
0000
2000
,
0000
0000
3001
0000
0100
0001
1000
0001
,
0000
0010
0000
0200
0000
0000
1300
0000
,
0100
0001
0100
1000
,
0020
0000
0130
0000
0001
0100
0010
2000
,
0000
0100
0000
3002
0000
0000
0013
0100
,
0000
0100
0000
0200
0000
0000
1300
0000
,
0001
1000
0010
0100
,
0002
0000
1003
0000
0100
0010
0100
2000
,
0000
0001
0000
3010
0000
0000
0100
0010
,
0000
0010
0000
0020
0000
0000
1030
0000
,
0100
0000
0010
0000
0001
0100
0001
0000
,
1000
0010
0000
0100
0000
0010
0000
1000
,
0000
0001
0000
2002
0000
3003
0000
0000
,
0001
0010
0000
0100
0000
0010
0000
0001
,
0000
1000
0000
2002
0000
3003
0000
0000
,
1000
0010
0000
0100
0000
0001
0000
0100
,
0000
0010
0000
0220
0000
0330
0000
0000
,
1000
0100
0000
0010
0000
0001
0000
0010
,
0000
0100
0000
0020
0031
1000
0001
1000
;

//---------------dance-single - ----------------
#NOTES:
     dance-single:
     :
     Easy:
     5:
     0.326158,0.363132,0.220438,0.196819,0.000000,290.000000,262.000000,28.000000,25.000000,0.000000,0.000000,0.326158,0.363132,0.220438,0.196819,0.000000,290.000000,262.000000,28.000000,25.000000,0.000000,0.000000:
0000
0000
0000
0000
,
0010
1000
0100
0010
,
0100
1000
0010
0100
,
0002
0000
0023
0000
,
0230
0000
1300
1000
,
0001
0100
0010
1000
,
0010
0100
0001
0010
,
0200
0000
2300
0000
,
3020
0000
0130
0001
,
1000
0100
0100
1000
,
0010
0010
0100
0000
,
0001
0100
0100
0001
,
0010
0010
0100
0000
,
1000
0010
0001
1000
,
0100
0001
1000
0000
,
0001
0010
1000
0001
,
0100
1000
0001
0000
,
1000
1010
0000
0110
,
0001
0101
0000
1000
,
0001
0011
0000
0110
,
1000
1100
0001
0100
,
0001
0011
0000
0110
,
0100
1100
0001
1000
,
0001
1010
0000
0110
,
0100
0101
1000
1000
,
0020
0000
0000
0230
0000
0000
0302
0000
,
0000
0000
0000
0003
,
1000
0100
0001
0100
,
1000
0010
0100
0010
,
2000
0100
0000
3001
,
0200
0001
0310
0010
,
1000
0100
0001
0100
,
1000
0010
0100
0001
,
0020
0100
0000
0031
,
0200
0001
0310
1000
,
0001
0010
0010
0001
,
0100
0100
0010
0000
,
1000
0010
0010
1000
,
0100
0100
0010
0000
,
0001
0100
1000
0001
,
0010
1000
0001
0000
,
1000
0100
0001
1000
,
0010
0001
1000
0000
,
0001
0101
0000
0110
,
1000
1010
0000
0001
,
1000
1100
0000
0110
,
0001
0011
1000
0010
,
1000
1100
0000
0110
,
0010
0011
1000
0001
,
1000
0101
0000
0110
,
0010
1010
0001
0001
,
0200
0000
0000
0320
0000
0000
2030
0000
,
0000
0000
0000
3000
,
0001
0010
1000
0010
,
0001
0100
0010
0100
,
0002
0010
0000
1003
,
0020
1000
0130
0100
,
0001
0010
1000
0010
,
0001
0100
0010
1000
,
0200
0010
0000
1300
,
0020
1000
0130
0001
,
1000
0100
1000
0010
,
1000
0100
0010
0001
,
0100
0010
2000
0000
,
3200
0000
0320
0000
,
0031
0100
0001
0010
,
0001
0100
0010
1000
,
0100
0010
0002
0000
,
0203
0000
0310
1000
,
1100
0100
0010
0001
,
0101
0100
0010
1000
,
0001
0100
1000
0100
,
0001
0100
1000
0100
,
0101
0010
1000
0100
,
1100
0010
0001
0100
,
0010
1000
0100
1000
,
0001
0000
0010
0000
0001
0000
0100
0100
;

//---------------dance-single - ----------------
#NOTES:
     dance-single:
     :
     Beginner:
     2:
     0.148458,0.210794,0.000000,0.141710,0.000000,132.000000,132.000000,0.000000,18.000000,0.000000,0.000000,0.148458,0.210794,0.000000,0.141710,0.000000,132.000000,132.000000,0.000000,18.000000,0.000000,0.000000:
0000
0000
0000
0000
,
0010
0000
1000
0000
,
0010
0000
0100
0000
,
0002
0000
0003
0000
,
2000
0000
3000
0000
,
0001
0000
0010
0000
,
0001
0000
1000
0000
,
0020
0000
0030
0000
,
0200
0000
0300
0000
,
0001
0000
0001
0000
,
0001
0000
0000
0000
,
0010
0000
0100
0000
,
0010
0000
0000
0000
,
0001
0000
0001
0000
,
0001
0000
0000
0000
,
0100
0000
0010
0000
,
0100
0000
0000
0000
,
0010
0000
1000
0000
,
0010
0000
0000
0000
,
1000
0000
0100
0000
,
1000
0000
1000
0000
,
0001
0000
0010
0000
,
0100
0000
1000
0000
,
0010
0000
0100
0000
,
0001
1000
0001
0000
,
0010
0000
0000
0200
,
0000
0000
0000
0300
,
0001
0000
0001
0000
,
0010
0000
0010
0000
,
0200
0000
0300
0000
,
0020
0000
0030
0000
,
0001
0000
0001
0000
,
0100
0000
0100
0000
,
0020
0000
0030
0000
,
2000
0000
3000
0000
,
0001
0000
0010
0000
,
0001
0000
0000
0000
,
1000
0000
0010
0000
,
1000
0000
0000
0000
,
0100
0000
0010
0000
,
0100
0000
0000
0000
,
1000
0000
0001
0000
,
1000
0000
0000
0000
,
0010
0000
0100
0000
,
0001
0000
0001
0000
,
0100
0000
0010
0000
,
1000
0000
1000
0000
,
0100
0000
0010
0000
,
0001
1000
0001
0000
,
0010
0000
0100
0000
,
1000
0001
1000
0000
,
0010
0000
0000
0200
,
0000
0000
0000
0300
,
0001
0000
0001
0000
,
0010
0000
0010
0000
,
0200
0000
0300
0000
,
0020
0000
0030
0000
,
0001
0000
0001
0000
,
0100
0000
0100
0000
,
0020
0000
0030
0000
,
2000
0000
3000
0000
,
0001
0000
0100
0000
,
1000
0000
0100
0000
,
0002
0000
0003
0000
,
0020
0000
0030
0000
,
1000
0000
0100
0000
,
0001
0000
0100
0000
,
2000
0000
3000
0000
,
0020
0000
0030
0000
,
1000
1000
1000
0000
,
0010
0010
0010
0000
,
0100
0100
0100
0000
,
0001
0000
1000
0000
,
0001
0001
0001
0000
,
0010
0010
0010
0000
,
0100
0100
0100
0000
,
1000
0000
0001
0000
;
