#TITLE:Kill the Beat;
#SUBTITLE:;
#ARTIST:lapix;
#TITLETRANSLIT:;
#SUBTITLETRANSLIT:;
#ARTISTTRANSLIT:;
#GENRE:;
#CREDIT:;
#BANNER:Kill the Beat.png;
#BACKGROUND:Kill the Beat-bg.png;
#LYRICSPATH:;
#CDTITLE:;
#MUSIC:Kill the Beat.ogg;
#OFFSET:-0.480000;
#SAMPLESTART:28.459995;
#SAMPLELENGTH:16.039991;
#SELECTABLE:YES;
#BPMS:0.000000=120.000000
;
#STOPS:
;
#BGCHANGES:;
#KEYSOUNDS:;
#ATTACKS:;

//---------------dance-single - ----------------
#NOTES:
     dance-single:
     :
     Hard:
     14:
     0.729465,0.687204,0.295572,0.173266,0.881618,501.000000,472.000000,29.000000,17.000000,0.000000,0.000000,0.729465,0.687204,0.295572,0.173266,0.881618,501.000000,472.000000,29.000000,17.000000,0.000000,0.000000:
// measure 0
0000
0000
0000
0000
,  // measure 1
0000
0000
0000
0000
,  // measure 2
0000
0001
0010
0001
1000
0000
0100
0010
0001
0000
0100
0010
2000
0000
3001
0000
,  // measure 3
0000
1000
0100
1000
0010
0000
0100
0001
0100
0000
0010
1000
0002
0000
0013
0000
,  // measure 4
0000
0001
0010
0001
0100
0000
0010
1000
0010
0000
0100
0001
2000
0000
3100
0000
,  // measure 5
0010
0001
1000
0001
0010
0000
0100
1000
0001
0000
0100
0010
2000
0000
3001
0000
,  // measure 6
0000
0000
1000
0100
1000
0000
0010
1000
0010
0000
0100
0001
0100
0001
1000
0100
,  // measure 7
0000
0100
0010
0001
0010
0000
0100
1000
0100
0000
1000
0001
0100
0010
0100
0010
,  // measure 8
0000
0000
1000
0100
1000
0000
0001
0100
0001
0000
0010
0100
1000
0000
0001
0100
,  // measure 9
0001
1000
0000
1000
0010
0000
0010
0100
0000
0100
0001
0000
0010
0000
0100
0000
,  // measure 10
1000
0000
0001
0100
0010
0000
0010
0100
0001
0000
0001
0010
0100
0000
1000
0001
,  // measure 11
1000
0000
0010
1000
0010
0000
1000
0001
1000
0000
0100
1000
0100
0000
0010
0001
,  // measure 12
0010
0100
1000
0100
0001
0100
0010
0001
,  // measure 13
1000
0010
0100
0001
0100
0010
1000
0100
0010
0000
0001
1000
0002
0000
0013
0000
,  // measure 14
0011
0000
0010
0100
1000
0000
1010
0000
0010
0100
0001
0000
0011
0000
1001
0000
,  // measure 15
1010
0000
0010
0100
0001
0000
0011
0000
0010
0100
1000
0000
0010
1000
0000
0000
,  // measure 16
1010
0000
1000
0100
0010
0000
0011
0000
0001
0100
0010
0000
1010
0000
1001
0000
,  // measure 17
0011
0000
0010
0100
1000
0000
1010
0000
0010
0100
0001
1000
0002
0000
0013
0000
,  // measure 18
1100
0000
1000
0010
0100
0000
0101
0000
0001
0010
0100
0000
1100
0000
1001
0000
,  // measure 19
0101
0000
0001
0010
0100
0000
1100
0000
1000
0010
0100
0000
0001
0000
1000
0100
,  // measure 20
1000
0000
0010
0100
0001
0000
0011
0000
0010
0100
1000
0000
1010
0000
0010
0100
,  // measure 21
0001
0010
0000
0010
0100
0000
0100
1000
0000
1000
0001
0100
0020
0000
1030
0000
,  // measure 22
1010
0000
0000
0000
0010
0000
0100
0001
0000
0001
1000
0000
0001
0000
0010
0000
,  // measure 23
0011
0000
0000
0000
0010
0000
0100
1000
0000
1000
0001
0100
0010
0000
1000
0000
,  // measure 24
1100
0000
0000
0000
0010
0000
0001
0100
0000
0100
0010
1000
0001
0000
0100
0000
,  // measure 25
0101
0010
1001
0010
1200
0000
0310
0001
,  // measure 26
1001
0000
0000
0000
0010
0000
0100
1000
0000
1000
0001
0000
0100
0000
0010
0000
,  // measure 27
1010
0000
1000
0000
0010
0000
0100
0001
0000
0001
1000
0100
0010
0000
0001
0000
,  // measure 28
0011
0000
0000
0000
0100
0000
1000
0001
0000
0001
0100
0000
0020
0000
0000
0000
,  // measure 29
1030
0100
0000
0100
0010
0000
0010
0001
0000
0001
1000
0100
0010
0000
0001
0100
,  // measure 30
0010
0000
0000
1000
0000
0000
0001
0000
1000
0100
0000
0010
0000
0001
0000
0010
,  // measure 31
0000
0000
0001
0010
0100
1000
0001
0000
0000
0000
0001
0100
0010
0100
0001
1000
,  // measure 32
0020
0000
0130
0000
0001
0000
1000
0100
0020
0000
0130
0000
1000
0000
0001
1000
,  // measure 33
0020
0000
0130
0000
0001
0000
1000
0100
0010
0100
1000
0010
0100
0001
1000
0100
,  // measure 34
0000
0010
0001
0100
0010
1000
0100
0010
0001
0100
0001
1000
0100
1000
0001
0100
,  // measure 35
0010
0000
0000
1000
0000
0000
0001
0010
0000
0000
1000
0100
0010
0100
1000
0010
,  // measure 36
0100
0001
0000
0010
0001
0000
1000
0100
0000
1000
0010
0000
0100
0001
0000
0001
,  // measure 37
0020
0000
0130
0000
0000
0000
1000
0100
0010
0100
1000
0001
0010
0001
0100
0010
,  // measure 38
1000
0000
0000
0100
0000
0000
0010
0000
0001
1000
0000
0010
0000
0100
0000
0010
,  // measure 39
0000
0000
1000
0100
0010
0001
0100
0000
0001
0000
1000
0100
0010
0100
1000
0001
,  // measure 40
0020
0000
0130
0000
1000
0000
0001
0100
0020
0000
0130
0000
0001
0000
1000
0001
,  // measure 41
0020
0000
0130
0000
1000
0000
0001
0100
0010
0100
0001
0010
0100
1000
0010
0100
,  // measure 42
0000
0010
1000
0100
0010
0001
0100
0010
1000
0100
0010
0001
1000
0000
0001
0100
,  // measure 43
0001
0000
0000
0010
0000
0000
0100
1000
0000
0000
0001
0010
0100
0010
0001
0100
,  // measure 44
0010
1000
0000
0100
1000
0000
0001
0010
0000
0001
0100
0000
0010
1000
0000
1000
,  // measure 45
0100
0000
0001
0000
0100
0000
1000
0010
0100
0010
1000
0010
0100
0001
0010
0100
,  // measure 46
2000
0000
3000
0000
;

//---------------dance-single - ----------------
#NOTES:
     dance-single:
     :
     Medium:
     10:
     0.448453,0.402844,0.020384,0.305764,0.061153,308.000000,306.000000,2.000000,30.000000,0.000000,0.000000,0.448453,0.402844,0.020384,0.305764,0.061153,308.000000,306.000000,2.000000,30.000000,0.000000,0.000000:
0000
0000
0000
0000
,
0000
0000
0000
0000
,
0001
0100
1000
0100
0001
1000
0100
0010
,
0001
0100
1000
0100
0001
1000
0010
0010
,
1000
0100
0001
0100
1000
0001
0010
0100
,
1000
0100
0001
0100
1000
0010
1000
0010
,
0100
0001
1000
0001
0010
0100
0010
0010
,
0100
1000
0001
1000
0010
0100
0010
0100
,
0001
1000
0100
1000
0001
0100
0001
0000
,
0010
0100
1000
0010
0100
0001
2000
0000
,
3001
0100
0002
0000
1000
0000
0010
0000
,
1003
0100
2000
0000
0001
0000
0010
0000
,
3001
0010
0100
0010
0001
0100
1000
0100
,
0001
1000
0001
1000
0001
0000
0010
0100
,
2000
0000
3010
0100
1000
0100
0001
0010
,
0002
0000
0013
0100
0001
0100
2000
0000
,
3002
0000
0013
0100
0001
0100
1000
0001
,
2000
0000
3010
0100
1000
0100
0001
1000
,
0002
0000
1003
0010
0000
0010
1000
0100
,
0020
0000
0031
0100
0000
0100
0001
0010
,
0200
0000
1300
0010
0000
0010
1000
0100
,
0010
0000
0000
0001
0000
0000
0100
0000
0000
0010
0000
0000
1000
0000
0100
0000
,
2000
0000
3010
0100
0001
0100
0010
0010
,
0020
0000
1030
0100
0001
0100
1000
0001
,
2000
0000
3010
0100
0001
0100
0010
0010
,
0010
1000
0001
1000
0100
0000
2200
3300
,
0012
0000
1003
0100
0010
0100
1000
1000
,
2000
0000
3010
0100
0001
0100
0020
0000
,
2030
0000
3001
0100
0001
0010
0200
0000
,
1300
0000
0000
0010
0000
0000
0100
0000
0000
0001
1000
0000
0010
0000
0100
0000
,
0001
0010
1000
0010
0001
0010
1000
0010
,
0001
0100
0010
1000
0100
0010
0001
0100
,
0020
0130
0000
0100
0002
0103
0000
0100
,
2000
3100
0000
0100
0010
1000
0100
0010
,
0001
0100
1000
0100
0001
0100
1000
0100
,
0001
0000
0000
0010
0000
0000
0010
0100
0000
0000
1000
0000
0100
0000
0010
0000
,
0001
0000
0000
0100
0000
0000
1000
0000
0000
0100
0000
0000
0001
0000
1000
0000
,
0020
0130
0000
0100
0001
0010
0100
1000
,
0001
0010
1000
0010
0001
0010
1000
0010
,
0001
0100
0010
1000
0100
0010
0001
0100
,
0020
0130
0000
0100
0002
0103
0000
0100
,
2000
3100
0000
0100
0010
1000
0100
0010
,
0001
0100
1000
0100
0001
0100
1000
0100
,
0001
0000
0000
0010
0000
0000
0010
0100
0000
0000
1000
0000
0100
0000
0010
0000
,
0001
0000
0000
0100
0000
0000
1000
0000
0000
0100
0000
0000
0001
0000
1000
0000
,
0020
0130
0000
0100
0001
0010
0100
1000
,
0002
0000
0003
0000
;

//---------------dance-single - ----------------
#NOTES:
     dance-single:
     :
     Easy:
     6:
     0.323236,0.308057,0.000000,0.397493,0.015288,222.000000,222.000000,0.000000,39.000000,0.000000,0.000000,0.323236,0.308057,0.000000,0.397493,0.015288,222.000000,222.000000,0.000000,39.000000,0.000000,0.000000:
0000
0000
0000
0000
,
0000
0000
0000
0000
,
1000
0000
0010
0100
0000
0100
0001
0000
,
0010
0000
0100
1000
0000
1000
0001
0000
,
0100
0000
0010
1000
0000
1000
0001
0000
,
0010
0000
0000
0000
1000
0000
0100
0000
0000
0100
0000
0000
0010
0000
0100
0000
,
1000
0000
0001
0100
0000
0100
0010
0000
,
1000
0000
0010
0100
0000
0100
0001
0000
,
1000
0000
0001
0010
0000
0010
0100
0000
,
1000
0000
0010
0000
0100
0010
2000
0000
,
3002
0100
1000
0010
,
2003
0100
0001
0010
,
3001
0100
0001
0000
1000
0100
1000
0000
,
0010
0100
0010
0100
0010
0000
1000
0000
,
0010
0000
1000
0100
0000
0100
0010
0001
,
0010
0000
0001
0100
0000
0100
0010
0000
,
1000
0000
0001
0010
0000
0010
0001
1000
,
0001
0000
0100
0010
0000
0010
1000
0001
,
1000
0000
0100
0010
0000
0010
0001
0100
,
0001
0000
0010
0100
0000
0100
1000
0000
,
0001
0000
0100
0010
0000
0010
1000
0000
,
0200
1000
0001
0310
,
0001
0000
1000
0010
0000
0010
1000
0000
,
0001
0000
1000
0010
0000
0010
0100
0000
,
0001
0000
0010
0100
0000
0100
0010
0000
,
0001
0000
1000
0000
0010
0100
0001
0000
,
1000
0000
0001
0010
0000
0010
0001
0000
,
1000
0000
0001
0010
0000
0010
0100
0000
,
1000
0000
0010
0100
0000
0100
0000
0000
,
1000
0000
0000
0100
0000
0000
0010
0000
0000
0001
0000
0000
1000
0000
0000
0000
,
0002
0000
0203
0000
2300
0000
3100
0010
,
0200
0000
0302
0000
0023
0000
0031
1000
,
0002
0013
0200
1300
,
0020
0000
0130
0000
0001
1000
0010
1000
,
0002
0000
0023
0000
2030
0000
3010
0100
,
0020
0000
0032
0000
0203
0000
0301
1000
,
0002
0203
2300
3020
,
0032
1003
0020
1030
,
0001
0100
0002
0000
0023
0000
0230
0000
,
1300
0010
2000
0000
3200
0000
0320
0000
,
0031
0100
0002
0000
2003
0000
3200
0000
,
0310
0001
0010
0000
0010
0001
1000
0000
,
0002
0000
0100
0000
1000
0000
0013
0100
,
2000
0100
0001
3020
,
1030
0100
0010
0001
,
1000
0100
0010
0100
2000
0000
3010
0000
,
0200
0000
0300
0000
;

//---------------dance-single - ----------------
#NOTES:
     dance-single:
     :
     Beginner:
     3:
     0.187826,0.210977,0.000000,0.000000,0.000000,129.000000,129.000000,0.000000,0.000000,0.000000,0.000000,0.187826,0.210977,0.000000,0.000000,0.000000,129.000000,129.000000,0.000000,0.000000,0.000000,0.000000:
0000
0000
0000
0000
,
0000
0000
0000
0000
,
1000
1000
1000
0000
,
0001
0001
0001
0000
,
1000
1000
0001
0001
,
1000
0001
0010
0010
,
0100
0000
1000
1000
,
1000
0000
0001
0001
,
1000
0000
0010
0000
,
0100
0100
0100
0000
,
0001
0000
0010
0000
,
1000
0000
0010
0000
,
0001
0001
1000
1000
,
0001
0100
0001
0000
,
1000
0000
0000
0010
0000
0000
1000
0000
,
0001
0000
0000
0010
0000
0000
0000
0000
,
0001
0000
0000
0010
0000
0000
0001
0000
,
1000
0000
0000
0010
0000
0000
0000
0000
,
0100
0000
0000
0001
0000
0000
1000
0000
,
1000
0000
0000
0100
0000
0000
0000
0000
,
0010
0000
0000
0001
0000
0000
1000
0000
,
0001
0000
0100
0010
,
1000
0000
0000
0010
,
0100
0000
0000
0001
,
0010
0000
0000
0100
,
0010
0010
0001
0001
,
1000
0000
0000
0010
,
0100
0000
0000
0001
,
0010
0000
0000
0100
,
1000
0001
1000
0010
,
0100
0100
0100
0010
,
0100
0100
0100
0010
,
1000
0000
0100
0000
,
0001
0000
0100
0000
,
1000
0100
0001
0100
,
1000
0000
0010
0000
,
0100
0100
0001
0001
,
0010
0000
0001
1000
,
0001
0001
0010
0010
,
0100
0100
1000
1000
,
0010
0000
0100
0000
,
0001
0000
0010
0000
,
0100
1000
0010
1000
,
0100
0000
0010
0000
,
0001
1000
0010
1000
,
0100
0001
0010
1000
,
0100
0000
0000
0000
;
