#TITLE:Hella Deep;
#SUBTITLE:;
#ARTIST:MASAYOSHI IIMORI;
#TITLETRANSLIT:;
#SUBTITLETRANSLIT:;
#ARTISTTRANSLIT:;
#GENRE:;
#CREDIT:;
#BANNER:Hella Deep.png;
#BACKGROUND:Hella Deep-bg.png;
#LYRICSPATH:;
#CDTITLE:;
#MUSIC:Hella Deep.ogg;
#OFFSET:1.495000;
#SAMPLESTART:27.279377;
#SAMPLELENGTH:12.799999;
#LASTBEATHINT:1.118209;
#SELECTABLE:YES;
#BPMS:0.000000=150.000000
,144.000000=144.000000
,160.000000=132.000000
;
#STOPS:
;
#BGCHANGES:3.500=Hella Deep.avi=1.000=1=0=1=Centered==CrossFade==,
292.000=Hella Deep-bg.png=1.000=1=0=1===CrossFade==,
99999=-nosongbg-=1.000=0=0=0 // don't automatically add -songbackground-
;
#KEYSOUNDS:;
#ATTACKS:;

//---------------dance-single - ----------------
#NOTES:
     dance-single:
     :
     Hard:
     13:
     0.544944,0.716732,0.222983,0.422075,0.274747,479.000000,451.000000,28.000000,53.000000,0.000000,0.000000,0.544944,0.716732,0.222983,0.422075,0.274747,479.000000,451.000000,28.000000,53.000000,0.000000,0.000000:
// measure 0
0000
0000
0000
0000
,  // measure 1
0000
0000
0000
0000
,  // measure 2
0000
0000
0000
0000
,  // measure 3
0000
0000
0000
0000
,  // measure 4
0000
0000
0000
0000
,  // measure 5
0000
0000
0000
0000
,  // measure 6
0001
0010
0001
1000
0010
1000
0100
0000
0000
0012
0000
0000
,  // measure 7
0203
0000
0310
1000
0100
1000
0010
0100
,  // measure 8
0001
1000
0100
1000
0020
0000
0130
0001
,  // measure 9
1000
0100
0010
0001
1000
0100
0010
0001
2000
0000
3000
0000
0000
0000
0000
0000
,  // measure 10
0001
0000
0001
0000
0001
0000
0001
0100
,  // measure 11
0010
0000
0010
0000
0010
0000
0010
1000
,  // measure 12
0100
0000
0100
0000
0100
0000
0100
0010
,  // measure 13
0001
0000
0001
0000
0001
0000
0001
1000
,  // measure 14
0010
0100
0010
0100
0001
0010
0001
0010
,  // measure 15
0100
1000
0010
0100
0001
0100
0010
1000
,  // measure 16
0100
1000
0100
1000
0001
0010
0001
0010
0001
0100
0001
0100
0010
1000
0010
1000
,  // measure 17
0100
0000
0000
0000
0100
0000
1000
0000
0010
1000
0000
0000
0020
0000
0000
0000
,  // measure 18
0130
0000
0000
0000
0001
0000
0010
0000
0100
0000
1000
0001
0100
0000
0100
0000
,  // measure 19
0010
0000
1000
0001
1000
0000
0100
0000
0010
0000
0001
1000
0100
0000
0100
0000
,  // measure 20
0010
0000
0000
0000
0001
0000
0100
0000
0010
0000
1000
0001
0100
0000
0100
0000
,  // measure 21
0010
0000
1000
0001
1000
0000
0100
0010
0001
0000
0001
0000
0010
0000
0100
0000
,  // measure 22
1000
0000
0000
0000
0001
0000
0100
0000
0101
0000
0000
1100
0000
0000
0110
0000
,  // measure 23
0010
0001
0010
0001
1000
0000
0010
0000
0100
0000
0100
0000
0001
0000
0000
0000
,  // measure 24
1100
0000
0000
0000
0002
0003
0000
0000
0101
0000
0000
0000
0010
0000
0100
0001
,  // measure 25
1000
0000
0100
0000
0010
0000
0010
0000
0001
0000
1000
0010
1000
0000
0001
0000
,  // measure 26
0100
0000
0000
0000
0001
0000
0010
0000
0100
0000
1000
0001
0100
0000
0100
0000
,  // measure 27
0010
0000
1000
0001
1000
0000
0100
0000
0010
0000
0001
1000
0100
0000
0100
0000
,  // measure 28
0010
0000
0000
0000
0001
0000
0100
0000
0010
0000
1000
0001
0100
0000
0100
0000
,  // measure 29
0010
0000
1000
0001
1000
0000
0100
0010
0001
0000
0001
0000
0010
0000
0100
0000
,  // measure 30
2100
0000
3000
0001
0101
0100
0010
0000
,  // measure 31
1001
0000
1000
0100
0010
0000
0010
0000
1001
0000
0001
0000
0010
0000
0000
0000
,  // measure 32
0101
0100
0010
1000
1100
0100
0010
0001
,  // measure 33
0200
0000
0000
0000
0000
0000
0000
0000
0000
0000
0000
0000
0000
0000
0000
0000
0000
0000
0000
0000
0000
0000
0000
0000
0000
0000
0000
0000
0300
0000
0010
0000
0000
1000
0000
0000
0001
0000
0000
0000
0000
0000
0001
0000
0000
0000
0000
0000
,  // measure 34
0100
0000
0000
0000
,  // measure 35
0000
0000
0000
0000
,  // measure 36
0100
0000
0000
0000
,  // measure 37
0000
0000
0000
0000
,  // measure 38
0000
0000
0000
0000
,  // measure 39
0000
0000
0000
0000
,  // measure 40
0100
0001
0010
0001
1000
0000
1100
0000
,  // measure 41
0010
1010
0001
0101
,  // measure 42
0100
0001
0010
0001
1000
0000
1100
0000
,  // measure 43
0010
1010
0001
0101
,  // measure 44
0100
0001
0010
0001
1000
0010
0100
0001
,  // measure 45
1000
0100
0001
0100
1000
0010
0100
0001
,  // measure 46
0022
0033
0000
0000
0000
0000
0000
0000
,  // measure 47
1000
0000
0000
0000
1000
0000
0000
0000
1000
0000
0000
0000
0020
0030
0000
0000
,  // measure 48
0101
0000
0001
1000
0001
0001
0010
0010
,  // measure 49
0001
0000
0000
0000
0000
0000
1000
0000
0000
0100
0000
0000
1000
0000
0000
0000
0000
0000
0010
0000
0000
0000
0000
0000
0100
0000
0000
0000
0000
0000
0001
0000
0000
0000
0001
0000
2000
0000
0000
0000
0000
0000
0000
0000
0000
0000
0000
0000
,  // measure 50
3001
0000
1100
0101
2100
0000
3010
0000
,  // measure 51
1000
0000
0100
0010
0100
0000
1000
0000
0001
0000
0100
0000
1000
0000
0200
0000
,  // measure 52
0300
0000
0000
0000
0000
0000
0020
0000
0000
0130
0000
0001
0000
0000
0001
1000
0000
0000
0200
0000
0000
1300
0000
0000
,  // measure 53
0020
0000
0000
0130
0000
0000
0010
0000
0000
1000
0000
0001
0000
0000
0001
0010
0000
0000
0200
0000
0000
1300
0000
0000
,  // measure 54
1002
0000
0000
0000
0000
0000
0023
0000
0000
0130
0000
1000
0000
0000
1000
0001
0000
0000
0200
0000
0000
0310
0000
0000
,  // measure 55
0200
0000
0000
0000
0000
0000
0301
0000
0000
0000
0000
0000
0010
0000
0000
0000
0000
0000
0100
0000
0000
0000
1000
0000
0200
0000
0000
0000
0000
0000
0000
0000
0000
0000
0000
0000
0310
0000
0000
0001
0000
0000
0010
0000
0000
0001
0000
0000
,  // measure 56
1000
0000
0100
0010
0002
0000
0013
0000
,  // measure 57
0001
0000
1000
0010
1000
0000
0100
0000
0010
0000
0001
0000
1000
0000
0001
0000
,  // measure 58
0200
0000
0310
1000
0002
0000
0013
0000
,  // measure 59
0001
0000
1000
0100
1000
0000
0010
0000
0100
0000
0001
1000
0020
0000
0000
0000
,  // measure 60
0130
0001
0010
0001
0100
0010
1000
0010
,  // measure 61
0100
0001
0010
0001
0100
0010
1000
0010
,  // measure 62
0100
0100
0001
0001
1000
1000
0100
0100
,  // measure 63
0010
0000
0001
0010
0000
0001
1000
0000
0010
1000
0000
0010
0200
0000
0000
0000
0000
0000
0001
0000
0000
0320
0000
0000
,  // measure 64
0000
0000
0000
0000
0000
0000
1030
0000
0000
0000
0000
0000
0001
0000
0000
0000
0000
0000
1000
0000
0000
0000
0000
0000
1200
0000
0000
0000
0000
0000
0000
0000
0300
0020
0000
0000
0000
0000
0000
0000
0000
0000
0032
0000
0000
0000
0000
0000
,  // measure 65
0000
0023
0000
0000
0230
0000
2300
0000
3002
0000
0203
0000
0320
0000
0030
0000
,  // measure 66
1010
0000
1000
0000
0001
1000
0001
0000
0200
0000
0000
0000
0310
0000
1000
0000
,  // measure 67
0001
0000
0001
0000
0100
0001
0100
0001
0010
0000
0100
0000
1000
0010
2000
0000
,  // measure 68
3002
0000
0023
0000
0230
0000
2300
0000
3200
0000
0320
0000
0032
0000
0000
1003
0000
0000
0102
0000
0000
0000
0000
0000
,  // measure 69
2003
0000
3100
0010
0001
0010
2000
3002
,  // measure 70
0103
0010
0001
1000
0020
0000
0130
0100
,  // measure 71
0001
0010
0100
1000
0001
0010
0100
1000
0002
0000
0003
0000
0000
0000
0000
0000
,  // measure 72
0101
0000
0000
0000
;

//---------------dance-single - ----------------
#NOTES:
     dance-single:
     :
     Medium:
     8:
     0.357228,0.430039,0.087601,0.127419,0.011946,314.000000,303.000000,11.000000,16.000000,0.000000,0.000000,0.357228,0.430039,0.087601,0.127419,0.011946,314.000000,303.000000,11.000000,16.000000,0.000000,0.000000:
// measure 0
0000
0000
0000
0000
,  // measure 1
0000
0000
0000
0000
,  // measure 2
0000
0000
0000
0000
,  // measure 3
0000
0000
0000
0000
,  // measure 4
0000
0000
0000
0000
,  // measure 5
0000
0000
0000
0000
,  // measure 6
0001
0100
0001
0000
0010
0000
2000
0000
,  // measure 7
3200
0000
0310
0001
1000
0100
0010
0100
,  // measure 8
0000
1000
0010
0100
0001
0000
0001
1000
,  // measure 9
0010
1000
0100
0000
,  // measure 10
0010
0000
0010
0000
0010
0000
0010
0001
,  // measure 11
1000
0000
1000
0000
1000
0000
1000
0010
,  // measure 12
0100
0000
0100
0000
0100
0000
0100
0001
,  // measure 13
0010
0010
0010
0010
,  // measure 14
0001
0100
0001
0000
1000
0100
1000
0000
,  // measure 15
0001
0010
0001
0010
0100
1000
0100
1000
,  // measure 16
0002
0000
0203
0000
0310
1000
0100
1000
,  // measure 17
0010
0000
0010
0010
2000
0000
0002
3003
,  // measure 18
0001
0000
0100
0010
1000
0000
0000
0000
,  // measure 19
1000
0100
0010
0100
1000
0000
0000
0000
,  // measure 20
0001
0000
0010
0100
1000
0000
0000
0000
,  // measure 21
1000
0010
0100
0010
1000
0001
1000
0001
,  // measure 22
0010
0000
0000
0000
0100
0000
0010
0000
0100
0000
0000
0100
0000
0000
0100
0000
,  // measure 23
1000
0000
0001
0000
1000
0001
0200
0000
,  // measure 24
0310
0000
2000
3000
0100
0000
0010
0000
,  // measure 25
0001
1000
0100
1000
0001
0010
0001
0000
,  // measure 26
0100
0000
0010
1000
0010
0000
0000
0000
,  // measure 27
1000
0100
0010
0001
1000
0000
0000
0000
,  // measure 28
0010
0000
0100
0001
0100
0000
0000
0000
,  // measure 29
0010
1000
0100
1000
0001
0010
0001
0010
,  // measure 30
0100
0000
0000
0100
1000
0000
0020
0000
,  // measure 31
0130
0002
0013
0200
,  // measure 32
1300
0001
0100
0001
1000
0000
0100
0010
,  // measure 33
0200
0000
0000
0300
,  // measure 34
0100
0000
0000
0000
,  // measure 35
0000
0000
0000
0000
,  // measure 36
0100
0000
0000
0000
,  // measure 37
0000
0000
0000
0000
,  // measure 38
0000
0000
0000
0000
,  // measure 39
0000
0000
0000
0000
,  // measure 40
0100
0010
0000
0010
,  // measure 41
0000
0010
0000
0010
,  // measure 42
0100
0010
0000
0010
,  // measure 43
0000
0010
0000
0010
,  // measure 44
0001
0100
0001
0000
1000
0100
1000
0000
,  // measure 45
0001
0100
0010
1000
0100
0010
0001
0000
,  // measure 46
1001
0000
0000
0000
,  // measure 47
0010
0010
0010
1000
,  // measure 48
0101
0101
0101
0000
,  // measure 49
0100
0010
1000
0010
0100
0000
0002
0000
,  // measure 50
1003
0000
0100
0010
0100
0000
0000
0000
,  // measure 51
1000
0100
0010
0001
1000
0000
0010
0100
,  // measure 52
0001
0011
1000
1010
,  // measure 53
0010
0100
0001
0000
0110
0000
1001
0000
,  // measure 54
0110
1000
0001
1000
,  // measure 55
0100
0010
0001
0010
0200
0000
1300
0001
,  // measure 56
1000
0000
0100
0010
0100
0000
0000
0000
,  // measure 57
0001
0010
0100
0010
0001
0000
1100
0000
,  // measure 58
0010
0000
0001
0100
0001
0000
0000
0000
,  // measure 59
1000
0100
0010
0100
1000
0001
1000
0000
,  // measure 60
0010
0100
0001
0000
0010
0100
1000
0000
,  // measure 61
0010
0100
0001
0000
0010
0100
1000
0000
,  // measure 62
0001
0100
1000
0100
,  // measure 63
0001
1000
0001
1000
0020
0000
0130
0001
,  // measure 64
0000
0000
1000
0000
0100
0000
1000
0000
0010
0000
0000
0010
0000
0000
0010
0000
,  // measure 65
0000
0010
0000
0000
0100
0000
0001
0000
1000
0000
0001
0000
0020
0000
0000
0000
,  // measure 66
0130
1000
0001
1000
0001
0000
0100
0010
,  // measure 67
1000
1000
0001
0000
,  // measure 68
1000
0100
0010
0100
1000
0000
0010
0000
,  // measure 69
0100
0000
0001
0010
0001
1000
0100
0000
,  // measure 70
0000
0001
0100
0001
1000
0000
0100
0010
,  // measure 71
0001
0001
1000
0000
,  // measure 72
0101
0000
0000
0000
;

//---------------dance-single - ----------------
#NOTES:
     dance-single:
     :
     Easy:
     5:
     0.287830,0.372700,0.087601,0.063709,0.000000,253.000000,242.000000,11.000000,8.000000,0.000000,0.000000,0.287830,0.372700,0.087601,0.063709,0.000000,253.000000,242.000000,11.000000,8.000000,0.000000,0.000000:
0000
0000
0000
0000
,
0000
0000
0000
0000
,
0000
0000
0000
0000
,
0000
0000
0000
0000
,
0000
0000
0000
0000
,
0000
0000
0000
0000
,
0001
0010
0001
0001
,
1000
0010
1000
0000
,
0100
1000
0010
0100
,
0001
0001
0010
0000
,
0001
1000
0001
1000
,
0010
0100
0010
0100
,
0001
1000
0001
1000
,
0010
0100
0010
0100
,
0001
0100
0001
0000
1000
0100
1000
0000
,
0001
0100
0001
0000
1000
0100
1000
0000
,
0001
0100
0010
1000
,
0100
0000
0100
1000
0100
0000
0010
0000
,
0001
0100
1000
0100
,
0001
0100
1000
0100
,
0001
0010
1000
0010
,
0001
0010
1000
0010
,
0001
0000
1000
0100
1000
0000
0010
0000
,
0100
0001
1001
0000
,
0001
0000
1000
0000
,
0100
0000
0010
0000
0001
0000
1000
1000
,
0001
0100
0010
0100
,
0001
0100
0010
0100
,
1000
0010
0100
0010
,
1000
0010
0100
0010
,
1000
0000
0000
1000
0100
0000
0010
0000
,
0001
0010
1000
0010
,
0001
0100
0010
1000
,
0200
0000
0000
0000
,
0310
0000
0000
0000
,
0000
0000
0000
0000
,
0010
0000
0000
0000
,
0000
0000
0000
0000
,
0000
0000
0000
0000
,
0000
0000
0000
0000
,
0020
0001
0100
0100
,
0100
0100
0100
0130
,
2000
0010
0001
0001
,
0001
0001
0001
3001
,
0100
0001
0010
0001
,
1000
0100
1000
0100
1000
0100
1000
0100
,
1000
0000
0000
0000
,
0010
0010
0010
1000
,
0001
0000
0100
0010
0100
0000
0000
0000
,
0001
0010
0001
2000
,
3100
0000
0010
0001
0010
0000
0000
0000
,
0100
1000
0001
0100
,
0010
1010
0100
1100
,
0001
0101
0010
0011
,
1000
0001
0100
0001
,
1000
0100
1000
0000
0020
0000
0030
0000
,
0100
0000
0001
1000
0001
0000
0000
0000
,
1000
0100
1000
0001
,
0100
0000
0010
1000
0010
0000
0000
0000
,
0100
0000
0001
0000
1000
0100
1000
0000
,
0001
0101
0010
0011
,
1000
1010
0100
1100
,
1000
0010
0001
0010
,
1000
0001
1000
0001
0000
0000
0000
0000
,
0000
0000
0110
0100
,
1000
0000
0001
0000
1000
0010
2000
0000
,
3000
0001
0010
0001
,
0100
0010
0100
0000
0100
0000
0000
0000
,
0010
1000
0100
0020
,
0032
0000
1003
0010
1000
0000
0001
0000
,
0000
1000
0100
0010
,
0001
0010
0001
0000
0100
0000
0000
0000
,
0101
0000
0000
0000
;

//---------------dance-single - ----------------
#NOTES:
     dance-single:
     :
     Beginner:
     2:
     0.182027,0.258023,0.000000,0.000000,0.000000,160.000000,160.000000,0.000000,0.000000,0.000000,0.000000,0.182027,0.258023,0.000000,0.000000,0.000000,160.000000,160.000000,0.000000,0.000000,0.000000,0.000000:
0000
0000
0000
0000
,
0000
0000
0000
0000
,
0000
0000
0000
0000
,
0000
0000
0000
0000
,
0000
0000
0000
0000
,
0000
0000
0000
0000
,
0010
0010
0010
0000
,
0001
0000
1000
0000
,
0010
0010
0010
0000
,
0100
0000
0100
0000
,
0001
0001
0001
0000
,
1000
1000
1000
0000
,
0001
0001
0001
0000
,
1000
1000
1000
0000
,
0100
0000
0010
0000
,
0001
0000
1000
0000
,
0100
0000
0010
0000
,
0001
0001
1000
0000
,
0010
0010
0010
0000
,
0100
0100
0100
0000
,
0010
0010
0010
0000
,
0100
0100
0100
0000
,
0001
0000
1000
0000
,
0100
1000
0100
0000
,
0010
0000
0001
0000
,
1000
1000
1000
0000
,
0010
0010
0010
0000
,
0100
0100
0100
0000
,
0010
0010
0010
0000
,
0100
0100
0100
0000
,
0001
0000
1000
0000
,
0100
0000
1000
0000
,
0001
0100
0001
0000
,
0010
0000
0000
0000
,
0100
0000
0000
0000
,
0000
0000
0000
0000
,
0100
0000
0000
0000
,
0000
0000
0000
0000
,
0000
0000
0000
0000
,
0000
0000
0000
0000
,
0100
1000
0000
1000
,
0000
1000
0000
1000
,
0000
0001
0000
0001
,
0000
0001
0000
0001
,
0100
0100
0010
0010
,
0100
0100
0010
0010
,
1000
0000
0000
0000
,
0001
0010
0001
0010
,
0001
0000
0100
0000
,
0001
1000
0001
0001
,
0000
0000
0100
0000
,
1000
0001
1000
0000
,
0010
0000
0100
0100
,
0001
0000
1000
1000
,
0001
0000
0010
0010
,
0001
0000
0010
0000
,
0100
0000
1000
0000
,
0001
1000
0001
0000
,
0100
0000
0001
0000
,
1000
0001
1000
0000
,
0100
0100
0010
0010
,
0100
0100
0010
0000
,
0001
0000
1000
0000
,
0010
0000
1000
0000
,
0100
0000
0010
0010
,
0010
0000
0001
0000
,
0100
0100
0100
0000
,
0010
0000
1000
0000
,
0001
0010
0001
0000
,
0100
0000
0010
0000
,
1000
0100
1000
0000
,
0010
0000
0010
0000
,
0010
0000
0000
0000
;
