#TITLE:Glitter Cube;
#SUBTITLE:;
#ARTIST:Bemani Sound Team "dj TAKA";
#TITLETRANSLIT:;
#SUBTITLETRANSLIT:;
#ARTISTTRANSLIT:;
#GENRE:;
#CREDIT:;
#BANNER:Glitter Cube.png;
#BACKGROUND:Glitter Cube-bg.png;
#LYRICSPATH:;
#CDTITLE:;
#MUSIC:Glitter Cube.ogg;
#OFFSET:-0.880000;
#SAMPLESTART:15.287721;
#SAMPLELENGTH:12.840000;
#SELECTABLE:YES;
#BPMS:0.000000=150.000000
;
#STOPS:
;
#BGCHANGES:;
#KEYSOUNDS:;
#ATTACKS:;

//---------------dance-single - ----------------
#NOTES:
     dance-single:
     :
     Challenge:
     15:
     0.745391,0.902268,0.136464,0.369255,0.830825,650.000000,633.000000,17.000000,46.000000,0.000000,0.000000,0.745391,0.902268,0.136464,0.369255,0.830825,650.000000,633.000000,17.000000,46.000000,0.000000,0.000000:
// measure 0
0000
0000
0000
0000
,  // measure 1
0000
0000
0000
0000
,  // measure 2
0000
0000
0000
0000
,  // measure 3
0000
0000
0000
0000
,  // measure 4
0000
0000
0000
0000
,  // measure 5
0001
0000
0010
0000
0001
0000
1000
0010
0000
0000
1000
0000
0100
0010
0000
0010
,  // measure 6
0001
0000
0000
0100
0000
0000
1000
0000
0000
0100
0000
0000
0001
0010
0000
0010
,  // measure 7
0100
0000
1000
0000
1000
0000
0001
0100
0000
0000
0010
0000
1000
0100
0000
0100
,  // measure 8
0010
0001
0010
0001
0010
0001
0010
0001
1000
0010
1000
0010
0100
0001
0010
0100
,  // measure 9
2000
0000
3010
0100
0001
1000
0100
0010
,  // measure 10
0012
0000
0000
0000
0103
0000
1000
0000
0100
0000
0001
1000
0100
0000
0010
0000
,  // measure 11
0001
0000
0000
1000
0000
0000
1100
0000
0000
0000
1000
0000
0001
0010
0100
1000
,  // measure 12
0100
0000
1000
0010
1000
0000
0010
0000
0100
0000
0001
0010
0001
0000
1000
0000
,  // measure 13
1020
0000
0000
0230
0000
0000
0302
0000
0000
0000
1003
0000
0100
0000
0010
0000
,  // measure 14
0001
0020
0000
0230
0000
0000
2300
0000
0000
0000
3010
0000
0100
0001
1000
0010
,  // measure 15
1000
0000
0100
0000
0010
0001
0100
0010
1000
0000
0001
0010
0001
0000
0100
0010
,  // measure 16
1000
0010
0000
0100
0001
0000
0010
0001
0000
1000
0100
0000
0100
1000
0010
0100
,  // measure 17
0002
0000
0103
0010
1000
0001
0010
0100
,  // measure 18
2100
0000
0000
0000
3010
0000
0001
0000
0010
0000
1000
0001
0010
0000
0100
0000
,  // measure 19
1000
0000
0000
0001
0000
0000
0011
0000
0000
0000
0001
0000
1000
0100
0010
0001
,  // measure 20
1000
0010
1000
0010
1000
0010
1000
0010
0100
0001
0100
0001
1000
0100
0010
0001
,  // measure 21
0200
0000
0000
0320
0000
0000
2030
0000
0000
0000
3001
0000
0010
0000
0100
0000
,  // measure 22
1000
0200
0000
0320
0000
0000
0032
0000
0000
0000
0103
0000
0010
1000
0001
0100
,  // measure 23
0001
0000
0010
0000
0100
1000
0010
0100
0001
0000
1000
0100
1000
0000
0010
0100
,  // measure 24
0001
0100
0000
0010
1000
0000
0001
0010
0000
0010
0100
0000
1000
0000
0100
0000
,  // measure 25
0012
0103
0020
1030
,  // measure 26
0200
0000
0000
0000
0320
0000
0000
0000
0032
0000
0000
0000
1003
0000
0010
0100
,  // measure 27
0020
1030
0002
0013
,  // measure 28
0200
2300
3002
0203
,  // measure 29
0310
0000
1000
0000
0010
0000
0200
0000
0000
0000
0301
0000
1000
0000
0100
0010
,  // measure 30
0100
0000
1000
0000
0100
0000
0020
0000
0000
0000
0031
0000
0100
0000
0010
1000
,  // measure 31
0010
0000
0100
0000
0001
0100
0000
0100
0000
0010
1000
0000
0100
0000
0010
0001
,  // measure 32
0010
0001
1000
0000
1000
0010
0000
0010
0000
0100
0001
0000
0010
0000
0100
0000
,  // measure 33
1200
0310
0002
0103
,  // measure 34
0010
0000
1000
0000
0001
0000
1000
0000
0100
0000
0010
0000
0001
0000
0010
0100
,  // measure 35
2000
3010
0200
0301
,  // measure 36
1000
0100
0001
0100
1000
0100
0010
0001
,  // measure 37
1000
0010
0100
0010
1000
0000
0001
0100
0010
0100
0001
0000
1000
0100
0010
0000
,  // measure 38
0001
0010
0100
0010
0001
0000
1000
0100
0010
0100
1000
0000
0001
0100
0010
0100
,  // measure 39
0001
1000
0100
1000
0001
0000
0010
0100
1000
0100
0010
0000
0001
0100
0010
1000
,  // measure 40
0001
0100
0010
0100
0001
0000
1000
0010
0100
0010
1000
0000
0001
0010
0100
1000
,  // measure 41
0001
0100
0010
1000
0100
0010
0001
0100
0010
0100
0001
0010
0100
1000
0010
0100
,  // measure 42
0001
0010
0000
0100
1000
0000
0001
0010
0001
0010
0100
0000
1000
0010
0100
0001
,  // measure 43
2000
0000
3010
0100
0001
1000
0100
0010
,  // measure 44
0012
0000
0000
0000
0103
0000
1000
0000
0100
0000
0001
1000
0100
0000
0010
0000
,  // measure 45
0001
0000
0000
1000
0000
0000
1100
0000
0000
0000
1000
0000
0001
0010
0100
1000
,  // measure 46
0100
0000
1000
0010
1000
0000
0010
0000
0100
0000
0001
0010
0001
0000
1000
0000
,  // measure 47
1020
0000
0000
0230
0000
0000
0302
0000
0000
0000
1003
0000
0100
0000
0010
0000
,  // measure 48
0001
0020
0000
0230
0000
0000
2300
0000
0000
0000
3010
0000
0100
0001
1000
0010
,  // measure 49
1000
0000
0100
0000
0010
0001
0100
0010
1000
0000
0001
0010
0001
0000
0100
0010
,  // measure 50
1000
0010
0000
0100
0001
0000
0010
0001
0000
1000
0100
0000
0100
1000
0010
0100
,  // measure 51
0002
0000
0103
0010
1000
0001
0010
0100
,  // measure 52
2100
0000
0000
0000
3010
0000
0001
0000
0010
0000
1000
0001
0010
0000
0100
0000
,  // measure 53
1000
0000
0000
0001
0000
0000
0011
0000
0000
0000
0001
0000
1000
0100
0010
0001
,  // measure 54
1000
0000
0010
0100
0010
0000
1000
0000
0100
0000
0010
0001
1000
0000
0010
0000
,  // measure 55
1010
0000
0010
0100
0000
0001
2000
0000
0000
0000
3001
0000
0010
0000
0100
0000
,  // measure 56
0011
0000
0010
0100
0000
1000
0002
0000
0000
0000
0103
0000
0010
1000
0001
0100
,  // measure 57
0001
0000
0010
0000
0100
1000
0010
0100
0001
0000
1000
0100
1000
0000
0010
0100
,  // measure 58
0010
1000
0010
1000
0010
1000
0010
1000
0001
0010
0001
0010
0100
1000
0001
0100
,  // measure 59
0010
0000
0010
0100
0001
0000
0100
0001
1000
0100
1000
0000
0011
0000
1000
0000
,  // measure 60
0001
0000
0010
0100
1000
0000
0001
0000
1000
0100
0010
0001
0010
0100
1000
0000
,  // measure 61
0010
0000
0010
0100
0001
0000
0010
0000
0010
0100
1000
0100
0010
0001
1000
0001
,  // measure 62
0010
0100
1000
0001
0010
0000
0001
0100
0001
1000
0100
1000
0001
0100
0010
0000
,  // measure 63
1000
0000
1000
0010
0100
0000
0001
0000
0001
0010
0100
0000
0011
0000
0100
0000
,  // measure 64
1000
0000
1000
0010
0100
0000
0001
0000
0001
0010
0100
0000
1001
0000
0100
0000
,  // measure 65
1000
0100
0010
0100
1000
0000
0001
0010
0100
0010
0001
0000
1000
0100
0010
0100
,  // measure 66
1000
0000
0001
0010
0100
0010
0001
0000
1000
0100
0010
0100
0001
0100
0010
0100
,  // measure 67
1000
0001
0100
0001
0010
0000
0001
1000
0100
1000
0010
0100
0001
0100
0010
1000
,  // measure 68
0001
0010
0100
0010
0001
0100
1000
0100
0001
1000
0010
1000
0100
0010
0001
0100
,  // measure 69
0002
0000
0000
0000
,  // measure 70
0000
0003
0000
0000
;

//---------------dance-single - ----------------
#NOTES:
     dance-single:
     :
     Hard:
     10:
     0.475904,0.535721,0.048164,0.256873,0.116396,415.000000,409.000000,6.000000,32.000000,0.000000,0.000000,0.475904,0.535721,0.048164,0.256873,0.116396,415.000000,409.000000,6.000000,32.000000,0.000000,0.000000:
0000
0000
0000
0000
,
0000
0000
0000
0000
,
0000
0000
0000
0000
,
0000
0000
0000
0000
,
0000
0000
0000
0000
,
0001
0100
1000
0100
0001
0000
1000
0100
,
1000
0000
0010
0100
0001
0010
0100
1000
,
0001
0100
1000
0100
0001
0000
1000
0100
,
1000
0000
0010
0000
0100
0001
1000
0001
,
0020
0000
0130
0000
1000
0100
0010
0001
,
0200
0000
0310
1000
0000
0010
0100
0001
,
1000
0000
0000
0100
0000
0000
0001
0000
0000
0000
1000
0000
0100
0000
0010
0000
,
0001
0000
0001
0100
0010
0000
1000
0100
,
0001
0000
0000
0010
0000
0000
0100
0000
0000
0000
0001
0000
0010
0000
0100
0000
,
1000
0000
0000
0010
0000
0000
0100
0000
0000
0000
1000
0000
0000
0000
0001
0000
,
0010
0001
0000
1000
0010
1000
0100
0010
,
0001
0000
0000
0100
0000
0000
1000
0000
0000
0000
0010
0000
0001
0000
0000
0000
,
0020
0000
0130
0000
1000
0100
0010
0001
,
0200
0000
0310
1000
0000
0010
0100
0001
,
1000
0000
0000
0100
0000
0000
0001
0000
0000
0000
0100
0000
1000
0000
1000
0000
,
0001
0100
0001
0100
1000
0100
1000
0100
,
0001
0000
0000
0010
0000
0000
0100
0000
0000
0000
0001
0000
0010
0000
0100
0000
,
1000
0000
0000
0010
0000
0000
0100
0000
0000
0000
1000
0000
0000
0000
0001
0000
,
0010
0001
0000
1000
0010
1000
0100
0010
,
0001
0000
0000
0100
0000
0000
1000
0000
0000
0010
0000
0000
0001
0000
1000
0000
,
0200
0310
0002
0103
,
0020
2030
3200
0320
,
0032
0103
0020
1030
,
0200
0320
0032
2003
,
3010
0100
0001
0200
0000
0010
0310
1000
,
0001
0010
0001
0200
0000
0010
0310
1000
,
0100
0000
1000
0000
0001
0000
0000
0010
0000
0000
0001
0000
1000
0000
0001
0000
,
0100
0000
0010
0000
1000
0000
0000
0100
0000
0000
0010
0000
0100
0000
1000
0000
,
0002
0103
0020
1030
,
0100
0000
0000
0100
0010
0000
0000
0010
0001
0000
0000
0001
0010
0000
0000
0010
,
0200
1300
0020
0130
,
0001
0000
0000
0001
0010
0000
0000
0010
1000
0000
0000
1000
0010
0000
0000
0010
,
0100
1000
0010
0100
0001
0010
0200
0000
,
1300
0010
0100
0001
0010
0100
2000
0000
,
3001
0100
1000
0001
0010
1000
0002
0000
,
1003
0100
0001
1000
0010
0001
2000
0000
,
3010
0001
0010
0100
0001
0100
0010
1000
,
0200
0000
0000
0000
0000
0000
0310
0001
,
0020
0000
0130
0000
1000
0100
0010
0001
,
0200
0000
0310
1000
0010
1000
0100
0010
,
0001
0000
0000
0100
0000
0000
0001
0000
0000
0000
1000
0000
0100
0000
0010
0000
,
0001
0000
0001
0100
0010
0000
1000
0100
,
0001
0000
0000
0010
0000
0000
0100
0000
0000
0000
0001
0000
0010
0000
0100
0000
,
1000
0000
0000
0010
0000
0000
0100
0000
0000
0000
1000
0000
0000
0000
0001
0000
,
0010
0001
0000
1000
0010
1000
0100
0010
,
0001
0000
0000
0100
0000
0000
1000
0000
0000
0100
0000
0000
0001
0000
0000
0000
,
0020
0000
0130
0000
1000
0100
0010
0001
,
0200
0000
0310
1000
0010
1000
0100
0010
,
0001
0000
0000
0100
0000
0000
0001
0000
0000
0000
1000
0000
0100
0000
1000
0000
,
0001
0100
0001
0100
0010
1000
0100
0000
,
0011
0000
0000
0110
0000
0000
1100
0000
0000
0000
0001
0000
0010
0000
0100
0000
,
1100
0000
0000
0110
0000
0000
0011
0000
0000
0000
1000
0000
0000
0000
0001
0000
,
0010
0001
0000
1000
0010
1000
0100
0010
,
0001
0000
0000
0100
0000
0000
1000
0000
0000
0010
0000
0000
0001
0000
1000
0000
,
0001
0010
0100
0001
0010
0100
0001
1000
,
0100
0010
0001
0100
0010
0001
1000
0001
,
1000
0100
0010
1000
0100
0010
1000
0001
,
1000
0100
0010
0000
1000
0010
0100
0010
,
1000
0100
0001
1000
0010
0001
1000
0010
,
0001
0010
1000
0001
0100
1000
0001
0010
,
1000
0100
1000
0001
0100
0001
1000
0100
,
1000
0001
0100
0001
1000
0100
0010
0100
,
1000
0010
0100
0001
0100
0010
1000
0100
,
0001
0100
1000
0010
0100
0001
0010
0001
,
0200
0000
0000
0000
,
0000
0300
0000
0000
;

//---------------dance-single - ----------------
#NOTES:
     dance-single:
     :
     Medium:
     7:
     0.354348,0.338350,0.032109,0.313064,0.008027,309.000000,305.000000,4.000000,39.000000,0.000000,0.000000,0.354348,0.338350,0.032109,0.313064,0.008027,309.000000,305.000000,4.000000,39.000000,0.000000,0.000000:
0000
0000
0000
0000
,
0000
0000
0000
0000
,
0000
0000
0000
0000
,
0000
0000
0000
0000
,
0000
0000
0000
0000
,
0001
0100
0001
0000
0010
0000
0001
0100
,
0001
0000
1000
0000
0100
0010
0001
0000
,
1000
0100
1000
0000
0001
0000
1000
0100
,
1000
0000
0010
0000
0100
0000
0001
0001
,
2000
0000
3100
0000
0010
0001
0100
0001
,
0020
0000
0130
0000
1000
0000
0001
0100
,
0002
0103
1000
0100
,
0001
0000
0010
0000
0100
0000
1000
0010
,
2000
0000
3010
0000
0100
0000
0001
0010
,
0002
0000
0013
0000
0100
0000
1000
0010
,
0100
0000
0000
0001
0100
0000
0010
0000
,
1000
0000
0100
0000
0001
0100
1000
0000
,
2000
0000
3100
0000
0010
0001
0100
0001
,
0020
0000
0130
0000
1000
0000
0001
0100
,
0002
0103
1000
0100
,
0101
0000
1100
0000
,
2000
0000
3010
0000
0100
0000
0001
0010
,
0002
0000
0013
0000
0100
0000
1000
0010
,
0100
0000
0000
0001
0010
0000
0100
0000
,
1000
0000
0010
0000
0001
0010
1000
0000
,
0200
0000
0320
0000
,
0032
0203
0320
2030
,
3200
0000
0320
0000
,
0032
0203
0320
2030
,
3100
0010
0100
1000
0000
0000
0000
0000
,
0001
0100
0010
0100
0000
0000
0000
0000
,
0001
0010
0001
0000
1000
0010
1000
0000
,
0001
0000
0010
0000
0100
1000
0010
0000
,
2000
3100
0002
0103
,
1000
0010
1000
0000
0001
0010
0100
0000
,
2000
3010
0002
0013
,
1000
0010
1000
0000
0001
0010
0100
0000
,
1000
0000
0010
0100
0000
0001
0020
0000
,
0031
0000
0100
0010
0000
1000
0200
0000
,
0310
0000
0001
0100
0000
0010
2000
0000
,
3001
0000
1000
0100
0000
0010
0002
0000
,
1003
0100
1000
0000
0010
0100
0010
0000
,
0001
0001
0001
0000
,
2000
0000
3100
0000
0010
0001
0100
0001
,
0020
0000
0130
0000
1000
0000
0001
0100
,
0002
0103
1000
0100
,
0001
0000
0010
0000
0100
0000
1000
0010
,
2000
0000
3010
0000
0100
0000
0001
0010
,
0002
0000
0013
0000
0100
0000
1000
0010
,
0100
0000
0000
0001
0100
0000
0010
0000
,
1000
0000
0100
0000
0001
0100
1000
0000
,
2000
0000
3100
0000
0010
0001
0100
0001
,
0020
0000
0130
0000
1000
0000
0001
0100
,
0002
0103
1000
0100
,
0101
0000
1100
0000
,
1000
0000
0000
0010
0000
0000
1000
0000
0000
0000
0000
0000
0001
0000
0000
0000
,
0100
0000
0000
0010
0000
0000
1000
0000
0000
0000
0000
0000
0001
0000
0000
0000
,
1000
0100
1000
0000
0001
0010
0001
0000
,
0100
0000
1000
0000
1000
0100
0001
0000
,
1000
0000
0100
0000
0001
0100
0010
0000
,
0001
0000
0100
0000
1000
0100
0010
0000
,
1000
0000
0100
0000
0010
0001
0010
0000
,
0100
0000
1000
0000
0010
0100
0001
0100
,
0010
0000
1000
0000
0100
0010
0001
0000
,
1000
0000
0001
0000
0010
0100
1000
0000
,
0001
0000
0100
0010
0000
1000
0010
0000
,
0100
0010
0000
1000
0010
0000
1000
0000
,
0001
0100
0001
0000
1000
0100
0010
0000
,
1000
0000
0010
0000
0100
0000
0001
0010
,
0200
0000
0000
0000
,
0000
0300
0000
0000
;

//---------------dance-single - ----------------
#NOTES:
     dance-single:
     :
     Easy:
     4:
     0.256873,0.281959,0.024082,0.144491,0.000000,224.000000,221.000000,3.000000,18.000000,0.000000,0.000000,0.256873,0.281959,0.024082,0.144491,0.000000,224.000000,221.000000,3.000000,18.000000,0.000000,0.000000:
0000
0000
0000
0000
,
0000
0000
0000
0000
,
0000
0000
0000
0000
,
0000
0000
0000
0000
,
0000
0000
0000
0000
,
1000
0100
0001
0000
,
0001
0100
1000
0100
,
0010
0001
0100
0000
,
0100
0001
0010
0100
,
1000
0000
0001
0100
,
0010
0000
0010
0100
,
0001
0010
0001
0000
,
1000
0010
1000
1000
,
0100
0010
0001
0000
,
0001
0010
0100
0000
,
1000
0100
0001
0100
,
1000
0010
0100
0001
,
1000
0000
0001
0100
,
1000
0000
1000
0100
,
0001
0010
0001
0000
,
1000
0010
0100
0001
,
1000
0100
0001
0000
,
0001
0100
1000
0000
,
0010
0100
0001
0100
,
0010
1000
0100
0010
,
0001
0000
0200
0000
,
0320
2030
3020
0230
,
0301
0000
0020
0000
,
0230
2300
3200
0320
,
0031
0000
1000
0100
0000
0000
0000
0000
,
1000
0000
0001
0100
0000
0000
0000
0000
,
0010
1000
0100
1000
,
0001
0100
0010
0010
,
2000
0000
3200
0000
,
0301
0100
1000
0100
,
0020
0000
0032
0000
,
1003
0010
0001
0010
,
1000
1000
0100
0010
,
0001
0001
0100
0010
,
1000
0100
0001
0001
,
1000
0010
0001
0001
,
1000
0010
0100
0001
,
0010
0000
0000
0100
,
1000
0000
0001
0100
,
0010
0000
0010
0100
,
0001
0010
0001
0000
,
1000
0010
1000
1000
,
0100
0010
0001
0000
,
0001
0010
0100
0000
,
1000
0100
0001
0100
,
1000
0010
0100
0001
,
1000
0000
0001
0100
,
1000
0000
1000
0100
,
0001
0010
0001
0000
,
1000
0010
1000
0001
,
1100
0000
0000
0001
,
0101
0000
0000
0010
,
1000
0100
0001
0100
,
1000
0001
0010
0100
,
1000
0010
1000
0020
,
0130
0001
0100
0002
,
1003
0100
0001
0100
,
0001
0010
0100
0001
,
1000
0100
0010
1000
,
0010
0100
1000
0001
,
0100
0010
0100
0010
,
0100
0010
0100
0010
,
1000
0100
0001
0010
,
1000
0100
0001
0100
,
0022
0000
0000
0000
,
0000
0033
0000
0000
;

//---------------dance-single - ----------------
#NOTES:
     dance-single:
     :
     Beginner:
     2:
     0.126143,0.166165,0.000000,0.000000,0.000000,110.000000,110.000000,0.000000,0.000000,0.000000,0.000000,0.126143,0.166165,0.000000,0.000000,0.000000,110.000000,110.000000,0.000000,0.000000,0.000000,0.000000:
0000
0000
0000
0000
,
0000
0000
0000
0000
,
0000
0000
0000
0000
,
0000
0000
0000
0000
,
0000
0000
0000
0000
,
1000
0000
0100
0000
,
1000
0000
1000
0000
,
0001
0000
0100
0000
,
0001
0000
0001
0000
,
0010
0000
0000
0000
,
0100
0000
1000
0000
,
0001
0000
0000
0000
,
0001
0000
0100
0000
,
0010
0000
0000
0000
,
1000
0000
0000
0000
,
0001
0000
0001
0000
,
1000
0000
1000
0000
,
0100
0000
0000
0000
,
1000
0000
0010
0000
,
1000
0000
0000
0000
,
0001
0000
0001
0000
,
0100
0000
0000
0000
,
0010
0000
0000
0000
,
0100
0000
0001
0000
,
1000
0000
1000
0000
,
0001
0000
0100
0000
,
0010
0010
0010
0000
,
0100
0000
0001
0000
,
1000
1000
1000
0000
,
0001
0000
0000
0000
,
0010
0000
0000
0000
,
0001
0000
0001
0000
,
0100
0000
0010
0000
,
1000
0000
0100
0000
,
0010
0010
0010
0000
,
0001
0000
0100
0000
,
0010
0010
0010
0000
,
1000
0000
0000
0000
,
0100
0000
0000
0000
,
0001
0000
0100
0000
,
1000
0000
1000
0000
,
0001
0000
0100
0000
,
0001
0000
0000
0000
,
0010
0000
0000
0000
,
0100
0000
1000
0000
,
0001
0000
0000
0000
,
0001
0000
0100
0000
,
0010
0000
0000
0000
,
1000
0000
0000
0000
,
0001
0000
0001
0000
,
1000
0000
1000
0000
,
0100
0000
0000
0000
,
1000
0000
0010
0000
,
1000
0000
0000
0000
,
0001
0000
0001
0000
,
0100
0000
0000
0000
,
0010
0000
0000
0000
,
0100
0000
0001
0000
,
1000
0000
1000
0000
,
0001
0000
0010
0000
,
0001
0000
0001
0000
,
1000
0000
0100
0000
,
1000
0000
1000
0000
,
0001
0000
0100
0000
,
0001
0000
0001
0000
,
1000
0000
0000
0000
,
1000
0000
0000
0000
,
1000
0000
1000
0000
,
0100
0000
0100
0000
,
0010
0000
0000
0000
;
