#TITLE:Fly you to the star;
#SUBTITLE:;
#ARTIST:Another Infinity feat. Mayumi Morinaga;
#TITLETRANSLIT:;
#SUBTITLETRANSLIT:;
#ARTISTTRANSLIT:;
#GENRE:;
#CREDIT:;
#BANNER:Fly You To The Star.png;
#BACKGROUND:Fly You To The Star-bg.png;
#LYRICSPATH:;
#CDTITLE:;
#MUSIC:Fly You To The Star.ogg;
#OFFSET:2.405284;
#SAMPLESTART:55.439297;
#SAMPLELENGTH:10.799982;
#LASTBEATHINT:3.190284;
#SELECTABLE:YES;
#BPMS:0.000000=141.000000
;
#STOPS:
;
#BGCHANGES:3.000=Fly You To The Star.avi.avi=1.000=1=0=1===CrossFade==,
99999=-nosongbg-=1.000=0=0=0 // don't automatically add -songbackground-
;
#KEYSOUNDS:;
#ATTACKS:;

//---------------dance-single - ----------------
#NOTES:
     dance-single:
     :
     Hard:
     10:
     0.458238,0.457997,0.033676,0.505144,0.029467,381.000000,377.000000,4.000000,60.000000,0.000000,0.000000,0.458238,0.457997,0.033676,0.505144,0.029467,381.000000,377.000000,4.000000,60.000000,0.000000,0.000000:
0000
0000
0000
0000
,
0000
0000
0000
0000
,
0000
0000
0000
0000
,
0000
0000
0000
0000
,
0000
0000
0000
0000
,
0000
0000
0000
0000
,
0001
0000
1000
0100
0000
0100
0010
0000
,
0001
0000
0100
0010
0000
0010
1000
0000
,
0100
0000
0010
0001
0000
0001
1000
0000
,
0100
0000
1000
0000
0010
0100
0010
0100
,
0001
0000
0010
0000
0011
0000
0000
0010
,
0001
0010
0100
1000
0001
0001
0100
0000
,
0010
0000
1000
0000
1010
0000
0000
1000
,
0010
1000
0001
0010
0100
0000
0010
0000
,
0001
0000
0100
0000
0101
0000
0000
0001
,
0010
0001
0100
0010
1000
0000
0010
0000
,
1000
0000
0100
0010
0000
0010
0001
1000
,
0010
0000
1000
0000
0100
0000
0010
0000
0100
0000
0000
0100
1000
0000
0001
0000
,
2000
0000
3020
0000
0230
0000
0301
1000
,
0100
0010
0100
1000
0001
0000
0100
0010
,
2000
0000
3200
0000
0320
0000
0031
1000
,
0001
0100
0010
1000
0020
0000
0130
0000
,
0002
0000
0203
0000
0320
0000
1030
0100
,
1000
0010
0100
0001
0010
0000
0100
0010
,
0002
0000
0023
0000
0230
0000
1300
0001
,
1000
0010
0100
0001
0200
0000
0310
0000
,
2010
0000
3200
0000
2300
0000
3001
0100
,
0001
0000
0000
0010
0000
0000
0001
0000
1000
0000
0100
0000
0010
0000
0100
0000
,
2000
0000
3020
0000
2030
0000
3001
0100
,
0001
0000
0000
0000
0010
0000
0000
0000
0000
0100
0000
0000
1000
0000
0000
0000
0000
0000
1000
0000
0000
0000
0000
0000
,
0002
0000
0203
0000
0302
0000
1003
0100
,
1000
0000
0000
0010
0000
0000
0100
0000
0001
0000
0100
0000
0010
0000
1000
0000
,
0002
0023
0032
0203
,
0310
0000
1000
0010
0100
0001
1000
0001
,
1000
0100
0010
0100
1000
0020
0000
0230
,
0000
0001
0000
0310
1000
0001
0100
0010
,
1000
0100
0010
0100
1000
0020
0000
0230
,
0000
0001
0000
0310
1000
0001
1000
1000
,
0001
0010
0100
0010
0001
0200
0000
0320
,
0000
1000
0000
0130
0001
0100
0010
1000
,
0001
0010
0100
0010
0001
0200
0000
0320
,
0000
1000
0000
0130
0001
1000
0001
0010
,
0002
0000
0023
0000
0230
0000
1300
0010
,
1000
0000
0000
0001
0000
0000
0100
0000
0010
0000
0100
0000
0001
0000
0010
0000
,
0002
0000
0203
0000
0320
0000
1030
0100
,
0010
0000
0000
0001
0000
0000
0010
0000
0100
0000
0000
0000
1000
0000
0000
0000
,
2000
0000
3200
0000
0320
0000
0031
0100
,
0001
0000
0000
0010
0000
0000
0100
0000
1000
0000
0001
0000
0100
0000
0001
0000
,
2000
3020
0230
0302
,
0013
0000
0100
1000
0010
0100
0001
1000
,
0001
0010
0100
0010
0001
1000
0000
1000
,
0100
0010
0100
0010
0001
0100
0010
1000
,
0001
0010
0100
0010
0001
0200
0000
0320
,
0000
1000
0000
0130
0001
0010
0100
1000
,
0001
0100
0010
0100
0001
0020
0000
0230
,
0000
1000
0000
0310
0001
0010
0100
1000
,
1000
0010
0100
0010
1000
0200
0000
0320
,
0000
0001
0000
0130
1000
0010
0100
0001
,
1000
0100
0010
0100
1000
0020
0000
0230
,
0000
0001
0000
0310
1000
0100
0010
0001
,
1000
0100
0010
0100
1000
0010
0100
0002
,
0000
0010
0000
1003
0100
0010
0100
1000
,
0001
0010
0100
0010
0001
0100
0010
2000
,
0000
0100
0000
3001
0010
0100
0010
0001
,
1000
0100
0001
0100
1000
0001
0010
0002
,
0000
0100
0000
1003
0010
0100
0010
1000
,
0001
0010
1000
0010
0001
2000
0000
0100
,
0000
3001
0000
0010
0001
0100
0010
1000
,
0100
0000
0000
0000
;

//---------------dance-single - ----------------
#NOTES:
     dance-single:
     :
     Medium:
     7:
     0.339168,0.314873,0.000000,0.126286,0.000000,282.000000,282.000000,0.000000,15.000000,0.000000,0.000000,0.339168,0.314873,0.000000,0.126286,0.000000,282.000000,282.000000,0.000000,15.000000,0.000000,0.000000:
0000
0000
0000
0000
,
0000
0000
0000
0000
,
0000
0000
0000
0000
,
0000
0000
0000
0000
,
0000
0000
0000
0000
,
0000
0000
0000
0000
,
1000
0000
0010
0100
0000
0100
0010
0000
,
1000
0000
0010
0100
0000
0100
0010
0000
,
1000
0000
0100
0010
0000
0010
0100
0000
,
1000
0000
0001
0001
,
1000
0100
0010
0010
,
0001
1000
0010
1000
0001
0000
0100
0000
,
0001
0010
0100
0100
,
1000
0001
0010
0001
1000
0000
0100
0000
,
1000
0001
1000
1000
,
0010
0100
0001
0100
0010
0000
0100
0000
,
0001
1000
0001
0000
,
0010
0100
1000
0100
0010
0000
0010
0000
,
0001
0010
0100
0000
,
0100
0010
0001
0010
0100
0000
1000
0000
,
0001
0010
0100
0000
,
0100
0010
0001
0010
0100
0000
1000
0000
,
1000
0100
0010
0000
,
0010
0100
1000
0100
0010
0000
0001
0000
,
1000
0100
0010
0000
,
0010
0001
1000
0001
0010
0000
0001
0000
,
2000
3200
0302
0103
,
1000
0000
0010
0000
0100
0001
0100
0000
,
0002
0203
2300
3100
,
0001
0000
0010
0100
0020
0000
0030
0000
,
0002
0203
2300
3100
,
0001
0000
0010
0000
0100
1000
0100
0000
,
2000
3200
0302
0203
,
2300
0000
3000
0000
0001
0010
0001
0010
,
0001
1000
0100
0010
,
0001
0000
0001
0000
1000
0010
1000
0000
,
0001
1000
0100
0010
,
0001
0000
0001
0000
1000
0100
1000
0000
,
0001
0010
0100
1000
,
0001
0000
0001
0000
0100
0010
0100
0000
,
0001
0000
1000
0100
0000
0100
1000
0000
,
0010
0000
0100
0001
0000
0001
0100
0000
,
0010
1000
0001
0000
,
0001
0000
1000
0000
0010
0100
0010
0000
,
1000
0100
0010
0000
,
0010
0000
0001
1000
0001
0000
0000
0000
,
0100
0010
1000
0000
,
1000
0000
0001
0000
0010
0100
0010
0000
,
0001
0100
0010
0100
,
0001
0000
0000
0000
1000
0100
1000
0000
,
0001
0010
0100
1000
,
0010
0000
0100
0000
0001
1000
0001
0000
,
1000
0001
0010
0100
,
1000
0000
1000
0000
0001
0100
0001
0000
,
1000
0001
0010
0100
,
1000
0000
1000
0000
0001
0010
0001
0000
,
1000
0100
0010
0001
,
1000
0000
1000
0000
0010
0100
0010
0000
,
1000
0100
0010
0001
,
1000
0000
1000
0000
0010
0100
0010
0100
,
0001
1000
0100
1000
,
0010
0000
0100
0000
0001
0010
0001
0010
,
0001
1000
0100
1000
,
0010
0000
0100
0000
0001
0010
0001
0000
,
1000
0001
0100
0001
,
0010
0000
0100
0000
1000
0100
1000
0100
,
1000
0001
0100
0001
,
0010
0000
0100
0000
1000
0001
0100
0001
,
1000
0000
0000
0000
;

//---------------dance-single - ----------------
#NOTES:
     dance-single:
     :
     Easy:
     4:
     0.323533,0.343498,0.345182,0.050514,0.000000,269.000000,228.000000,41.000000,6.000000,0.000000,0.000000,0.323533,0.343498,0.345182,0.050514,0.000000,269.000000,228.000000,41.000000,6.000000,0.000000,0.000000:
0000
0000
0000
0000
,
0000
0000
0000
0000
,
0000
0000
0000
0000
,
0000
0000
0000
0000
,
0000
0000
0000
0000
,
0000
0000
0000
0000
,
1000
0010
0100
0010
,
1000
0001
0100
0001
,
0001
0010
0100
0010
,
0001
0000
1000
0100
,
1001
0110
1001
0000
,
1000
0100
0020
0031
,
1001
0110
1001
0000
,
0001
0100
0020
0030
,
1010
0101
1001
0000
,
1000
0100
0001
0100
,
1100
0011
1001
0000
,
0001
0010
0001
0000
,
1000
0100
1000
0000
,
0010
0100
0001
0010
,
0001
0100
0001
0000
,
0010
0100
1000
0000
,
1000
0100
1000
0000
,
0010
0100
0001
0010
,
0001
0100
0001
0010
,
0100
1000
0100
0000
,
1000
0010
0001
0010
,
1000
0001
0010
0010
,
0001
0100
1000
0100
,
0001
0010
0110
0000
,
0001
0100
1000
0100
,
0001
1000
0100
0100
,
1000
0010
0001
0010
,
1000
0000
1000
0100
,
1000
0010
0100
0001
,
0010
0001
0101
1010
,
1000
0010
0100
0001
,
0010
0001
0101
1100
,
0001
0010
0100
1000
,
0010
1000
1100
0011
,
0001
0010
0100
0000
,
1000
0010
0100
0100
,
0101
1001
1100
0000
,
0100
0010
0001
0010
,
1100
1001
0101
0000
,
0100
0010
1000
0000
,
1100
1001
1010
0000
,
0010
0100
0001
0010
,
1100
1000
0101
0001
,
0010
0000
0010
0001
,
1000
0010
0100
0001
,
0010
0010
0001
0000
,
1000
0100
0001
0100
,
1000
0010
1010
0101
,
0001
0100
1000
0100
,
0001
0010
0011
1100
,
1000
0010
0100
0010
,
1000
0100
0011
1100
,
0001
0100
0010
0100
,
0001
0010
1100
0011
,
0001
0010
0100
1000
,
0010
0100
2000
3200
,
0301
0010
0100
1000
,
0010
0100
0101
1010
,
1000
0100
0010
0001
,
0100
1000
0002
0023
,
1030
0100
0010
0001
,
0100
0100
0010
1000
,
1001
0000
0000
0000
;

//---------------dance-single - ----------------
#NOTES:
     dance-single:
     :
     Beginner:
     2:
     0.178003,0.200374,0.000000,0.000000,0.000000,148.000000,148.000000,0.000000,0.000000,0.000000,0.000000,0.178003,0.200374,0.000000,0.000000,0.000000,148.000000,148.000000,0.000000,0.000000,0.000000,0.000000:
0000
0000
0000
0000
,
0000
0000
0000
0000
,
0000
0000
0000
0000
,
0000
0000
0000
0000
,
0000
0000
0000
0000
,
0000
0000
0000
0000
,
1000
0000
1000
0000
,
0001
0000
0001
0000
,
1000
0000
1000
0000
,
0100
0000
0000
0000
,
0010
0010
0010
0000
,
0001
0000
1000
0000
,
0010
0010
0010
0000
,
1000
0000
0001
0000
,
0100
0100
0100
0000
,
0001
0000
1000
0000
,
0100
0100
0100
0000
,
1000
0000
0001
0000
,
1000
0000
1000
0000
,
0100
0000
0100
0000
,
1000
0000
1000
0000
,
0010
0000
0010
0000
,
0001
0000
0001
0000
,
0100
0000
0100
0000
,
0001
0000
0001
0000
,
0010
0000
0010
0000
,
0100
0100
0100
0000
,
1000
0000
1000
0000
,
0100
0100
0100
0000
,
0001
0000
0001
0000
,
0100
0100
0100
0000
,
0001
0000
0001
0000
,
0100
0100
0100
0000
,
1000
0000
0000
0000
,
1000
1000
1000
0000
,
0001
0000
0010
0000
,
0001
0001
0001
0000
,
1000
0000
0010
0000
,
1000
1000
1000
0000
,
0100
0000
0100
0000
,
0001
0001
0001
0000
,
0100
0000
0100
0000
,
0010
0010
0010
0000
,
0001
0000
1000
0000
,
0010
0010
0010
0000
,
1000
0000
0001
0000
,
0100
0100
0100
0000
,
0001
0000
1000
0000
,
0100
0100
0100
0000
,
1000
0000
0000
0000
,
0001
0001
0001
0000
,
1000
1000
1000
0000
,
0001
0001
0001
0000
,
1000
0000
0010
0000
,
1000
1000
1000
0000
,
0001
0000
0010
0000
,
0100
0100
0100
0000
,
0010
0000
0001
0000
,
0010
0010
0010
0000
,
0100
0000
1000
0000
,
0001
0001
0001
0000
,
0100
0000
1000
0000
,
0001
0001
0001
0000
,
0100
0000
1000
0000
,
1000
1000
1000
0000
,
0100
0000
0001
0000
,
1000
1000
1000
0000
,
0100
0000
0001
0000
,
0010
0000
0000
0000
;

//---------------dance-single - ----------------
#NOTES:
     dance-single:
     :
     Challenge:
     16:
     0.921287,0.948092,0.185219,0.210477,0.972402,766.000000,744.000000,22.000000,25.000000,0.000000,0.000000,0.921287,0.948092,0.185219,0.210477,0.972402,766.000000,744.000000,22.000000,25.000000,0.000000,0.000000:
// measure 0
0000
0000
0000
0000
,  // measure 1
0000
0000
0000
0000
,  // measure 2
0100
0010
0001
1000
0010
1000
0001
0010
,  // measure 3
0001
0100
0010
1000
0001
1000
0100
0010
,  // measure 4
0001
0100
0010
1000
0001
1000
0100
1000
,  // measure 5
0001
0010
0100
1000
0010
0100
0001
1000
,  // measure 6
1100
0000
1000
0101
0000
0001
0010
0000
,  // measure 7
0101
0000
0001
1100
0000
1000
0010
0000
,  // measure 8
1100
0000
1000
0101
0000
0001
0010
0100
,  // measure 9
2000
3000
0002
0003
0200
0300
0020
0030
,  // measure 10
1000
0100
0010
0001
0100
0001
0010
0100
0010
0100
1000
0001
0100
0001
1000
0100
,  // measure 11
1000
0100
0010
0001
1000
0010
0100
0010
1000
0100
0010
0001
1000
0010
0100
0001
,  // measure 12
1000
0010
0100
0001
1000
0100
0010
0001
0010
0001
1000
0100
1000
0010
0100
0001
,  // measure 13
0100
0001
1000
0100
0010
0100
1000
0001
1000
0010
0100
0001
1000
0100
0010
0001
,  // measure 14
1000
0100
0010
0001
0100
0001
0010
0100
0010
0100
1000
0001
0100
0001
1000
0100
,  // measure 15
1000
0100
0010
0001
1000
0010
0100
0010
1000
0100
0010
0001
1000
0010
0100
0001
,  // measure 16
1000
0010
0100
0001
1000
0100
0010
0001
0010
0001
1000
0100
1000
0010
0100
0001
,  // measure 17
0100
0001
1000
0100
0010
0100
1000
0001
1000
0010
0100
0001
1000
0100
0010
0001
,  // measure 18
1000
0010
0110
0001
1000
0100
0110
0001
,  // measure 19
0100
0001
1000
0100
0010
0020
0001
0031
,  // measure 20
1000
0100
0110
0001
1000
0010
0110
0001
,  // measure 21
1000
0000
0100
0000
0200
0000
0310
0000
0001
1000
0010
1000
0001
0010
0100
0010
,  // measure 22
0001
0010
0110
1000
0001
0100
0110
1000
,  // measure 23
0100
1000
0001
0002
0100
0103
0010
1000
,  // measure 24
1100
0000
0010
0011
1000
0001
0100
0010
,  // measure 25
1010
0000
0100
0000
0001
0000
0100
0000
0010
1000
0010
1000
0001
0010
0001
0010
,  // measure 26
0100
1000
0010
1000
0002
0100
0103
0010
,  // measure 27
1000
0000
0100
0010
0100
0000
1000
0000
0001
0000
0010
0000
0100
0000
1000
0000
,  // measure 28
0001
0100
1000
0100
0002
0010
0013
0100
,  // measure 29
1000
0000
0001
0100
0001
0000
1000
0000
1020
0000
0000
0000
0130
0000
0001
0000
,  // measure 30
1000
0100
0001
0100
2000
0010
3010
0100
,  // measure 31
0001
0000
1000
0010
1000
0000
0100
0000
1000
0000
0010
0000
0100
0000
0001
0000
,  // measure 32
1000
0100
1000
0100
0010
0001
0010
0001
1000
0010
1000
0010
0100
0001
0100
0001
,  // measure 33
1000
0100
1000
0100
0010
0001
0010
0001
1000
0010
1000
0010
0100
0001
0100
0001
,  // measure 34
1000
0100
0010
0100
1000
0001
0010
0002
,  // measure 35
0100
0103
0010
1000
0001
0002
0100
0103
,  // measure 36
0001
0100
1000
0100
0001
0010
0100
0020
,  // measure 37
0001
0000
0130
0000
0200
0000
1000
0000
1300
0001
0010
0001
1000
0100
0010
0100
,  // measure 38
1000
0010
0001
0010
1000
0001
0100
0002
,  // measure 39
0100
1003
0010
0020
0100
0130
0001
1000
,  // measure 40
1100
0000
1000
0101
0000
0001
0010
0100
,  // measure 41
1100
1000
0010
0101
0010
0101
0010
1000
,  // measure 42
0001
0010
0100
1000
0001
0100
0010
1000
0010
1000
0100
0010
0100
1000
0001
0100
,  // measure 43
0001
0100
0010
1000
0100
1000
0001
0010
0001
0010
0100
1000
0001
0100
0010
1000
,  // measure 44
0001
1000
0100
0010
0001
1000
0010
0100
0010
0100
0001
1000
0001
0010
0100
1000
,  // measure 45
0100
1000
0001
0100
0001
1000
0010
0100
0001
0010
0100
1000
0001
0100
0010
1000
,  // measure 46
0001
0010
0100
1000
0100
0010
0001
0100
0001
0100
0010
1000
0010
0100
0001
0010
,  // measure 47
0001
0010
0100
1000
0100
0010
0001
1000
0001
0100
0010
1000
0001
0010
0100
1000
,  // measure 48
0001
0100
0001
0100
0010
1000
0010
1000
0001
0010
0001
0010
0100
1000
0100
1000
,  // measure 49
0001
0100
0001
0100
0010
1000
0010
1000
0001
0010
0001
0010
0100
1000
0100
1000
,  // measure 50
0001
0100
1000
0100
0001
1000
0010
2000
,  // measure 51
3100
0010
0100
0010
0001
1000
0010
1000
0001
0010
0100
1000
0100
0010
0001
1000
,  // measure 52
0001
0010
0100
0010
0001
1000
0100
2000
,  // measure 53
0010
3001
0002
0100
0103
0010
1000
0100
,  // measure 54
1000
0010
0001
0010
1000
0100
0010
0020
,  // measure 55
0001
0000
0031
0000
1000
0000
0010
0000
1000
0100
0010
0100
1000
0001
0100
0001
,  // measure 56
1000
0010
0001
0010
1000
0001
0100
0001
,  // measure 57
0002
0010
0013
0100
1000
0010
1000
0100
,  // measure 58
1000
0010
0001
0010
1000
2000
0100
3100
,  // measure 59
0010
0001
0100
1000
0100
0001
0010
0100
,  // measure 60
1000
0100
0010
0001
1000
0010
0100
0001
0100
0001
0010
0100
0010
0001
1000
0010
,  // measure 61
1000
0010
0100
0001
0010
0001
1000
0100
1000
0100
0010
0001
1000
0010
0100
0001
,  // measure 62
1000
0001
0010
0100
1000
0001
0100
0010
0100
0010
1000
0001
1000
0100
0010
0001
,  // measure 63
0010
0001
1000
0010
1000
0001
0100
0010
1000
0100
0010
0001
1000
0010
0100
0001
,  // measure 64
1000
0100
0010
0001
0010
0100
1000
0010
1000
0010
0100
0001
0100
0010
1000
0100
,  // measure 65
1000
0100
0010
0001
0010
0100
1000
0001
1000
0010
0100
0001
1000
0100
0010
0001
,  // measure 66
1000
0010
1000
0001
0010
0001
0100
0010
0100
0010
1000
0001
1000
0010
0100
0001
,  // measure 67
0100
0001
0010
0100
0010
0001
1000
0010
1000
0000
0100
0000
0001
0000
0100
0000
,  // measure 68
2002
3003
0000
0000
;
