#TITLE:FUTURE is Dead;
#SUBTITLE:;
#ARTIST:C-Show;
#TITLETRANSLIT:;
#SUBTITLETRANSLIT:;
#ARTISTTRANSLIT:;
#GENRE:;
#CREDIT:;
#BANNER:FUTURE is Dead.png;
#BACKGROUND:FUTURE is Dead-bg.png;
#LYRICSPATH:;
#CDTITLE:;
#MUSIC:FUTURE is Dead.ogg;
#OFFSET:1.133899;
#SAMPLESTART:29.395733;
#SAMPLELENGTH:13.100002;
#LASTBEATHINT:0.158002;
#SELECTABLE:YES;
#BPMS:0.000000=110.000000
,140.000000=220.000000
,172.000000=110.000000
,176.000000=220.000000
,200.000000=110.000000
;
#STOPS:
;
#BGCHANGES:2.750=FUTURE is Dead.avi=1.000=1=0=1===CrossFade==,
242.000=FUTURE is Dead-bg.png=1.000=0=0=1===CrossFade_Faster==,
99999=-nosongbg-=1.000=0=0=0 // don't automatically add -songbackground-
;
#KEYSOUNDS:;
#ATTACKS:;

//---------------dance-single - ----------------
#NOTES:
     dance-single:
     :
     Hard:
     16:
     0.792285,0.972835,0.224500,0.315964,1.080928,667.000000,640.000000,27.000000,38.000000,0.000000,0.000000,0.792285,0.972835,0.224500,0.315964,1.080928,667.000000,640.000000,27.000000,38.000000,0.000000,0.000000:
0000
0000
0000
0000
,
0000
0000
0000
0000
,
0000
0000
0000
0000
,
0000
0000
0000
0000
,
0000
0000
0000
0000
,
1001
0000
1000
0000
0010
0100
0001
0000
1000
0000
0001
0100
0010
0000
1000
0001
,
1000
0000
0100
0000
0010
0001
0100
0000
0010
0000
0100
0001
0020
0000
0032
0000
,
1003
0000
0100
0000
0010
0001
1000
0000
0100
0000
1000
0001
0010
0000
0001
0100
,
0001
0000
0010
0000
0100
0000
1000
0000
0010
0000
0100
0000
0001
0010
0100
0010
0001
0000
0010
0000
0100
0000
1000
0000
0010
0000
0100
0000
0001
0000
0000
0000
,
0011
0010
0100
1000
0010
0100
0001
0100
0010
0100
0001
0100
0010
0100
0001
0100
,
0010
0100
0001
0100
0010
0100
0001
0100
0010
0100
0001
0100
0010
0100
0002
0000
,
1003
0100
0010
0001
1000
0100
0010
0001
1000
0100
0010
0001
1000
0100
0010
0001
,
0001
0000
0010
0000
0100
0000
1000
0000
0001
0000
0010
0000
0100
0000
1000
0000
0001
0010
0001
0010
0100
1000
0100
1000
0001
0000
0000
0000
0100
0000
0000
0000
,
0101
0000
0100
0010
1000
0010
0000
0100
0001
0010
0000
0100
1000
0010
1000
0000
,
1100
0000
0100
0010
0001
0010
0000
0100
1000
0010
0000
0100
0001
0100
0010
1000
,
1200
0000
0000
0000
0000
0000
0310
0000
0000
0001
0000
0000
1000
0000
0000
0001
0000
0000
0000
0000
0000
0100
0000
0000
0001
0000
0000
0010
0000
0000
0000
0000
0000
0100
0000
0000
1000
0000
0100
0000
0010
0000
0001
0000
0010
0000
0100
0000
,
1000
0000
0100
0010
0001
0010
0000
0100
1000
0010
0000
0100
0001
0100
0010
1000
,
1200
0000
0010
0000
1300
0000
0001
0000
1000
0010
0100
0001
1000
0100
1000
0000
,
0102
0000
0023
0000
0130
0000
0100
0000
0010
0100
1000
0010
0000
0100
0001
0001
,
0200
0000
0000
0000
0000
0000
0310
0000
0000
1000
0000
0000
0001
0000
0000
1000
0000
0000
0000
0000
0000
0100
0000
0000
1000
0000
0000
0010
0000
0000
0000
0000
0000
0100
0000
0000
0001
0000
0010
0000
0100
0000
1000
0000
0010
0000
0100
0000
,
0002
0000
0103
0010
1000
0010
0000
0100
0001
0010
0001
0100
0010
0000
1000
0000
,
0201
0000
0000
0000
,
0000
0000
0000
0000
0000
0000
0000
0000
0000
0000
0000
0000
0301
1000
0001
1000
,
0001
0100
0010
0100
0001
0100
0010
1000
0000
0010
0100
0001
0000
0010
0100
0010
,
0001
0100
0010
0100
0001
0100
0010
1000
0000
0010
0100
0001
0000
1000
0100
0010
,
0001
0100
0010
0100
0001
0100
0010
1000
0000
0010
0100
0001
0000
0010
0001
0010
,
0100
0000
0000
0000
1000
0000
0000
0000
1010
0000
0000
0000
0010
0000
1000
0000
0001
0000
1000
0000
0001
0100
0001
0100
0010
0000
1000
0000
0010
0000
0100
0000
,
0001
0000
0010
0000
0100
0000
0100
0000
1000
0000
0001
0000
0100
0000
0100
0000
0010
0000
1000
0000
0100
0000
0010
0000
0001
0000
0100
0010
0100
0000
0001
0000
,
2000
3010
0200
0310
1000
0001
1000
0100
0010
0001
0010
0100
2000
3001
0100
0001
,
1000
0100
1000
0100
0010
0001
1000
0001
0100
0010
0100
0010
0100
0100
0001
0001
,
1000
0000
0100
0000
0010
0001
0010
0001
1000
0000
0010
0000
0100
0000
0100
0000
0001
0000
1000
0000
0010
0000
0100
0000
0001
0000
0010
0000
0100
0000
1000
0000
,
1010
0000
0010
0000
0100
0000
0001
0000
0010
0000
0001
0000
0100
0000
0010
0000
1000
0000
0010
0000
0100
0000
0001
0000
0010
0000
0001
0000
0100
0000
0010
1000
,
0001
0010
0100
1000
0010
1000
0100
0010
0001
0010
0100
1000
0010
1000
0100
0010
,
0001
0001
0100
0100
0010
0010
1000
1000
0100
0100
1000
1000
0010
0010
0100
0100
,
0001
0010
0001
0000
1000
0010
1000
0000
0001
0100
0001
0000
1000
0100
1000
0000
0010
0000
0100
0000
0001
1000
0001
1000
0020
0000
0000
0000
1030
0000
0000
0000
,
1100
0000
0000
1000
0010
0000
1000
0000
0001
0000
0100
0000
0001
0000
0100
0000
,
0002
0000
0003
1000
0100
0000
0010
0000
0100
0000
0010
0000
0200
0000
0300
0000
,
1100
0000
0000
1000
0001
0000
0010
0000
0001
0000
0100
0000
0001
0000
0100
0000
,
0002
0000
0003
1000
0100
0000
0010
0000
0100
0000
0010
0000
0002
0000
0003
0000
,
1100
0000
0000
1000
0010
0000
0100
0000
0001
0000
1000
0000
0001
0000
1000
0000
,
0002
0000
0003
0010
0100
0000
1000
0000
0100
0000
1000
0000
0002
0000
0003
0000
,
0101
0000
0000
0001
1000
0000
0001
0000
0100
0000
0010
0000
0100
0000
0010
0000
,
0200
0000
0300
0010
1000
0000
0001
0000
0010
0000
0000
0000
0001
0000
0001
0000
,
2000
0000
0000
0000
3020
0000
0000
0000
0130
0000
0000
0000
0100
0000
0001
0000
1000
0000
0001
0000
0010
0100
0010
0100
2000
0000
0000
0000
3100
0000
0000
0000
,
0011
0000
0000
0001
1000
0000
0100
0000
0010
0000
0001
0000
0010
0000
0001
0000
,
0020
0000
0030
0100
1000
0000
0001
0000
1000
0000
0001
0000
0200
0000
0300
0000
,
0110
0000
0000
0010
1000
0000
0001
0000
1000
0000
0100
0000
1000
0000
0100
0000
,
2000
0000
3000
0001
0010
0000
0100
0000
0010
0000
0100
0000
2000
0000
3000
0000
,
1010
0000
0000
0010
0100
0000
0001
0000
1000
0000
0010
0000
1000
0000
0010
0000
,
2000
0000
3000
0001
0010
0000
0100
0000
1000
0000
0000
0000
0001
0000
0001
0000
,
1000
0000
0010
0000
0100
0000
0100
0000
1002
0000
0100
0000
1003
0100
0001
0000
,
1200
0000
0310
0000
0001
0000
0001
0000
0201
0000
0310
1000
0000
1000
0001
0000
,
0201
0000
0000
0310
0000
0000
1000
0000
0000
1000
0000
0000
1200
0000
0000
0310
0000
0000
0001
0010
0100
1000
0100
0010
,
0002
0000
1003
0000
0010
0000
0010
0000
2010
0000
3001
0010
0000
0001
1000
0000
,
0100
0000
0000
0000
1000
0000
0000
0000
0010
0000
0100
0000
0001
0000
0010
0000
0100
0000
0010
0000
0001
1000
0001
1000
0020
0000
0000
0000
1030
0000
0000
0000
,
0101
0000
0010
0000
1000
0100
0010
0000
0011
0000
0100
0001
1000
0001
0100
0000
,
1100
0000
0000
0000
0000
0000
0010
0000
0000
0000
0000
0000
0001
0000
0000
0000
0000
0000
1000
0000
0000
0000
0000
0000
0101
0000
0000
0000
0000
0000
0010
0000
0000
0100
0000
0000
0001
0000
0100
0000
0010
0000
1000
0000
0100
0000
0010
0000
,
0001
0000
1000
0001
0010
0100
1000
0010
0100
0000
0001
1000
0000
0000
1000
0000
,
0200
0000
0000
0000
0000
0000
0000
0000
0000
0000
0000
0000
0000
0000
1300
0010
,
1000
0100
0010
0001
1000
0100
0010
0001
1000
0001
0010
0100
1000
0010
0100
0001
,
0100
0000
0000
0000
;

//---------------dance-single - ----------------
#NOTES:
     dance-single:
     :
     Medium:
     12:
     0.479885,0.548779,0.149667,0.241130,0.174611,404.000000,386.000000,18.000000,29.000000,0.000000,0.000000,0.479885,0.548779,0.149667,0.241130,0.174611,404.000000,386.000000,18.000000,29.000000,0.000000,0.000000:
// measure 0
0000
0000
0000
0000
,  // measure 1
0000
0000
0000
0000
,  // measure 2
0000
0000
0000
0000
,  // measure 3
0000
0000
0000
0000
,  // measure 4
0000
0000
0000
0000
,  // measure 5
1000
0000
0100
0000
0001
0000
0100
0000
1000
0000
0001
0010
0100
0000
0100
0000
,  // measure 6
1000
0000
0010
0000
0001
0000
0010
0000
1000
0000
0001
0100
0010
0000
0100
0000
,  // measure 7
0001
0000
0010
0000
1000
0000
0010
0000
0001
0000
0100
0010
1000
0000
1000
0000
,  // measure 8
0001
0000
0000
0100
0000
0000
0010
0000
0000
1000
0000
0000
0100
0000
0011
0000
,  // measure 9
0100
1000
0001
0001
0001
0001
0001
0001
,  // measure 10
0001
0001
0001
0001
0001
0001
0001
0000
,  // measure 11
0001
0010
0100
1000
0001
0010
0100
1000
,  // measure 12
0001
0100
0001
0000
1000
0100
1000
0000
0010
0000
0100
0000
1001
0000
0000
0000
,  // measure 13
0201
0000
0000
0000
0310
0000
0000
0000
1000
0000
0100
0000
0010
0001
0010
0000
,  // measure 14
2100
0000
3010
0000
0100
0001
0010
0100
,  // measure 15
1200
0000
0000
0000
0310
0000
0000
0000
0001
0000
0100
0000
0010
1000
0010
0000
,  // measure 16
0102
0000
0013
0000
0100
1000
0010
0100
,  // measure 17
0002
0000
2003
0000
3100
0000
0010
0000
0100
0000
0010
0000
0100
1000
0100
0000
,  // measure 18
0010
0000
0002
0000
0100
0000
0103
0000
0010
0000
1000
0001
0000
0000
0010
0000
,  // measure 19
0012
0000
0000
0000
1003
0000
0000
0000
0001
0000
0100
0000
0010
1000
0010
0000
,  // measure 20
0102
0000
0013
0000
0100
1000
0010
0100
,  // measure 21
0002
0000
0000
0000
,  // measure 22
0000
0000
0000
0000
0000
0000
0000
0000
0000
0000
0000
0000
0103
0010
0100
0010
,  // measure 23
1000
0000
0100
0000
0010
0000
0100
1000
0000
1000
0001
0000
0000
0000
0001
0000
,  // measure 24
1000
0000
0010
0000
0100
0000
0010
1000
0000
1000
0001
0000
0000
0000
0010
0000
,  // measure 25
0001
0000
0100
0000
0010
0000
0100
0001
0000
0001
1000
0000
0000
0000
1000
0000
,  // measure 26
0100
0000
0010
0000
0001
0000
0010
0000
0200
0000
0000
0000
1300
0001
1000
0000
,  // measure 27
0010
0010
0100
0100
0001
0010
1000
0010
,  // measure 28
0001
1000
0001
0000
0100
0001
0100
0000
0010
0000
1000
0000
0100
0000
0100
0000
,  // measure 29
0010
0000
0001
0000
0100
0000
1000
0000
0100
0000
0001
0000
0010
0100
1000
0000
,  // measure 30
0200
0000
0010
0000
0310
0001
1000
0010
,  // measure 31
0101
0001
1000
0001
0010
0001
1000
0001
,  // measure 32
1100
1000
0001
1000
0010
1000
0001
1000
,  // measure 33
0100
1000
0100
0000
0010
0001
0010
0000
0001
0100
0001
0000
1000
0010
1000
0000
,  // measure 34
0100
0010
0002
0000
0013
0100
1001
0000
,  // measure 35
1100
0000
2000
0000
3001
0100
0001
0100
,  // measure 36
0001
0000
1000
0010
1000
0000
0200
0000
,  // measure 37
0301
0000
2000
0000
3001
0010
0001
0010
,  // measure 38
0001
0000
1000
0100
1000
0000
0020
0000
,  // measure 39
0130
0000
2000
0000
3001
0100
0001
0100
,  // measure 40
0001
0000
1000
0100
1000
0000
0020
0000
,  // measure 41
0031
0000
0200
0000
0310
1000
0010
1000
,  // measure 42
0010
0000
0100
0001
2000
0000
3100
0000
,  // measure 43
1100
0010
0001
1000
0001
1000
0100
0100
,  // measure 44
1001
0000
0002
0000
1003
0010
1000
0010
,  // measure 45
1000
0000
0001
0100
0001
0000
0020
0000
,  // measure 46
0130
0000
0002
0000
1003
0100
1000
0100
,  // measure 47
1000
0000
0001
0010
0001
0000
0200
0000
,  // measure 48
1300
0000
0020
0000
0130
0001
0100
0001
,  // measure 49
0100
0000
0010
1000
0020
0000
0230
0000
,  // measure 50
0301
0000
0010
0000
0100
0000
0100
0000
1000
0000
0001
0000
0010
0100
1000
0000
,  // measure 51
1010
0000
0100
0000
0001
0000
0001
0000
0010
0000
0100
1000
0000
1000
0010
0000
,  // measure 52
1001
0100
0001
0001
1000
0001
0010
0100
,  // measure 53
1100
0000
0010
0000
0001
0000
0001
0000
1000
0000
0001
0010
0000
0001
0010
0000
,  // measure 54
0100
0000
0100
0000
1000
0001
1000
0000
0100
0000
0010
0001
1000
0000
0010
0000
,  // measure 55
0100
0000
0001
0000
1000
0010
1000
0000
0001
0000
0100
0010
0000
1000
0010
0000
,  // measure 56
0100
0000
0001
0000
0010
0000
0001
0000
0100
0000
0010
1000
0000
0000
0000
0000
,  // measure 57
0001
0000
0010
0000
0100
0000
0010
0000
0001
0000
0000
0100
0000
0000
0010
0000
,  // measure 58
2000
0000
0000
0000
,  // measure 59
0000
0000
0000
0000
0000
0000
3000
0000
0000
0001
0010
0001
1000
0000
1000
0000
,  // measure 60
0101
0000
0000
0000
;

//---------------dance-single - ----------------
#NOTES:
     dance-single:
     :
     Easy:
     9:
     0.378919,0.424056,0.033259,0.207871,0.016630,319.000000,315.000000,4.000000,25.000000,0.000000,0.000000,0.378919,0.424056,0.033259,0.207871,0.016630,319.000000,315.000000,4.000000,25.000000,0.000000,0.000000:
0000
0000
0000
0000
,
0000
0000
0000
0000
,
0000
0000
0000
0000
,
0000
0000
0000
0000
,
0000
0000
0000
0000
,
0010
1000
0001
1000
0100
0010
0001
0000
,
1000
0100
0010
0100
1000
0001
0010
0000
,
0001
0100
0010
0100
0001
1000
0010
0000
,
1000
0100
0010
0001
0010
0100
2000
0000
,
3001
0100
0010
1000
0010
1000
0010
1000
,
0010
1000
0010
1000
0010
1000
0010
0000
,
0100
0001
1000
0001
0010
0001
1000
0001
,
0100
0010
1000
0001
0100
0010
2000
0000
,
3100
0010
0001
0000
1000
1000
0010
0000
,
0100
0010
1000
0000
0001
0001
0010
0001
,
0100
0010
1000
0000
0001
0001
0010
0000
,
0100
0010
0001
0000
1000
0010
1000
0001
,
0200
0000
0310
1000
0010
1000
0020
0000
,
0130
0000
0001
0000
1000
0000
1000
0000
0100
0000
0010
0002
0000
0000
1000
0000
,
1003
0100
0010
0000
0001
1000
0001
0000
,
0100
0010
1000
0000
0001
0010
0001
0001
,
0200
0000
0000
0000
,
0000
0000
0000
0310
,
1010
0001
0010
0000
0100
0010
0001
0000
,
0011
1000
0010
0000
0100
0010
1000
0010
,
0101
1000
0001
0000
1000
0100
0010
0000
,
0001
1000
0001
1000
0020
0000
0230
0000
,
0301
0010
1000
0010
0001
0100
1000
1000
,
0100
0001
0010
0001
0100
0010
1000
0001
,
1000
0100
0001
0100
1000
0010
0001
0001
,
0010
0100
0001
0100
0010
1000
0002
0000
,
1003
0100
0010
0100
1000
0100
0010
0000
,
0001
0100
0010
0100
0001
0100
0010
0000
,
1000
0100
0001
0100
1000
0100
0001
0100
,
1000
0001
0020
0000
0130
1000
0020
0000
,
1030
0001
1000
0100
,
1000
0100
1000
0020
,
0130
0001
1000
0100
,
1000
0100
1000
0020
,
0130
0001
1000
0100
,
1000
0100
1000
0020
,
0130
0001
1000
0100
,
1000
0100
0020
0031
,
0010
0001
1000
1000
1000
1000
0010
0000
,
0100
0010
1000
0001
,
1000
0001
1000
0200
,
0310
0001
1000
0010
,
1000
0010
1000
0200
,
0310
0001
0100
0010
,
0100
0010
2000
3001
,
1000
0100
0010
0010
0002
0000
0203
0000
,
0301
0010
0100
0100
2000
0000
3010
1000
,
0001
0010
0100
0100
0002
0000
0103
0000
,
1000
0010
0100
0100
2000
0000
3100
0001
,
1000
0100
0010
0100
1000
0001
0020
0000
,
0031
0000
0100
0000
1000
0000
0100
0000
0001
0000
0000
0010
0000
0000
1000
0000
,
0001
0000
0100
0000
1000
0000
0100
0000
0010
0000
0000
0010
0000
0000
0000
0000
,
0001
0000
0100
0000
0010
0000
1000
0000
0100
0000
0000
0010
0000
0000
0001
0000
,
2000
0000
0000
0000
,
0000
0000
0000
3000
,
1100
0000
0000
0000
;

//---------------dance-single - ----------------
#NOTES:
     dance-single:
     :
     Beginner:
     4:
     0.129474,0.224500,0.033259,0.124722,0.000000,109.000000,105.000000,4.000000,15.000000,0.000000,0.000000,0.129474,0.224500,0.033259,0.124722,0.000000,109.000000,105.000000,4.000000,15.000000,0.000000,0.000000:
0000
0000
0000
0000
,
0000
0000
0000
0000
,
0000
0000
0000
0000
,
0000
0000
0000
0000
,
0000
0000
0000
0000
,
1000
0000
0010
0000
,
1000
0000
0010
0000
,
0100
0000
0001
0000
,
1000
0000
1000
0000
,
0100
0020
0000
0000
,
0000
0000
0000
0030
,
0001
0010
0100
1000
,
0100
0010
0001
0000
,
1000
0000
0010
0000
,
0100
0000
0010
0000
,
1000
0000
0001
0000
,
0010
0000
0001
0000
,
0100
0200
0000
0300
,
0110
0000
0000
0000
,
0010
1000
0010
0000
,
1000
0100
1000
0000
,
0002
0000
0000
0000
,
0000
0000
0000
0000
,
0013
0000
0110
0000
,
1000
0000
1001
0001
,
0100
0000
0110
0000
,
1000
1000
1000
0000
,
0001
0000
0010
0000
,
0001
0000
0100
0100
,
0010
0000
1000
0000
,
0100
0000
1000
0000
,
0001
0001
0001
0000
,
0100
0100
0100
0000
,
0010
0000
1000
0000
,
0100
0010
0001
0000
,
2000
0000
0000
0000
,
0000
0000
0000
3001
,
0200
0000
0000
0000
,
0000
0000
0000
0310
,
2000
0000
0000
0000
,
0000
0000
0000
3100
,
0020
0000
0000
0000
,
0000
0000
0000
0031
,
1000
0000
0001
0010
,
2000
0000
0000
0000
,
0000
0000
0000
3001
,
0002
0000
0000
0000
,
0000
0000
0000
1003
,
0200
0000
0000
0000
,
0000
0000
0000
0310
,
0001
0000
0020
0000
,
1030
0000
0200
0000
,
1300
0000
0002
0000
,
0013
0000
0002
0000
,
0103
0100
0100
0000
,
0010
1000
0010
0000
,
0100
0001
0100
0000
,
0001
0010
0001
0000
,
2000
0000
0000
0000
,
0000
0000
0000
0000
0000
0000
3000
0001
,
0001
0000
0000
0000
;
