#TITLE:Everybody's Rich;
#SUBTITLE:;
#ARTIST:REMO-CON;
#TITLETRANSLIT:;
#SUBTITLETRANSLIT:;
#ARTISTTRANSLIT:;
#GENRE:;
#CREDIT:;
#BANNER:Everybody's Rich.png;
#BACKGROUND:Everybody's Rich-bg.png;
#LYRICSPATH:;
#CDTITLE:;
#MUSIC:Everybody's Rich.ogg;
#OFFSET:-1.420000;
#SAMPLESTART:34.419468;
#SAMPLELENGTH:11.999990;
#SELECTABLE:YES;
#BPMS:0.000000=160.000000
;
#STOPS:
;
#BGCHANGES:;
#KEYSOUNDS:;
#ATTACKS:;

//---------------dance-single - ----------------
#NOTES:
     dance-single:
     :
     Hard:
     15:
     0.669174,0.852150,0.297546,0.450569,0.484574,551.000000,516.000000,35.000000,53.000000,0.000000,0.000000,0.669174,0.852150,0.297546,0.450569,0.484574,551.000000,516.000000,35.000000,53.000000,0.000000,0.000000:
// measure 0
0000
0000
0000
0000
,  // measure 1
0000
0000
0000
0000
,  // measure 2
1000
0100
0020
0230
,  // measure 3
1300
0002
0013
0100
,  // measure 4
0010
0002
2003
3010
,  // measure 5
0100
0002
0023
0130
,  // measure 6
1000
0000
0000
0020
0000
0000
0031
0000
0000
0010
0000
0010
,  // measure 7
0100
0000
0000
0000
0100
0000
0001
0000
0000
0000
0000
0000
0010
0000
0000
0000
0000
0000
0100
0000
0000
1000
0000
0000
,  // measure 8
0001
2000
3020
0130
,  // measure 9
0001
0010
0100
1000
0000
2020
0000
3030
,  // measure 10
0001
0100
0001
0100
0010
1000
0010
1000
,  // measure 11
0100
1000
0100
1000
0001
0010
0001
0010
,  // measure 12
0100
1000
0100
1000
0001
0100
0001
0100
0010
1000
0001
1000
0010
0100
0001
0010
,  // measure 13
0100
0000
0010
0000
0100
0000
0010
0001
,  // measure 14
1000
0101
1100
0101
,  // measure 15
1100
0000
0000
0000
0101
0000
0000
0000
1100
0000
0100
0010
0001
0000
0001
0000
,  // measure 16
1000
0000
2000
0000
3010
0000
0000
0000
0110
0000
0000
0100
0001
0000
1000
0000
,  // measure 17
0100
0000
1000
0000
0010
0100
0001
0100
0010
0000
1000
0000
0002
0000
0000
0000
,  // measure 18
0013
0100
1100
0000
0101
0000
1100
0000
,  // measure 19
0101
0000
0000
0000
1100
0000
0000
0000
0101
0000
0100
0010
2000
0000
0000
0000
,  // measure 20
3001
0000
0002
0000
0013
0000
0100
1000
0100
0000
0010
0001
1000
0000
0010
0000
,  // measure 21
0200
0000
0301
1000
0010
0100
0001
1000
,  // measure 22
0010
0000
0020
0000
1030
0000
0001
0100
0001
0100
0010
0000
1000
0000
2000
0000
,  // measure 23
3001
0000
0010
0000
0001
0000
1000
0100
1000
0100
0010
0000
0001
0010
0100
0010
,  // measure 24
0001
0000
0002
0000
1003
0000
0001
0100
0001
0100
0010
0000
1000
0000
2000
0000
,  // measure 25
3100
0010
0001
0000
1000
0100
1000
0010
1000
0000
0001
0000
0020
0000
0000
0000
,  // measure 26
0032
0000
1003
0000
1100
0000
0000
0000
0101
0000
0001
1000
0100
0000
1000
0000
,  // measure 27
0101
0000
1100
0000
0101
0100
0010
1000
,  // measure 28
0010
0000
0010
0000
1000
0001
1000
0001
0100
0000
0100
0000
0001
1000
0001
1000
,  // measure 29
0010
0100
0010
0000
1000
0100
0010
0100
1000
0000
0001
1000
0001
0100
0001
0100
,  // measure 30
0010
0000
0010
0000
1000
0000
0001
1000
0001
0100
0020
0000
0000
0000
1030
0000
,  // measure 31
0001
0010
0100
0000
0010
0000
0001
1000
0001
1000
0200
0000
0000
0000
0000
0000
,  // measure 32
0310
0000
0000
0001
0000
0001
0010
0000
0000
0100
0000
0100
,  // measure 33
0010
0000
0000
0001
0000
0001
1000
0000
0000
0010
0000
0010
,  // measure 34
0100
0000
0000
0001
0000
0001
0010
0000
0000
0100
0000
0100
,  // measure 35
1000
0000
0000
0010
0000
0010
0100
0000
0000
0002
0000
0013
,  // measure 36
0000
0000
0000
0100
0000
0100
1000
0000
0000
0010
0000
0010
,  // measure 37
1000
0000
1000
0100
0000
0100
0010
0000
0010
0001
0000
1000
,  // measure 38
0001
0000
0000
0100
0000
0100
0001
0000
0000
1000
0000
1000
,  // measure 39
0010
0000
0100
0001
0000
0100
0010
0000
1000
0010
0000
2000
,  // measure 40
0000
0000
3001
0000
0000
0001
0010
0000
0000
0020
0000
0000
,  // measure 41
0130
0000
0000
0200
0000
0000
1300
0000
0010
0000
0000
0100
,  // measure 42
0000
0000
0010
0000
0000
0010
1000
0000
0000
1000
0000
0000
,  // measure 43
0100
0100
0010
0010
,  // measure 44
0102
0000
0000
1000
0000
0000
0010
0000
0000
1003
0000
0010
,  // measure 45
0200
0000
0001
0000
1000
0000
0301
0010
,  // measure 46
0021
0000
0000
0100
0000
0000
1000
0000
0000
0130
0000
0010
,  // measure 47
0002
0000
0100
0000
0010
0000
0103
0010
,  // measure 48
1000
0100
0001
0100
1000
0100
0001
0100
,  // measure 49
1000
0010
0001
0010
1000
0100
0010
0001
,  // measure 50
0100
0000
0100
0000
0010
0000
0010
0000
1000
0100
0010
0100
1000
0001
0010
0100
,  // measure 51
2000
0000
0000
0000
,  // measure 52
3010
0101
1100
0101
,  // measure 53
1100
0000
0000
0000
0101
0000
0000
0000
1100
0000
0000
0000
0010
0100
0010
0100
,  // measure 54
0001
0000
0002
0000
1003
0000
0100
0010
0001
0000
1000
0100
0010
0000
0020
0000
,  // measure 55
0031
0100
0002
0000
0013
0000
0020
0000
0130
0000
1000
0000
0020
0000
0000
0000
,  // measure 56
0130
0001
0100
0000
0010
0000
1000
0100
1000
0000
0010
0000
0100
0001
0000
0001
,  // measure 57
1000
0001
0000
0000
1000
0000
2000
0000
3001
0000
0001
0000
0010
0100
0010
0100
,  // measure 58
1000
0000
2000
0000
3010
0000
0100
0001
0100
0000
0010
1000
0001
1000
0010
0000
,  // measure 59
0200
0000
0000
0301
,  // measure 60
0100
0000
0200
0000
0301
0000
0002
0000
1003
0000
0100
0010
0001
0000
0001
0000
,  // measure 61
1000
0000
0010
0000
1000
0000
0010
0000
0100
0000
0001
1000
0001
1000
0010
0100
,  // measure 62
0001
0000
0002
0000
1003
0000
0001
0010
0001
0000
0100
0000
0010
0000
0020
0000
,  // measure 63
1030
0100
1000
0000
0001
0100
0001
0000
0010
0000
0020
0000
0230
0000
0000
0000
,  // measure 64
1300
0001
0101
0000
1100
0000
0101
0000
,  // measure 65
1100
0101
1100
0101
,  // measure 66
0010
0000
0020
0000
1030
0000
0001
0100
0001
0000
1000
0100
1000
0000
0010
0100
,  // measure 67
0001
1000
0100
1000
0010
0100
0002
0000
,  // measure 68
1003
0010
1000
0000
0001
0000
1000
0100
1000
0000
0010
0000
1000
0001
0000
0001
,  // measure 69
1000
0001
0000
0000
0010
0000
0100
0000
1000
0001
1000
0000
0020
0000
0000
0000
,  // measure 70
0130
0001
1000
0010
0100
0001
1000
0010
,  // measure 71
1000
0100
1000
0100
0010
0001
0010
0001
1000
0010
0100
0001
0010
0100
1000
0000
,  // measure 72
2002
0000
0000
0000
,  // measure 73
0000
0000
0000
0000
,  // measure 74
0000
3003
0000
0000
;

//---------------dance-single - ----------------
#NOTES:
     dance-single:
     :
     Medium:
     12:
     0.507649,0.599661,0.221034,0.391060,0.051008,418.000000,392.000000,26.000000,46.000000,0.000000,0.000000,0.507649,0.599661,0.221034,0.391060,0.051008,418.000000,392.000000,26.000000,46.000000,0.000000,0.000000:
0000
0000
0000
0000
,
0000
0000
0000
0000
,
1000
0000
0020
0000
,
0130
0002
0010
0013
,
0100
2000
3001
0000
,
0000
0200
0000
0000
0310
0000
0000
0000
,
0000
0100
0001
0010
,
0100
1000
0020
0000
,
0130
0001
1000
0001
,
0010
0100
1000
0010
0000
0020
0000
0030
,
1000
0100
1000
0100
0001
0100
0001
0100
,
1000
0010
0100
0001
0010
0001
0100
0010
,
1000
0001
0010
0100
1000
0001
0010
0100
,
2000
0000
3020
0000
0230
0000
0301
1000
,
0010
1100
1100
1100
,
1100
0000
1100
0000
1000
0100
0020
0000
,
0031
0100
0001
0000
0012
0000
0013
0100
,
0000
0100
1000
0010
0100
0010
2000
0000
,
3001
0001
0010
0000
1001
0000
1001
0000
,
1001
1001
1001
0110
,
1000
0100
0001
0100
1000
0010
1000
0010
,
0200
0300
0000
0000
,
1000
0100
0002
0000
0103
1000
0010
0010
,
0100
0001
1000
0100
1000
0000
0010
0100
,
0001
0010
2000
0000
3010
0001
0100
0100
,
0010
1000
0001
1000
0100
0010
0002
0000
,
1003
0010
1010
0000
0101
0000
1010
0000
,
0011
0000
1100
0000
0011
0000
0010
0100
,
1000
0001
0010
0001
1000
0010
0100
0010
,
1000
0000
0001
0000
0010
0100
0010
0000
0001
0000
0100
0000
0020
0000
0000
0000
,
1030
0100
0010
0001
0100
0020
0000
1030
,
0001
0000
0010
0000
0100
0000
1000
0000
0001
0100
0002
0000
0000
0000
0000
0000
,
1003
0010
0000
0000
0000
0000
0000
0000
,
1000
0100
0010
0001
,
1000
0100
0000
0000
0000
0000
0000
0000
,
0001
0100
0010
1000
,
0100
0000
0000
0010
0000
0010
0001
0000
0000
1000
0000
1000
,
0010
0100
0001
1000
,
0100
0100
0100
0000
,
0010
0001
1000
0001
,
0100
0000
0010
0000
0000
0000
1000
0000
0000
0001
0000
0000
,
1000
0000
0000
0001
0000
0000
1000
0000
0100
0000
0000
0010
,
0000
0000
0001
0000
0000
0000
1000
0000
0000
0010
0000
0000
,
1000
0001
1000
0001
,
0020
0032
2003
3020
,
2030
0000
3002
0000
0023
0000
0031
0100
,
2000
3020
2030
3002
,
0023
0000
0032
0000
2003
0000
3010
0100
,
0001
0010
1000
0010
0001
0010
1000
0010
,
0001
0100
0010
1000
0100
1000
0010
0100
,
0001
1000
0100
1000
0010
0010
0100
0100
,
0002
0000
0000
0000
0000
0000
0000
0000
0000
1003
0100
0010
,
0001
1100
1001
0101
,
1010
0000
1001
0000
0011
0000
0010
0100
,
1000
0010
2000
0000
3001
0100
0010
0100
,
0000
0001
1000
0100
0010
0100
2000
0000
,
3010
0100
0001
0100
0010
0100
0001
0100
,
1000
0100
0010
0100
1000
0100
0002
0000
,
1003
0100
0010
0001
0010
0100
1000
0010
,
0002
0000
0003
1001
,
0001
0100
1000
0100
0002
0000
0013
0010
,
1000
0100
0001
0100
1000
0010
0100
0010
,
1000
0100
0002
0000
0103
1000
0010
0010
,
1000
0001
0010
0001
0100
1000
0200
0000
,
0301
1000
0010
1000
0100
1000
0010
1000
,
0001
0100
0010
1000
0010
0100
0002
0000
,
1003
0100
0001
1000
0010
0001
1000
0100
,
1000
0001
0010
1000
0001
0100
2000
0000
,
3010
0100
0001
0100
0010
1000
0200
0000
,
0310
0100
0001
0100
0010
1000
0100
0100
,
0001
1000
0100
0010
0001
0010
0100
1000
,
0001
0100
0001
0000
1000
0100
1000
0000
0010
0000
0100
0000
0001
0000
0000
0000
,
0220
0000
0000
0000
,
0000
0000
0000
0000
,
0000
0330
0000
0000
;

//---------------dance-single - ----------------
#NOTES:
     dance-single:
     :
     Easy:
     8:
     0.400776,0.536539,0.085013,0.195530,0.012752,330.000000,320.000000,10.000000,23.000000,0.000000,0.000000,0.400776,0.536539,0.085013,0.195530,0.012752,330.000000,320.000000,10.000000,23.000000,0.000000,0.000000:
0000
0000
0000
0000
,
0000
0000
0000
0000
,
0100
0001
1000
0001
,
0010
0001
1000
0001
,
0100
0010
1000
0010
,
0100
0010
0001
0010
,
1000
0100
0001
0100
,
0010
0100
1000
0100
,
0010
0001
0100
0010
,
2000
0000
3002
0000
,
1003
0100
1000
0100
1000
0100
1000
0100
,
1000
0100
1000
0100
1000
0100
1000
0100
,
0010
0010
0001
0001
,
2000
0000
3020
0000
0230
0000
0301
1000
,
0001
0010
0010
0010
,
0010
0000
0010
0000
0010
0000
0100
1000
,
0001
1000
0010
0000
0100
0000
0001
1000
,
0000
1000
0001
0000
0100
0010
0100
0000
,
0001
0001
0010
0000
0010
0000
0010
0000
,
0010
0010
0010
0001
,
1000
0001
1000
0000
0010
0000
0100
0001
,
0010
0000
0000
0000
,
0100
1000
0010
0000
0010
0000
0010
0100
,
0001
0010
0010
0010
,
0100
1000
0010
0000
0010
0000
0010
0100
,
0001
0000
0010
0000
0100
1000
0002
0000
,
0103
0010
0010
0010
,
1000
1000
1000
0100
,
0010
0001
0010
0000
0100
1000
0100
0000
,
0010
0001
1000
0001
0100
0000
0010
0000
,
1000
0000
0010
0000
0100
0020
0000
0000
,
1030
0000
0001
0000
0010
0200
0000
0000
,
1300
0001
0010
0001
,
0100
0000
0000
0001
0000
0000
0010
0000
0000
0100
0000
0100
,
1000
0010
1000
0100
,
1000
0000
0000
0010
0000
0000
0100
0000
0000
0001
0000
0001
,
0000
0010
0100
1000
,
0010
0100
0001
1000
,
0001
1000
1000
0010
,
1000
0100
0001
0010
,
1000
0001
0010
0001
,
1000
0000
0000
0001
0000
0000
0010
0000
0010
0100
0000
0000
,
1000
0001
0010
0010
,
0010
0010
0010
0010
,
2100
0100
0100
3001
,
0201
0001
0001
0310
,
0012
0010
0010
1003
,
1020
1000
1000
0130
,
1000
0100
1000
0000
0001
0100
0001
0000
,
1000
0010
1000
0000
0001
0010
0001
0000
,
0100
0100
0010
0010
,
2000
0000
0000
0000
,
3001
0101
0101
0101
,
0101
0101
0002
0013
,
0100
1000
0100
0000
0010
0000
0001
0000
,
1000
0001
0100
0100
,
0010
1000
0010
0000
0010
0000
0010
0000
,
0100
0001
0100
0000
0100
0000
0100
0000
,
0001
0010
0001
0000
1000
0010
1000
0000
,
0200
0000
0000
1300
,
0001
0100
0001
0100
0002
0000
0023
0000
,
0130
1000
0100
1000
0200
0000
0320
0000
,
0031
0100
0002
0000
1003
0100
2000
0000
,
3010
0100
1001
0020
,
0030
0010
0010
0010
,
0100
0001
1000
0001
,
0010
0100
0010
0000
0100
0010
0100
0000
,
1000
0001
1000
0001
1000
0001
0100
0000
,
0010
0010
1000
1000
,
0100
0100
0001
0001
,
0010
1000
0010
0000
0100
0001
0100
0000
,
0001
0000
0010
0000
0100
1000
0010
0000
,
0200
0000
0000
0000
,
0000
0000
0000
0000
,
0000
0300
0000
0000
;

//---------------dance-single - ----------------
#NOTES:
     dance-single:
     :
     Beginner:
     2:
     0.196744,0.244838,0.008501,0.000000,0.000000,162.000000,161.000000,1.000000,0.000000,0.000000,0.000000,0.196744,0.244838,0.008501,0.000000,0.000000,162.000000,161.000000,1.000000,0.000000,0.000000,0.000000:
0000
0000
0000
0000
,
0000
0000
0000
0000
,
1000
0000
0000
0000
,
0010
0000
0000
0000
,
1000
0000
0000
0000
,
0001
0000
0000
0000
,
0010
0000
0000
0000
,
0001
0000
0000
0000
,
0100
0000
0000
0000
,
0010
0010
0010
0000
,
1000
0000
1000
0000
,
0001
0000
0001
0000
,
0010
0010
0010
0010
,
0001
0000
0000
0000
,
0000
1000
1000
1000
,
1000
1000
1000
0000
,
0000
0001
0001
0001
,
0001
0001
0001
0000
,
0000
0010
0010
0010
,
0010
0010
0010
0000
,
0001
0000
1000
0000
,
1001
0000
0000
0000
,
1000
0100
0100
0100
,
0000
0010
0010
0010
,
0000
0100
0100
0100
,
1000
0000
0001
0000
,
1000
0010
0010
0010
,
0000
0100
0100
0100
,
0010
0000
1000
0000
,
0001
0000
0010
0000
,
0100
0000
0000
0000
,
0010
0000
0000
0000
,
0001
0000
1000
0000
,
0001
0000
0000
0000
,
0100
0000
0010
0000
,
0100
0000
0000
0000
,
0001
0000
0010
0000
,
0001
0000
0000
0000
,
1000
0000
0010
0000
,
1000
0000
0000
0000
,
0100
0010
0010
0000
,
0010
0000
0010
0000
,
0001
1000
1000
0000
,
0010
0000
1000
0000
,
0001
0001
0001
0000
,
0010
0010
0010
0000
,
1000
1000
1000
0000
,
0010
0010
0010
0000
,
0001
0000
0100
0000
,
1000
0000
0100
0000
,
0001
0000
0010
0000
,
0100
0000
0000
0000
,
0000
1000
1000
1000
,
1000
1000
1000
0000
,
0000
0001
0001
0001
,
0001
0001
0001
0000
,
0100
0000
0010
0000
,
0100
0000
0001
0000
,
1000
0100
1000
1000
,
0001
0000
0000
0000
,
0100
0100
0100
0000
,
0010
0100
0100
0000
,
0001
1000
0001
0000
,
1000
0001
1000
0000
,
0100
0000
0010
0000
,
0100
0000
0010
0000
,
0001
0001
1000
1000
,
0001
1000
0001
0000
,
0100
0000
0010
0000
,
0100
0000
0010
0000
,
1000
1000
0001
0001
,
0010
0000
0001
0000
,
0100
0000
0000
0000
;
