#TITLE:Ekineko no Waltz;
#SUBTITLE:;
#ARTIST:Minyonnu Tetsudoukyoudai;
#TITLETRANSLIT:;
#SUBTITLETRANSLIT:;
#ARTISTTRANSLIT:;
#GENRE:;
#CREDIT:;
#BANNER:Ekineko No Waltz.png;
#BACKGROUND:Ekineko No Waltz-bg.png;
#LYRICSPATH:;
#CDTITLE:;
#MUSIC:Ekineko No Waltz.ogg;
#OFFSET:0.044000;
#SAMPLESTART:10.384323;
#SAMPLELENGTH:15.320000;
#SELECTABLE:YES;
#BPMS:0.000000=282.001007
;
#STOPS:
;
#BGCHANGES:0.000=Ekineko No Waltz.avi=1.000=1=0=1===CrossFade==,
99999=-nosongbg-=1.000=0=0=0 // don't automatically add -songbackground-
;
#KEYSOUNDS:;
#ATTACKS:;

//---------------dance-single - ----------------
#NOTES:
     dance-single:
     :
     Hard:
     17:
     0.966248,1.044564,0.483788,0.558217,0.186072,727.000000,675.000000,52.000000,60.000000,0.000000,0.000000,0.966248,1.044564,0.483788,0.558217,0.186072,727.000000,675.000000,52.000000,60.000000,0.000000,0.000000:
0000
0000
0000
0000
,
1100
0000
0000
1001
,
0000
0000
0000
0000
0101
0000
0000
0001
,
0010
1100
0000
0000
,
0101
0000
0000
0001
0010
0000
1100
0000
,
0000
1000
0010
0000
0101
0000
0000
0001
,
0010
0000
1100
0000
0000
1000
0010
0000
,
0202
0000
0000
0303
0000
0000
0000
0000
,
0000
0000
0000
0000
,
0000
0000
0000
0000
,
0000
0000
0000
0000
,
1000
0010
0000
0110
0000
0010
1000
0100
,
0020
0000
0031
0010
0100
1000
0001
0100
,
0010
1000
0001
0010
0100
1000
0001
0100
,
0010
1000
0001
0010
0100
1000
0001
0100
,
0010
1000
0001
0100
0010
0100
0001
0100
,
0010
0000
0000
0100
0000
0000
0001
0000
0000
0100
0000
0000
0010
0000
0000
1000
0000
0000
0001
0000
0100
0000
0001
0000
,
1000
0100
0010
0001
0100
0010
1000
0100
,
0001
0100
1000
0100
0010
0001
1000
0010
,
0100
0001
1000
0100
0010
0001
1000
0010
,
0100
0001
1000
0100
0010
0001
1000
0010
,
0100
0001
1000
0100
0010
0100
1000
0100
,
0010
0000
0000
0100
0000
0000
1000
0000
0000
0100
0000
0000
0010
0000
0000
0100
0000
0000
1000
0000
0010
0000
1000
0000
,
0001
0100
1000
0100
0010
0000
1010
0000
,
0100
0001
0100
0002
0000
0000
0013
0000
0000
2000
0000
0000
,
3010
0000
0000
0000
0000
0000
0001
0000
0010
0000
0100
0000
1000
0000
0000
0010
0000
0000
0200
0000
0000
0000
0000
0000
,
0301
0000
0000
0020
0000
0000
0031
0000
0000
1000
0100
0010
,
0001
0100
0001
1000
0010
1000
0001
0000
,
1000
0000
0100
0010
0001
1000
0010
0100
,
0010
1000
0001
0100
0010
1000
0100
1000
,
0010
0100
0002
0000
1003
0000
0200
0000
,
1300
0000
0000
0000
0000
0000
0010
0000
0100
0000
0010
0000
0100
0000
0000
0001
0000
0000
0020
0000
0000
0000
0000
0000
,
0130
0000
0000
0000
0002
0000
0000
0000
0103
0000
0000
0000
1000
0000
0001
0010
,
0001
0100
0010
1000
0001
1000
0010
0000
,
0100
0000
1000
0100
0010
0001
0100
0010
,
1000
0010
0100
0001
0010
0000
0100
1000
,
0010
0100
0002
0000
1003
0000
0200
0000
,
0310
0000
0001
1000
0001
1000
0002
0000
,
0103
0000
2000
0000
3100
0000
0010
0100
,
0001
1000
0010
0000
0101
0000
1000
0000
,
0001
0000
1000
0100
0010
0001
0100
0001
,
1000
0010
0100
0010
1000
0100
0010
0100
,
1000
0001
2000
0000
0010
0000
3100
0000
,
0001
0000
1000
0100
0010
0001
2000
0000
,
0010
0000
3100
0000
0001
0000
1000
0010
,
1000
0100
0010
0000
1100
0000
0011
0000
,
0010
0000
1000
0100
0001
1000
0100
0010
,
0100
0000
0000
1000
0000
0000
0001
0000
0000
0100
0000
0000
0010
0000
0000
0000
0000
0000
1000
0000
0100
0000
0010
0000
,
0001
0202
0000
0303
,
2200
0000
3300
1010
,
0011
1010
0101
1100
,
0101
2020
0000
3030
,
0022
0000
0033
1000
,
0100
0010
0001
0010
,
0100
2200
0000
3300
,
0202
0000
0303
1010
,
1001
0101
0011
1001
,
1100
2000
0100
0001
,
3010
0000
0100
0001
0010
0000
0002
0000
,
0100
0000
1000
0000
0013
0000
0001
0100
,
1000
2020
0000
3030
,
0220
0000
0000
0330
0000
0000
0100
0001
0100
0001
0000
0000
,
1000
0000
0100
0000
0010
0000
0001
0000
0010
0000
0100
0000
,
1000
2010
3010
0100
,
0201
0000
0301
0000
1000
0100
1000
0000
,
0001
0000
0010
0000
0100
0000
1000
0000
0100
0000
0010
0000
,
0001
2020
3030
0000
,
2200
3300
0000
0110
,
0001
1000
0010
1000
0100
1000
0010
0100
,
0001
0010
0002
0000
1000
0000
0100
0000
,
0013
0000
0100
1000
0010
0000
2000
0000
,
0001
0000
0100
0000
3010
0000
0001
0010
,
0001
0202
0000
0303
,
2200
0000
3300
0000
,
1000
0100
0010
0001
0100
0001
2000
0000
,
0000
0000
0000
0000
0002
0000
0000
3003
,
0000
0000
0000
0000
0010
0001
1000
0001
,
0100
0010
1000
0000
0101
0000
0010
0000
,
1000
1100
0010
0001
,
0001
0100
1000
0100
0010
1000
0001
1000
,
0100
0010
0001
0100
0020
0000
1000
0000
,
0031
0000
0010
0000
1000
0100
0010
0000
,
0010
0001
0010
0001
0010
0001
1000
0010
,
0001
0010
1000
0100
0010
0001
0100
1000
,
0001
0010
1000
0100
0010
0001
1000
0000
,
0110
0000
1000
0100
0010
0001
0100
0010
,
1000
0100
0010
0001
1000
0010
0100
0001
,
1000
0100
0010
0001
1000
0010
0100
0001
,
1000
0100
0010
0100
1000
0010
0100
0010
,
1000
0000
0100
0000
0010
0000
0100
0000
1000
0000
0001
0100
0001
0000
1000
0000
,
0100
1000
0010
0100
0001
1000
0100
0010
,
1000
0100
0010
0001
1000
0010
0100
0001
,
1000
0100
0010
0001
1000
0010
0100
0001
,
1000
0100
0010
0001
1000
0010
0100
0001
,
1000
0100
0010
0100
1000
0010
0100
0010
,
1000
0000
0100
0000
0010
0000
0010
0000
1000
0000
0001
0000
0100
0010
0100
0000
,
0001
0010
0100
1000
0010
0100
0001
1000
,
0020
0000
1000
0000
0130
0000
0010
0001
,
1000
0000
0000
0100
0000
0000
0010
0000
0000
0001
0000
0000
1000
0000
0010
0000
0100
0000
0001
0000
0000
0000
0000
0000
,
1000
0000
0010
0100
0001
0100
0010
1000
,
0001
0000
0100
0000
0010
0000
1000
0000
0000
0000
0000
0000
0001
0000
0000
0000
0000
0000
0001
0000
0000
1000
0000
0000
,
0001
0010
0100
1000
0010
0100
0001
0010
,
0100
0001
0100
1000
0010
0100
0010
1000
,
0001
0000
0000
0000
0010
0000
0000
0000
0100
0000
0000
0000
1000
0000
0000
0000
0000
0000
0000
0000
0000
0000
0000
0000
0010
0000
0000
0000
0000
0000
0000
0000
0000
0000
0000
0000
0010
0000
0000
0000
0000
0000
1000
0000
0000
0010
0000
0000
,
1000
0001
0010
0001
0100
0000
0101
0000
,
1100
0000
1000
0010
1000
0010
1000
0000
,
0001
0010
0001
0010
0001
0000
2000
0000
,
0000
3002
0000
2003
,
0000
3200
0000
0000
0000
0302
0000
0000
0000
0103
0000
0000
,
1000
0010
0101
0010
,
1000
1100
0100
0100
,
0011
0000
0010
0000
0010
0000
0001
0010
,
0100
0000
0000
0010
0000
0000
0001
0000
0000
0000
0000
0000
1000
0000
0000
0000
0100
0000
0000
0000
0010
0000
0000
0000
,
0100
0000
0000
0000
1000
0000
0000
0000
0001
0000
0000
0000
1000
0000
0000
0010
0000
0000
0000
0000
0000
0010
0000
0000
,
0100
0010
2000
0000
0001
0000
3010
0000
,
0102
0000
1000
0000
0013
0000
1000
0100
,
0001
0100
1000
0000
0001
0010
0100
0010
,
0001
1000
0001
0100
1000
0010
1000
0100
,
0001
0010
1000
0001
0100
0000
1000
0010
,
0001
0010
1000
0100
0001
0100
0010
0001
,
0100
0010
1000
0000
0000
0010
0000
0000
,
0101
0000
0000
0001
0010
0000
2200
0000
,
0000
0000
0000
0000
,
0000
0000
0000
0000
,
0000
0000
0000
3300
;

//---------------dance-single - ----------------
#NOTES:
     dance-single:
     :
     Medium:
     11:
     0.619356,0.754408,0.455878,0.334930,0.027911,466.000000,417.000000,49.000000,36.000000,0.000000,0.000000,0.619356,0.754408,0.455878,0.334930,0.027911,466.000000,417.000000,49.000000,36.000000,0.000000,0.000000:
0000
0000
0000
0000
,
0000
0000
0000
0000
,
0000
0000
0000
0000
,
0000
0000
0000
0000
,
0101
0000
0000
0001
0000
0000
1100
0000
,
0000
1000
0000
0000
0110
0000
0000
0100
,
0000
0000
1001
0000
0000
0001
0000
0000
,
0202
0000
0303
0000
,
0000
0000
0000
0000
,
0000
0000
0000
0000
,
0000
0000
0000
0000
,
0000
0000
0000
0000
,
0000
0000
1000
0000
0100
0000
0010
0001
,
0010
0000
1000
0000
0100
0000
0010
0001
,
0010
0000
1000
0000
0100
0000
0010
0001
,
0010
1000
0100
0001
,
0100
1000
0100
0001
,
0010
1000
0100
0010
,
0001
0000
0001
0000
0100
0000
0010
1000
,
0010
0000
0001
0000
0100
0000
0010
1000
,
0010
0000
0001
0000
0100
0000
0010
1000
,
0010
0001
0100
1000
,
0100
0001
0100
1000
,
0010
0100
0101
0001
,
1000
0100
2000
0000
0000
0000
3010
0000
,
0000
0000
0100
0001
0100
0000
0002
0000
,
0000
0000
0013
0000
0000
0000
0100
1000
,
0100
0010
0001
1000
,
0001
0100
0010
1000
,
0000
0010
1010
1001
,
0101
0002
0000
0013
,
0000
0000
0100
1000
0100
0000
2000
0000
,
0000
0000
3010
0000
0000
0000
0100
0001
,
0100
0001
0010
0100
,
0100
1000
0100
0010
,
0001
0100
0010
1010
,
0101
2010
3000
0200
,
0300
0000
0010
0001
0010
0001
2000
0000
,
0000
0000
3010
0000
0000
0000
0100
0001
,
0100
0001
0010
0100
,
0100
1000
0001
0100
,
0010
1000
0011
0110
,
1100
0012
0000
0103
,
0000
0010
1000
2010
,
0000
3100
0000
0010
,
0001
0101
0010
1000
,
0100
0010
0100
0010
0100
0000
1000
0000
,
0010
0100
0001
0010
,
0100
1200
0000
0300
,
0021
0000
0000
0000
0031
0100
0001
0000
,
0010
0100
1000
0100
,
0010
0201
0000
0300
,
1020
0000
1030
0010
,
1000
0100
0010
0100
,
1000
0021
0000
0030
,
0210
0000
0300
1000
,
0100
0001
0100
1000
,
0010
0100
0001
0100
,
0010
0000
1000
0001
1000
0000
0100
0000
,
1000
0000
0100
0000
0010
0000
0001
1000
,
0001
0201
0000
0300
,
1020
0000
1030
0100
,
0000
0000
0000
0000
,
0010
0012
0000
0103
,
0201
0000
0310
1000
,
0000
0000
0000
0000
,
1000
2200
0000
3300
,
0022
0000
0033
0001
,
0100
1000
0100
0001
,
1000
0001
0100
0010
,
0100
0000
0001
0010
0001
0000
1000
0000
,
0100
0000
0010
0000
0100
0000
1000
0010
,
1000
1020
0000
0030
,
0210
0000
0000
0000
0300
0000
0100
0001
,
0100
0001
0010
0021
,
0000
0030
0210
0000
,
0300
1000
0010
0100
,
0001
1000
2100
0000
,
3000
0102
0000
0003
,
1000
0100
0001
0100
,
1000
0010
1000
0100
,
0001
0000
0100
0000
0010
0001
0010
0000
,
0001
0100
1000
0100
,
0010
0010
1000
0001
,
0001
0010
0100
1000
,
1100
0000
0100
0000
0010
0001
0010
0000
,
1000
0000
0100
0000
0010
0001
0010
0000
,
1000
0000
0100
0000
0010
0001
0010
0000
,
1000
0100
0001
0100
,
1000
0100
0010
0001
,
0100
0010
1000
0010
,
0001
0000
0100
0000
0010
1000
0010
0000
,
0001
0000
0100
0000
0010
1000
0010
0000
,
0001
0000
0100
0000
0010
1000
0010
0000
,
0001
0100
1000
0100
,
0001
0100
0010
1000
,
0100
0010
0001
0100
,
0101
0000
0100
0010
,
1000
0100
1100
0000
,
1000
0100
0001
0100
,
0110
0000
0001
0100
,
1000
0100
0110
0000
,
0010
0100
0001
0010
,
1100
0000
0011
0000
,
1100
0000
1000
0100
,
0010
0000
0001
0100
0001
0100
0001
0000
,
1000
0100
1000
0100
1000
0000
0010
0000
,
0000
0100
0000
0020
,
0000
2030
0000
0000
0000
3002
0000
0000
0000
0013
0000
0000
,
0100
1000
0010
0100
,
0001
0010
0010
0010
,
0100
0100
0100
1000
,
0001
0000
0000
1000
0000
0000
0010
0000
0100
0000
0001
0000
,
0100
0000
0010
0000
1000
0000
0010
0000
0000
0100
0000
0000
,
0001
0101
0000
1000
,
1100
0000
0010
0110
,
1000
0001
0110
0001
,
1000
0001
0010
0100
,
1000
0000
0100
0000
0010
0000
0001
0100
,
0001
0100
0001
0000
1000
0100
1000
0100
,
1000
0000
0010
0000
0000
1000
0000
0000
,
0010
0000
0000
0001
0000
0000
0220
0000
,
0000
0000
0000
0000
,
0000
0000
0000
0000
,
0000
0000
0000
0330
;

//---------------dance-single - ----------------
#NOTES:
     dance-single:
     :
     Easy:
     6:
     0.394739,0.697772,0.204680,0.269805,0.000000,297.000000,275.000000,22.000000,29.000000,0.000000,0.000000,0.394739,0.697772,0.204680,0.269805,0.000000,297.000000,275.000000,22.000000,29.000000,0.000000,0.000000:
0000
0000
0000
0000
,
0000
0000
0000
0000
,
0000
0000
0000
0000
,
0000
0000
0000
0000
,
0001
0000
0000
1000
,
0000
0000
0010
0000
,
0000
0100
0000
0000
,
2002
0000
3003
0000
,
0000
0000
0000
0000
,
0000
0000
0000
0000
,
0000
0000
0000
0000
,
0000
0000
0000
0000
,
0000
0001
0000
0100
,
0000
0001
0010
0100
,
0000
1000
0000
0010
,
0000
0100
0000
0100
,
0000
0100
0000
0001
,
0000
1000
0100
0010
,
0001
1000
0000
0010
,
0000
1000
0100
0010
,
0000
0001
0000
1000
,
0000
0100
0000
0100
,
0000
0100
0000
0010
,
0000
0001
1000
0010
,
0100
0001
0000
0010
,
0000
0001
0010
0100
,
0000
0010
0000
0100
,
1000
0010
0000
1000
,
0000
0010
0000
0100
,
0000
0010
1000
0001
,
1000
0100
0000
0010
,
0000
0100
0010
0001
,
0000
0100
0000
0001
,
0100
0010
0000
1000
,
0000
0100
0000
0010
,
0001
1000
0001
0100
,
0010
1000
0000
0100
,
0000
0010
0001
0010
,
0000
0100
0000
1000
,
0001
1000
0000
0010
,
0000
0100
0000
0100
,
0000
0001
0010
0100
,
1000
0100
0000
0010
,
0000
0100
1000
0010
,
0000
0100
0000
0010
,
0000
1000
0100
0010
,
0001
0010
0100
1100
,
1000
0001
0101
0100
,
0010
2000
0000
3000
,
0002
0000
0013
0010
,
0001
0100
1000
0100
,
0001
0020
0000
0000
,
0230
0000
0000
1300
,
0000
0010
0000
0100
,
0000
0002
0000
0000
,
2003
0000
0100
3100
,
0010
0001
0100
1000
,
0100
0002
0000
1003
,
0100
0010
0001
2000
,
0000
3001
0010
0100
,
1000
0002
0000
0000
,
0203
0000
0000
0310
,
0000
0000
0000
0000
,
1000
1200
0000
0310
,
0012
0000
0000
1003
,
0000
0000
0000
0000
,
0000
0220
0000
0330
,
2002
0000
3003
1000
,
0100
0010
0001
0010
,
0100
1000
0000
0010
,
0000
0100
0000
0001
,
0000
0010
0100
1000
,
0010
0220
0000
0330
,
2020
0000
3030
0100
,
0001
1000
0100
0220
,
0000
0330
0022
0000
,
0033
0001
1000
0100
,
1000
0001
0101
0000
,
0000
1100
0000
0000
,
1000
0010
0100
1000
,
0100
0001
0010
0100
,
0100
1000
0010
0010
,
0100
0000
0001
1000
0001
0000
0010
0000
,
0100
0010
0100
0000
2000
0000
0000
0000
,
0000
0000
0000
3001
,
0100
0001
0000
0000
,
0000
0000
0000
0000
,
0000
0000
0000
0000
,
0000
0000
0000
0000
,
0000
0000
0000
0000
,
0000
0000
0000
0000
,
1000
0000
0010
0000
,
1000
0100
0010
0000
,
0001
0000
1000
0001
,
0100
0000
0100
0000
,
0100
0000
0010
0000
,
1000
0100
0001
0100
,
1000
0000
0010
0000
,
0100
0001
0010
0000
,
0100
0000
0100
1000
,
0010
0000
0100
0001
,
0010
0100
1000
0000
,
0001
0100
1000
0100
,
0001
0000
1000
0000
,
0100
0010
0001
0100
,
1000
0001
0010
1000
,
0001
0010
0100
1000
,
0000
0000
0000
0000
,
0000
0000
0000
0000
,
0000
0000
0000
0000
,
0000
0000
0000
0000
,
0000
0000
0000
0000
,
0000
0000
0000
0000
,
0000
0000
1000
0010
,
0100
0101
0000
1000
,
1100
0000
0001
0101
,
0001
0010
0110
0100
,
1000
1010
0010
0100
,
0101
0001
1000
0001
,
0001
0001
0010
0010
,
0010
1001
0000
0000
,
0110
0000
0000
2002
,
0000
0000
0000
0000
,
0000
0000
0000
0000
,
0000
0000
0000
0000
,
3003
0000
0000
0000
;

//---------------dance-single - ----------------
#NOTES:
     dance-single:
     :
     Beginner:
     3:
     0.202022,0.339815,0.037214,0.000000,0.000000,152.000000,148.000000,4.000000,0.000000,0.000000,0.000000,0.202022,0.339815,0.037214,0.000000,0.000000,152.000000,148.000000,4.000000,0.000000,0.000000,0.000000:
0000
0000
0000
0000
,
0000
0000
0000
0000
,
0000
0000
0000
0000
,
0000
0000
0000
0000
,
1000
0000
0000
1000
,
0000
0000
0001
0000
,
0000
0001
0000
0000
,
1001
0000
0000
0000
,
0000
0000
0000
0000
,
0000
0000
0000
0000
,
0000
0000
0000
0000
,
0000
0000
0000
0000
,
0000
0001
0000
1000
,
0000
0001
0000
1000
,
0000
0001
0000
1000
,
0000
0010
0000
0010
,
0000
0010
0000
0100
,
0000
0000
0000
0000
,
0000
0001
0000
1000
,
0000
0001
0000
1000
,
0000
0001
0000
1000
,
0000
0010
0000
0010
,
0000
0010
0000
0100
,
0000
0000
0000
0000
,
0000
0001
0000
0000
,
0000
0010
0000
0010
,
0000
0000
0000
0001
,
0000
0001
0000
0000
,
0000
1000
0000
1000
,
0000
0010
0000
1000
,
0000
1000
0000
0000
,
0000
0100
0000
0100
,
0000
0000
0000
1000
,
0000
1000
0000
0000
,
0000
0001
0000
0001
,
0000
0010
0000
0001
,
0000
0001
0000
0000
,
0000
0100
0000
0100
,
0000
0000
0000
0010
,
0000
1000
0000
0000
,
0000
1000
0000
0001
,
0000
1000
0000
0001
,
0000
1000
0000
0000
,
0000
0100
0000
0100
,
0000
0000
0000
0010
,
0000
0001
0000
0000
,
0000
1000
0000
0010
,
0000
0010
0000
1000
,
0000
0001
0000
0000
,
0001
0000
0000
0001
,
0000
0000
0000
0000
,
0000
1000
0000
0000
,
1000
0000
0000
1000
,
0000
0000
0000
0000
,
0000
0100
0000
0000
,
0100
0000
0000
0100
,
0000
0000
0000
0000
,
0000
0010
0000
0010
,
0000
0010
0000
0001
,
0000
0001
0000
0001
,
0000
1000
0000
0000
,
0001
0000
0000
1000
,
0000
0000
0000
0000
,
0000
0001
0000
0000
,
1000
0000
0000
0001
,
0000
0000
0000
0000
,
0000
0100
0000
0000
,
0010
0000
0000
0100
,
0000
0100
0000
0100
,
0000
0001
0000
0000
,
0000
0000
0000
1000
,
0000
0000
0000
0000
,
0000
0001
0000
0000
,
0100
0000
0000
0001
,
0000
0000
0000
1000
,
0000
0000
0100
0000
,
0000
1000
0000
0000
,
0000
0000
0001
0000
,
0000
0010
0000
0000
,
0001
0000
0000
1000
,
0000
0000
0010
0000
,
0000
0000
0000
0000
,
0100
0000
0000
0100
,
0000
0000
0001
0000
,
0000
1000
0000
0000
,
0001
0000
1000
0000
,
0001
0000
1000
0000
,
0001
0000
1000
0000
,
0010
0000
0010
0000
,
0010
0000
0100
0000
,
0000
0000
0000
0000
,
0001
0000
1000
0000
,
0001
0000
1000
0000
,
0001
0000
1000
0000
,
0010
0000
0010
0000
,
0010
0000
0100
0000
,
0000
0000
0000
0000
,
0010
0000
0000
0000
,
0000
0000
0100
0000
,
0000
0000
0000
0000
,
0001
0000
0000
0000
,
0000
0000
1000
0000
,
1000
0000
0010
0000
,
1000
0000
0000
0000
,
0000
0000
0100
0000
,
0000
0010
0000
0000
,
0100
0000
0000
0010
,
0000
0001
0000
1000
,
0000
0000
0000
0000
,
0000
0000
0000
0000
,
0000
0000
0000
0000
,
0000
0000
0000
0000
,
0000
0000
0000
0000
,
0000
0000
0000
0000
,
0000
0010
0000
0000
,
0001
0000
0000
0100
,
0000
0000
1000
0000
,
0000
0010
0000
0000
,
0001
0000
0000
0100
,
0000
0000
0010
0000
,
0000
1001
0000
0000
,
1001
0000
0000
1001
;
