#TITLE:Egret and Willow;
#SUBTITLE:;
#ARTIST:Dirty Androids;
#TITLETRANSLIT:;
#SUBTITLETRANSLIT:;
#ARTISTTRANSLIT:;
#GENRE:;
#CREDIT:;
#BANNER:Egret and Willow.png;
#BACKGROUND:Egret and Willow-bg.png;
#LYRICSPATH:;
#CDTITLE:;
#MUSIC:Egret and Willow.ogg;
#OFFSET:0.180000;
#SAMPLESTART:20.099995;
#SAMPLELENGTH:13.380000;
#SELECTABLE:YES;
#BPMS:0.000000=196.00
;
#STOPS:
;
#BGCHANGES:;
#KEYSOUNDS:;
#ATTACKS:;

//---------------dance-single - ----------------
#NOTES:
     dance-single:
     :
     Hard:
     10:
     0.546119,0.596571,0.298659,0.209061,0.000000,512.000000,472.000000,40.000000,28.000000,0.000000,0.000000,0.546119,0.596571,0.298659,0.209061,0.000000,512.000000,472.000000,40.000000,28.000000,0.000000,0.000000:
0000
0000
0000
0000
,
0000
0000
0000
0000
,
0000
0000
0000
0000
,
0000
0000
0000
0000
,
0000
0000
0000
0000
,
0000
0000
0000
0000
,
0000
0000
0000
0000
,
0000
0000
0000
0000
,
0000
0000
0000
0000
,
1100
0000
0010
0100
0001
0000
1100
0000
,
0010
1100
0001
0000
,
0101
0000
0010
0100
1000
0000
0101
0000
,
0010
0101
1000
0000
,
1100
0000
0010
0100
0001
0000
1100
0000
,
0010
1100
0001
0100
,
0101
0000
0010
0100
1000
0000
0101
0000
,
0000
0000
0000
0000
1000
0010
0200
0000
,
0310
1000
0100
0010
0100
1000
0010
0000
,
0100
0001
0000
0010
1000
0000
0010
0000
,
0001
0100
0010
0001
0010
0100
0001
0000
,
1000
0100
0010
0001
1000
0000
1000
0000
,
0001
0100
0010
1000
0010
0100
0001
0000
,
1000
1000
0100
0010
0010
0000
0100
0000
,
1000
0010
0100
1000
0100
0010
1000
0100
,
0010
0001
0010
0100
1000
0010
0100
0000
,
0001
1000
0100
0010
0100
1000
0001
0000
,
0001
0100
0010
1000
1000
0000
0100
0000
,
1000
0100
0001
1000
0001
0100
2000
0000
,
3010
0100
0001
0000
0010
0100
1000
0000
,
0101
0000
0100
0001
0010
0100
1000
0010
,
0000
0100
0010
1000
0002
0000
0023
0000
,
0130
1000
0100
0010
0001
0100
1000
0100
,
0010
0100
0100
0001
0010
0000
0100
0000
,
1100
0000
0000
0000
,
0000
0000
0000
0000
,
1000
0100
0010
0100
1000
0000
0000
0000
,
0000
0101
1010
0000
,
1000
0010
0100
0001
0010
0000
1000
0000
,
2000
3010
0020
0031
,
0100
0001
1000
0001
0010
0000
0000
0000
,
0000
1100
0011
0000
,
0001
0100
0010
1000
0010
0000
0100
0000
,
0002
0013
0020
0130
,
1000
0010
0100
0010
1000
0000
0001
0000
,
0000
0101
1010
0000
,
1000
0100
0010
0001
0100
0000
0010
0000
,
2000
0000
3010
0000
0010
0100
0002
0000
,
0013
0100
1000
0100
0000
0010
0001
0000
,
1000
1100
0011
0000
,
0001
0100
0010
1000
0000
0100
0010
0000
,
0002
2003
3020
0130
,
1010
0000
0010
0100
0010
0000
0001
0000
,
0011
0000
0010
0100
,
0101
0000
0100
0010
0100
0000
1000
0000
,
1100
0000
0100
0001
,
1010
0000
0010
0100
0010
0000
0001
0000
,
0011
0000
0010
0100
,
0101
0000
0100
0010
0100
0000
1000
0000
,
1100
0000
0100
0001
,
1100
0000
1000
0100
0010
0000
0001
0000
,
0101
0000
0100
0010
1000
0010
0100
0000
,
0101
0000
0100
0010
1000
0000
0100
0000
,
1100
0000
0100
0010
0001
0010
0100
1000
,
0020
0000
0230
0000
,
0302
0000
0023
0000
,
0230
0000
0000
0000
,
1300
0001
1000
0001
,
0001
1000
0100
0010
0100
1000
0010
0000
,
0100
0001
0000
0010
1000
0000
0010
0000
,
0001
0100
0010
0001
0010
0100
0001
0000
,
1000
0100
0010
0001
1000
0000
1000
0000
,
0001
0100
0010
1000
0010
0100
0001
0000
,
1000
1000
0100
0010
0010
0000
0100
0000
,
1000
0010
0100
1000
0100
0010
1000
0100
,
0010
0001
0010
0100
1000
0010
0100
0000
,
0001
1000
0100
0010
0100
1000
0001
0000
,
0001
0100
0010
1000
1000
0000
0100
0000
,
1000
0100
0001
1000
0001
0100
2000
0000
,
3010
0100
0001
0000
0010
0100
1000
0000
,
0101
0000
0100
0001
0010
0100
1000
0010
,
0000
0100
0010
1000
0002
0000
0023
0000
,
0130
1000
0100
0010
0001
0100
1000
0100
,
0010
0100
0100
0001
0010
0000
0100
0000
,
1100
0000
0001
0010
0100
1000
0010
0000
,
0100
0001
0000
0010
1000
0000
0010
0000
,
0001
0100
0010
0001
0010
0100
0001
0000
,
1000
0100
0010
0001
1000
0000
0010
0000
,
0200
0300
0000
0000
1010
0000
0000
0000
0101
0000
0000
0000
1010
0000
0000
0000
,
0010
1000
0001
0000
0010
0000
0100
0000
,
1000
0010
0100
1000
0100
0010
1000
0100
,
0010
0001
0010
0100
1000
0010
0100
0000
,
0002
0003
1000
0100
0010
0100
1000
0001
,
0100
0000
0010
1000
0000
0010
0100
0000
,
0001
0010
0100
1000
0001
0100
2000
0000
,
3100
0001
0000
0001
0010
0100
1000
0000
,
0101
0000
0100
0001
0010
0100
1000
0010
,
0000
0100
0010
1000
0002
0000
0023
0000
,
0130
1000
0100
0010
0001
1000
0000
0220
,
0000
0000
0000
0000
,
0000
0000
0000
0000
0000
0000
0000
0330
;

//---------------dance-single - ----------------
#NOTES:
     dance-single:
     :
     Medium:
     7:
     0.380790,0.484714,0.044799,0.709315,0.000000,357.000000,351.000000,6.000000,95.000000,0.000000,0.000000,0.380790,0.484714,0.044799,0.709315,0.000000,357.000000,351.000000,6.000000,95.000000,0.000000,0.000000:
0000
0000
0000
0000
,
0000
0000
0000
0000
,
0000
0000
0000
0000
,
0000
0000
0000
0000
,
0000
0000
0000
0000
,
0000
0000
0000
0000
,
0000
0000
0000
0000
,
0000
0000
0000
0000
,
0000
0000
0000
0000
,
2000
0100
0001
0100
,
0010
0000
0100
0000
3010
0000
1000
0100
,
0020
0100
1000
0100
,
0001
0000
1000
0000
0031
0000
0001
1000
,
0002
0100
1000
0100
,
0023
0100
0001
0130
,
2000
0100
0010
3100
,
0000
0000
0000
0000
0100
0010
0001
0000
,
2000
0000
0000
3020
0000
0000
0230
0000
,
0000
0310
0000
0010
1000
0000
0001
0000
,
0002
0000
0000
0023
0000
0000
0032
0000
,
0000
1003
0100
1000
0100
0000
0100
0000
,
0020
0000
0000
0032
0000
0000
0203
0000
,
0000
0310
0000
0010
1000
0000
0001
0000
,
2000
0000
0000
3200
0000
0000
0302
0000
,
0000
0023
0000
0000
2030
0000
3001
0000
,
0020
0000
0000
0230
0000
0000
2300
0000
,
0000
3010
0000
0010
0100
0000
0001
0000
,
2000
0000
0000
3020
0000
0000
2030
0000
,
0000
3001
0010
0001
0010
0000
0100
0000
,
1000
0000
1000
0000
0010
0100
0000
0002
,
0000
1003
0100
1000
0002
0000
0023
0000
,
0130
0000
0100
0000
0010
0100
0000
2000
,
0000
3001
0100
0000
0010
0000
1000
0000
,
0101
0000
0000
0000
,
0000
0000
0000
0000
,
0001
0000
0100
0001
1000
0000
0100
0000
,
0000
1000
0010
1000
,
0001
0000
0100
0001
1000
0000
0001
0000
,
0020
0130
0200
1300
,
0001
0000
0100
0001
1000
0000
0100
0000
,
0000
1000
0010
1000
,
0001
0000
0100
0010
1000
0000
0100
0000
,
0020
0031
2000
3001
,
0100
0000
0001
0100
0010
0000
0100
0000
,
0000
1000
0010
1000
,
0100
0000
1000
0100
0010
0000
0100
0000
,
2000
0000
3010
0000
0010
0100
0001
0000
,
1000
0100
0000
0100
0010
0000
0100
0000
,
0000
1000
0010
0100
,
0001
0000
1000
0001
1000
0000
0010
0000
,
2000
3200
0320
0032
,
1003
0000
0100
1000
0100
0000
0020
0000
,
1030
0010
0001
1000
,
0001
0000
0100
0001
0100
0000
0020
0000
,
0031
1000
0100
0001
,
1000
0000
0100
1000
0100
0000
0020
0000
,
1030
0010
0001
1000
,
0001
0000
0100
0001
0100
0000
0020
0000
,
0031
0010
2000
3100
,
1000
0000
0100
0010
0100
0000
1000
0000
,
0001
0000
0100
0010
1000
0010
1000
0000
,
0001
0000
0100
0010
0100
0000
0001
0000
,
1000
0000
1000
0000
0100
0000
0010
0001
,
2000
0000
3200
0000
,
0302
0000
0203
0000
,
2300
0000
0000
0000
,
3010
0000
0010
0000
0100
0001
1000
0000
,
2000
0000
0000
3020
0000
0000
0230
0000
,
0000
0310
0000
0010
1000
0000
0001
0000
,
0002
0000
0000
0023
0000
0000
0032
0000
,
0000
1003
0100
1000
0100
0000
0100
0000
,
0020
0000
0000
0032
0000
0000
0203
0000
,
0000
0310
0000
0010
1000
0000
0001
0000
,
2000
0000
0000
3200
0000
0000
0302
0000
,
0000
0023
0000
0000
2030
0000
3001
0000
,
0020
0000
0000
0230
0000
0000
2300
0000
,
0000
3010
0000
0010
0100
0000
0001
0000
,
2000
0000
0000
3020
0000
0000
2030
0000
,
0000
3001
0010
0001
0010
0000
0100
0000
,
1000
0000
1000
0000
0010
0100
0000
0002
,
0000
1003
0100
1000
0002
0000
0023
0000
,
0130
0000
0100
0000
0010
0100
0000
2000
,
0000
3001
0100
0000
0010
0000
1000
0000
,
0020
0000
0000
0230
0000
0000
0302
0000
,
0000
1003
0000
1000
0100
0000
0010
0000
,
0002
0000
0000
2003
0000
0000
3002
0000
,
0000
0103
0010
0100
0010
0000
0010
0000
,
1000
1100
0110
0012
,
0000
1000
1003
0000
0100
0000
1000
0000
,
0002
0000
0000
0203
0000
0000
2300
0000
,
0000
3020
0000
0000
0032
0000
1003
0000
,
0010
0101
1100
0001
,
0020
0000
0000
0032
0000
0000
1003
0000
,
2000
0000
0000
3020
0000
0000
0230
0000
,
0000
0320
0000
0000
2030
0000
3001
0000
,
1000
0000
1000
0000
0010
0100
0000
0002
,
0000
1003
0100
1000
0002
0000
0023
0000
,
0130
0000
0100
0000
0010
0100
0000
2000
,
0000
0000
0000
0000
,
0000
0000
0000
0000
0000
0000
0000
3000
;

//---------------dance-single - ----------------
#NOTES:
     dance-single:
     :
     Easy:
     5:
     0.331725,0.410143,0.097064,0.209061,0.000000,311.000000,298.000000,13.000000,28.000000,0.000000,0.000000,0.331725,0.410143,0.097064,0.209061,0.000000,311.000000,298.000000,13.000000,28.000000,0.000000,0.000000:
0000
0000
0000
0000
,
0000
0000
0000
0000
,
0000
0000
0000
0000
,
0000
0000
0000
0000
,
0000
0000
0000
0000
,
0000
0000
0000
0000
,
0000
0000
0000
0000
,
0000
0000
0000
0000
,
0000
0000
0000
0000
,
1000
0100
0010
0100
,
1000
0001
1000
0000
,
0001
0100
0010
0100
,
0001
1000
0001
0001
,
1000
0010
0100
0010
,
1000
0001
1000
0000
,
0001
0010
0100
0010
,
0000
0000
0001
0000
,
1000
0010
1000
0010
,
0010
0100
0001
0000
,
1000
0100
1000
0020
,
0000
0100
0130
0001
,
0001
0010
0001
0010
,
0010
0100
0010
0001
,
1000
0000
0000
0010
0000
0000
0100
0000
,
0000
0001
0000
0000
1000
0000
0100
0000
,
1000
0001
0010
0001
,
1000
0100
0010
0000
,
0001
1000
0001
0200
,
0000
0010
0310
1000
,
0001
0010
0100
0010
,
0000
0001
1000
0001
,
1000
0010
0100
0010
,
0000
1000
0010
0100
,
0001
0000
0000
0000
,
0000
0000
0000
0000
,
0100
0010
1010
0000
,
0100
0001
0011
0100
,
1000
0010
1010
0000
,
2000
3100
0200
0310
,
0001
0010
0011
0000
,
0100
1000
1010
0100
,
0001
1000
0100
1000
,
0020
0230
0302
2003
,
3001
0010
0011
0000
,
0100
1000
1010
0010
,
0100
0001
0011
0000
,
0200
1300
2000
3010
,
1000
0100
1100
0000
,
0010
0100
0101
0010
,
0001
1000
0010
1000
,
0200
0320
0032
2003
,
3010
0000
0000
0010
0000
0000
0100
0000
,
0010
1000
0001
1000
,
0100
0000
0000
0100
0000
0000
0010
0000
,
0100
1000
0100
0010
,
0001
0000
0000
0001
0000
0000
1000
0000
,
0010
0100
1000
0100
,
0001
0000
0000
0001
0000
0000
1000
0000
,
0100
0010
0001
0010
,
0100
1000
0100
0000
,
0010
0001
0100
0010
,
1000
0100
1000
0000
,
0100
0010
0001
0100
,
0020
0000
2030
0000
,
3200
0000
0320
0000
,
0230
0000
0000
0000
,
0000
0000
1300
0001
,
1000
0010
1000
0010
,
0010
0100
0001
0000
,
1000
0100
1000
0020
,
0000
0100
0130
0001
,
0001
0010
0001
0010
,
0010
0100
0010
0001
,
1000
0000
0000
0010
0000
0000
0100
0000
,
0000
0001
0000
0000
1000
0000
0100
0000
,
1000
0001
0010
0001
,
1000
0100
0010
0000
,
0001
1000
0001
0200
,
0000
0010
0310
1000
,
0001
0010
0100
0010
,
0000
0001
1000
0001
,
1000
0010
0100
0010
,
0000
1000
0010
0100
,
0002
0000
0000
0023
0000
0000
0032
0000
,
0000
1003
1000
0010
,
0200
0000
0000
0302
0000
0000
0203
0000
,
0000
0310
0010
1000
,
0001
0110
0110
0110
,
0000
1000
0010
1000
,
0001
0000
0000
0010
0000
0000
0100
0000
,
0000
1000
0000
0000
0010
0000
0100
0000
,
0001
0010
0001
0010
,
0010
0000
0000
0100
0000
0000
1000
0000
,
0001
0010
0001
1000
,
0010
1000
0100
0010
,
0100
0100
1000
0010
,
0000
0100
0010
0100
,
0001
0000
0001
0000
0010
0000
0000
0200
,
0000
0000
0000
0000
,
0000
0000
0000
0000
0000
0000
0000
0300
;

//---------------dance-single - ----------------
#NOTES:
     dance-single:
     :
     Beginner:
     2:
     0.169596,0.256100,0.000000,0.000000,0.000000,159.000000,159.000000,0.000000,0.000000,0.000000,0.000000,0.169596,0.256100,0.000000,0.000000,0.000000,159.000000,159.000000,0.000000,0.000000,0.000000,0.000000:
0000
0000
0000
0000
,
0000
0000
0000
0000
,
0000
0000
0000
0000
,
0000
0000
0000
0000
,
0000
0000
0000
0000
,
0000
0000
0000
0000
,
0000
0000
0000
0000
,
0000
0000
0000
0000
,
0000
0000
0000
0000
,
1000
0000
0010
0000
,
1000
1000
0010
0000
,
0001
0000
0010
0000
,
0001
0001
0010
0000
,
1000
0000
0100
0000
,
1000
1000
0100
0000
,
0001
0000
0100
0000
,
0001
0000
0000
0000
,
1000
0000
0010
0000
,
1000
0000
0000
0000
,
0001
0000
0010
0000
,
0001
0000
0000
0000
,
1000
0000
0100
0000
,
1000
0000
0000
0000
,
0010
0000
0100
0000
,
0001
0000
0010
0000
,
0001
0000
0100
0000
,
0001
0000
0000
0000
,
1000
0000
0100
0000
,
1000
0000
0000
0000
,
0010
0000
0010
0000
,
0100
0000
0100
0000
,
0010
0000
0010
0000
,
1000
0000
0000
0000
,
0001
0000
0000
0000
,
0000
0000
0000
0000
,
0100
0000
0010
0000
,
0000
0000
0010
0000
,
1000
0000
0010
0000
,
0100
0000
0001
0000
,
0100
0000
0010
0000
,
0000
0000
0010
0000
,
1000
0000
0010
0000
,
0100
0000
0001
0000
,
1000
0000
0010
0000
,
0000
0000
0010
0000
,
0100
0000
0001
0000
,
1000
0000
0010
0000
,
0100
0000
0010
0000
,
0000
0000
0010
0000
,
0100
0000
0001
0000
,
1000
0000
0100
0000
,
1000
0000
1000
0000
,
0001
0000
0000
0000
,
1000
0000
1000
0000
,
0001
0000
0010
0000
,
0001
0000
0001
0000
,
1000
0000
0000
0000
,
0001
0000
0001
0000
,
1000
0000
0010
0000
,
0100
0000
0010
0000
,
0100
0100
0010
0000
,
1000
0000
0001
0000
,
1000
1000
0001
0000
,
0010
0000
0100
0000
,
0010
0000
0100
0000
,
1000
0000
0000
0000
,
0000
0000
0000
0000
,
1000
0000
0010
0000
,
1000
0000
0000
0000
,
0001
0000
0010
0000
,
0001
0000
0000
0000
,
1000
0000
0100
0000
,
1000
0000
0000
0000
,
0010
0000
0100
0000
,
0001
0000
0010
0000
,
0001
0000
0100
0000
,
0001
0000
0000
0000
,
1000
0000
0100
0000
,
1000
0000
0000
0000
,
0010
0000
0010
0000
,
0100
0000
0100
0000
,
0010
0000
0010
0000
,
1000
0000
0000
0000
,
1000
0000
0010
0000
,
1000
0000
0000
0000
,
0001
0000
0010
0000
,
0001
0000
0000
0000
,
1000
0100
0100
0100
,
0000
0000
1000
0000
,
0010
0000
0100
0000
,
0001
0000
0010
0000
,
0001
1000
0001
1000
,
0001
0000
0001
0000
,
1000
0000
0100
0000
,
1000
0000
0000
0000
,
0010
0000
0010
0000
,
0100
0000
0100
0000
,
0010
0000
1000
0000
,
0001
0000
0000
0000
;

//---------------dance-single - ----------------
#NOTES:
     dance-single:
     :
     Challenge:
     13:
     0.636784,0.671143,0.403190,0.567452,0.123197,597.000000,543.000000,54.000000,76.000000,0.000000,0.000000,0.636784,0.671143,0.403190,0.567452,0.123197,597.000000,543.000000,54.000000,76.000000,0.000000,0.000000:
0000
0000
0000
0000
,
0000
0000
0000
0000
,
0000
0000
0000
0000
,
0000
0000
0000
0000
,
0000
0000
0000
0000
,
0000
0000
0000
0000
,
0000
0000
0000
0000
,
0000
0000
0000
0000
,
0000
0000
0000
0000
,
1020
0000
0130
0001
1000
0010
0200
0000
,
0301
1010
0101
0010
,
1200
0000
0310
0001
1000
0100
0020
0000
,
0031
1100
0011
0100
,
0201
0000
0310
1000
0001
0100
0010
0000
,
1000
0101
1010
0100
,
1200
0000
0310
0001
1000
0100
0020
0000
,
0000
0000
0030
0000
0001
0100
0010
0000
,
1010
1000
0100
0010
0100
1000
0020
0000
,
0130
0001
0100
0000
0010
0000
1000
0000
1000
0000
0000
0000
0100
0000
0000
0000
,
0011
0001
0100
0010
0100
0001
0020
0000
,
0031
0000
1000
0100
1000
0000
0001
0000
1000
0000
0000
0000
0010
0000
0000
0000
,
0101
0001
0010
0100
0010
0001
0200
0000
,
0310
1000
0010
0000
0100
0000
0001
0000
1000
0000
0100
0000
0010
0000
0000
0000
,
0011
0000
0001
0200
0000
1300
0200
0000
,
0301
0020
0000
1030
0020
0000
0130
0000
,
1100
1000
0010
0100
0010
1000
0200
0000
,
0310
0001
0010
0000
0001
0000
1000
0000
1000
0000
0000
0000
0010
0000
0000
0000
,
1001
0001
0010
0100
0010
0001
2000
0000
,
3010
0000
0100
0001
0100
0000
0010
0000
1000
0000
0100
0000
0010
0000
0000
0000
,
0012
0000
1003
0010
1000
0010
0100
0002
,
0000
1003
0100
1000
0020
0000
0130
0000
,
0101
0000
0101
0000
0001
0010
0000
2100
,
0000
0001
3001
0100
0010
0000
0100
0000
,
1001
0000
0000
0000
,
0000
0000
0000
0000
,
1000
0000
0100
0010
0100
0000
1000
0000
0001
0000
1000
0000
0010
0000
0100
0000
,
0000
0101
1010
0000
,
0001
0000
0100
0010
0100
0000
0001
0000
1000
0000
0001
0000
0010
0000
0100
0000
,
2000
3010
0020
0130
,
0001
0000
1000
0100
1000
0000
0001
0000
0100
0000
0001
0000
0010
0000
0100
0000
,
0000
0000
0000
0000
1100
0000
0000
0000
0011
0000
0000
0000
1000
0000
0001
0100
,
0001
1000
0100
1000
0010
0100
0001
0010
,
0200
0320
0032
2003
,
3001
0000
1000
0010
1000
0000
0100
0000
0010
0000
0100
0000
1000
0000
0001
0000
,
0100
0001
0011
0001
,
1000
0000
0001
0100
0001
0000
0010
0000
0100
0000
0010
0000
0001
0000
0100
0000
,
0020
1030
2000
3100
,
0010
0000
0001
1000
0001
0000
0100
0000
0010
0000
0100
0000
0001
0000
0010
0000
,
0100
0000
0000
0000
1000
0000
0000
0000
1010
0000
0000
0000
0001
0000
0100
0010
,
0100
0001
1000
0100
0010
0100
1000
0000
,
0020
0230
0302
0013
,
0012
0000
1003
0020
1000
0000
0230
0000
,
0302
0000
0000
0000
1003
0000
0000
0000
0010
0000
0100
0000
0001
1000
0001
1000
,
0002
0000
1003
0020
1000
0030
0200
0000
,
0301
0000
1000
0100
1000
0000
0001
0000
1000
0000
0010
0000
0100
0000
0001
0000
,
0200
0000
0301
0020
0001
0000
0230
0000
,
2300
0000
0000
0000
3010
0000
0000
0000
0100
0000
0001
0000
0100
0010
0100
0010
,
0200
0000
0301
0020
0001
0000
0230
0000
,
1300
0000
0001
0100
0001
0000
1000
0000
0001
0000
0010
0000
0100
0000
1000
0000
,
1100
0000
1000
0001
0100
0000
0010
0000
,
1100
0000
1000
0001
0100
0001
0010
0001
,
0101
0000
0001
1000
0100
0000
0010
0000
,
0100
0000
0000
1000
0000
0000
0001
0000
0000
1000
0000
0000
0010
0000
0100
0000
0001
0000
0100
0000
0010
0000
1000
0000
,
0002
0000
0013
0100
2000
0000
3010
0100
,
0002
0000
0000
0000
0000
0000
1003
0000
0000
0100
0000
0000
1000
0000
0000
0000
0010
0000
0000
0000
0100
0000
0000
0000
,
0002
0000
0000
0000
,
0013
0000
0010
0000
0100
1000
0010
0000
,
1010
1000
0100
0010
0100
1000
0020
0000
,
0130
0001
0100
0000
0010
0000
1000
0000
1000
0000
0000
0000
0100
0000
0000
0000
,
0011
0001
0100
0010
0100
0001
0020
0000
,
0031
0000
1000
0100
1000
0000
0001
0000
1000
0000
0000
0000
0010
0000
0000
0000
,
0101
0001
0010
0100
0010
0001
0200
0000
,
0310
1000
0010
0000
0100
0000
0001
0000
1000
0000
0100
0000
0010
0000
0000
0000
,
0021
0000
0031
0200
0000
1300
0200
0000
,
0301
0020
0000
1030
0020
0000
0130
0000
,
1100
1000
0010
0100
0010
1000
0200
0000
,
0310
0001
0010
0000
0001
0000
1000
0000
1000
0000
0000
0000
0010
0000
0000
0000
,
1001
0001
0010
0100
0010
0001
2000
0000
,
3010
0000
0100
0001
0100
0000
0010
0000
1000
0000
0100
0000
0010
0000
0000
0000
,
0012
0000
1003
0010
1000
0010
0100
0002
,
0000
1003
0100
1000
0020
0000
0130
0000
,
0101
0000
0101
0000
0001
0010
0000
2100
,
0000
0001
3001
0100
0010
0000
0100
0000
,
1100
1000
0001
0010
0001
1000
0200
0000
,
0310
0001
0010
0000
0001
0000
1000
0000
1000
0000
0000
0000
0010
0000
0000
0000
,
0101
0001
1000
0010
1000
0001
0200
0000
,
0310
0000
1000
0001
1000
0000
0100
0000
0010
0000
0000
0000
0001
0000
0000
0000
,
1100
0002
0023
0230
,
1300
0001
1000
0000
0020
0000
0130
0000
,
0101
0001
0010
0100
0010
0001
0100
0010
,
1000
0100
1000
0010
0100
0001
0010
0000
,
0200
0300
1100
0000
1010
0000
0110
0000
,
0102
0000
1003
0100
0000
0001
0100
0000
,
1100
1000
0010
0100
0010
1000
0100
0010
,
0001
1000
0001
0010
0100
1000
0010
0000
,
0201
0000
0310
1000
0010
0100
0001
0020
,
0000
0000
0130
1000
0100
0000
0010
0000
0002
0000
0000
0000
1003
0000
0000
0000
,
0101
0000
0101
0000
0010
1000
0000
2200
,
0000
0000
0000
0000
,
0000
0000
0000
0000
0000
0000
0000
3300
;
