#TITLE:Dream drip macchiato;
#SUBTITLE:;
#ARTIST:Bemani Sound Team "TAG";
#TITLETRANSLIT:;
#SUBTITLETRANSLIT:;
#ARTISTTRANSLIT:;
#GENRE:;
#CREDIT:;
#BANNER:Dream drip macchiato.png;
#BACKGROUND:Dream drip macchiato-bg.png;
#LYRICSPATH:;
#CDTITLE:;
#MUSIC:Dream drip macchiato.ogg;
#OFFSET:-0.740000;
#SAMPLESTART:26.228127;
#SAMPLELENGTH:12.000000;
#SELECTABLE:YES;
#BPMS:0.000000=160.000000
;
#STOPS:
;
#BGCHANGES:;
#KEYSOUNDS:;
#ATTACKS:;

//---------------dance-single - ----------------
#NOTES:
     dance-single:
     :
     Hard:
     13:
     0.619613,0.869158,0.493260,0.127567,0.323170,510.000000,452.000000,58.000000,15.000000,0.000000,0.000000,0.619613,0.869158,0.493260,0.127567,0.323170,510.000000,452.000000,58.000000,15.000000,0.000000,0.000000:
0000
0000
0000
0000
,
0000
0000
0000
0000
,
0000
0000
0000
0000
,
0000
0000
0000
0000
,
0000
0000
0000
0000
,
1000
1010
0100
0101
,
0001
0011
0100
1100
,
1000
0100
0010
0100
1000
0001
0100
0010
,
1000
0010
0100
0010
1000
0100
0010
0001
1000
0000
0000
0000
0000
0000
0000
0000
,
1000
0000
0001
0100
0010
0000
1000
0000
0000
0100
0000
0000
0110
0000
0001
0000
,
1000
0000
0001
0100
0010
0000
1000
0000
0000
0100
0000
0000
0110
0000
0001
0000
,
1000
0000
0001
0100
0010
0000
1000
0000
0000
0100
0000
0000
0110
0000
0001
0000
,
1000
0000
0001
0100
0010
0000
1000
0000
0000
0001
0000
0000
0010
0100
0010
0100
,
1000
0000
0100
0010
0001
0000
1000
0000
0000
0010
0000
0000
0101
0000
0010
0000
,
1000
0000
0100
0010
0001
0000
1000
0000
0000
0010
0000
0000
0101
0000
0010
0000
,
1000
0000
0100
0010
0001
0000
1000
0000
0000
0010
0000
0000
0101
0000
0010
0000
,
2000
3200
0320
0032
,
1003
0000
0100
0000
0010
0000
0001
0000
1100
0000
0000
0010
0000
0000
0001
0000
,
0001
0000
0100
0000
0010
0000
1000
0000
0101
0000
0000
0010
0000
0000
1000
0000
,
0001
0000
0010
0000
0100
0000
1000
0000
0011
0000
0000
0100
0000
0000
1000
0000
,
1000
0000
0010
0000
0100
0000
0001
0000
1010
0000
0000
0100
0000
0000
0001
0000
,
1000
0000
0100
0000
0010
0000
0001
0000
1100
0000
0000
0010
0000
0000
0001
0000
,
0001
0000
0100
0000
0010
0000
1000
0000
1001
0000
0000
0100
0000
0000
0010
0000
,
0001
0000
0010
0000
0100
0000
1000
0000
0011
0000
0000
0100
0000
0000
1000
0000
,
1000
0010
0100
0002
0000
0013
0100
0010
,
0001
0000
0100
0010
1010
0100
0001
1000
,
0000
0100
1000
0100
0110
0001
1000
0100
,
0001
0000
0100
1000
1010
0001
0000
0010
,
0000
0100
1000
0001
0101
0010
0100
0001
,
1000
0000
0100
0010
0011
0100
1000
0001
,
0000
0100
0001
0100
0110
1000
0001
1000
,
0200
0000
0000
0000
0310
0000
0000
0000
0011
0000
0000
0001
0000
0000
0200
0000
,
0310
0000
1000
0100
1000
0000
0001
0100
0001
0000
1000
0000
0100
0000
0010
0000
,
0002
0000
1003
0100
0010
0100
0000
1000
,
0000
0001
0100
0001
0000
1000
0100
0010
,
0001
0000
0001
0100
0010
0100
0000
0001
,
0000
1000
0100
1000
0000
0010
0000
0100
,
0001
0000
1000
0100
0010
0001
0000
1000
,
0000
0010
0100
0010
0000
0100
0001
1000
,
0010
0000
1000
0100
0010
0100
0000
1000
,
0000
0001
0100
0001
0000
0100
0000
0010
,
1000
1010
0100
1100
,
0001
0000
0000
0000
0101
0000
0000
0000
0010
0000
0000
0000
0011
0000
0100
1000
,
0001
0011
1000
1010
,
0001
0000
0000
0000
0101
0000
0000
0000
1000
0000
0000
0000
1100
0000
1000
0100
,
0010
0001
0010
0001
1000
0010
1000
0010
,
0100
0001
0100
0001
1000
0100
1000
0100
,
0010
0001
0010
0001
1000
0100
1000
0100
0010
0001
1000
0001
0100
0010
1000
0010
,
0100
0001
0000
1000
0010
0000
0100
0001
0000
1000
0100
0010
0001
0000
0000
0000
,
1100
0000
0000
0000
0110
0000
0000
0000
0011
0000
0000
0110
0000
0000
1100
0000
,
0000
0000
0010
0000
0001
0000
0000
0000
0101
0000
0000
0010
0000
0000
1000
0000
,
1100
0000
0000
0000
0110
0000
0000
0000
0011
0000
0000
0110
0000
0000
1100
0000
,
0000
0000
0010
0000
0001
0000
0000
0000
1010
0000
0000
0010
0000
0000
0100
0000
,
0101
0000
0000
0000
0110
0000
0000
0000
1010
0000
0000
0110
0000
0000
0101
0000
,
0000
0000
0000
0000
0010
0000
0000
0000
0001
0000
0000
0000
0100
0000
0000
0000
0010
0000
0000
0000
1000
0000
0000
0000
0100
0000
0000
0000
0000
0000
0000
0000
0000
0010
0000
0000
0000
0000
0000
0000
0000
0000
0001
0000
0000
0000
0000
0000
,
0101
0000
0000
0000
0110
0000
0000
0000
1010
0000
0000
0110
0000
0000
0101
0000
,
0001
0000
1000
0100
1000
0000
0001
0010
0001
0000
1000
0010
0100
0000
0001
0000
,
1000
0000
0000
0000
1100
0000
0000
0000
0010
0000
0000
0010
0001
0000
0100
0000
,
0001
0000
1000
0000
1010
0000
0000
0000
0100
0000
0000
0100
0010
0000
1000
0000
,
0001
0000
0000
0000
0011
0000
0000
0000
0100
0000
0000
0100
1000
0000
0010
0000
,
1000
0000
0001
0000
0101
0000
0000
0000
0010
0000
0000
0010
0100
0000
1000
0000
,
0001
0100
1000
0100
0001
1000
0010
1000
,
0001
0010
1000
0010
0001
1000
0100
1000
,
0001
0010
0001
0010
0100
1000
0100
1000
0001
0010
0100
0010
0001
1000
0100
1000
,
0001
0010
0000
0100
1000
0000
0001
0010
0000
0100
1000
0100
0010
0000
0000
0000
,
0002
0000
1003
0100
0010
0100
0000
1000
,
0000
0001
0100
0001
0000
1000
0100
0010
,
0002
0000
1003
0100
0010
0100
0000
1000
,
0000
0010
0100
0001
0000
0100
0000
0010
,
2000
0000
0000
3200
0000
0000
0000
0320
,
0000
0000
0000
0032
0000
0000
0000
0203
,
0000
0000
0000
0000
,
0000
0000
0000
0000
,
0300
0000
0000
0000
;

//---------------dance-single - ----------------
#NOTES:
     dance-single:
     :
     Medium:
     9:
     0.448308,0.527703,0.187099,0.391206,0.140324,369.000000,347.000000,22.000000,46.000000,0.000000,0.000000,0.448308,0.527703,0.187099,0.391206,0.140324,369.000000,347.000000,22.000000,46.000000,0.000000,0.000000:
0000
0000
0000
0000
,
0000
0000
0000
0000
,
0000
0000
0000
0000
,
0000
0000
0000
0000
,
0000
0000
0000
0000
,
1000
0010
0100
0010
,
1000
0001
0010
0001
,
1000
0100
0010
0000
0001
0100
0010
0000
,
1000
0100
0010
0100
1000
0000
0000
0000
,
0001
0000
0000
0010
0000
0000
0100
0000
0000
1000
0000
0000
0100
0000
1000
0000
,
0001
0000
0000
0100
0000
0000
0010
0000
0000
1000
0000
0000
0010
0000
0100
0000
,
0001
0000
0000
0010
0000
0000
0001
0000
0000
0100
0000
0000
0001
0000
1000
0000
,
0100
0000
0000
0010
0000
0000
0001
0000
0000
1000
0000
0000
0020
0000
0000
0000
,
1030
0000
0000
0100
0000
0000
0010
0000
0000
0001
0000
0000
0100
0000
0001
0000
,
1000
0000
0000
0010
0000
0000
0100
0000
0000
0001
0000
0000
0010
0000
0100
0000
,
1000
0000
0000
0010
0000
0000
1000
0000
0000
0100
0000
0000
1000
0000
0001
0000
,
0200
0320
2030
3002
,
0013
0000
0000
0000
0100
0000
0000
0000
0110
0000
0000
1000
0000
0000
0001
0000
,
0000
0000
0100
0000
0010
0000
0000
0000
1010
0000
0000
0010
0000
0000
0100
0000
,
0001
0000
0000
0000
0010
0000
0000
0000
0011
0000
0000
0100
0000
0000
1000
0000
,
0000
0000
0001
0000
0100
0000
0000
0000
0101
0000
0000
0010
0000
0000
1000
0000
,
0100
0000
0000
0000
0010
0000
0000
0000
0110
0000
0000
0001
0000
0000
1000
0000
,
0000
0000
0001
0000
0010
0000
0000
0000
0011
0000
0000
0100
0000
0000
1000
0000
,
0001
0000
0000
0000
0100
0000
0000
0000
0101
0000
0000
0010
0000
0000
1000
0000
,
0000
0100
0010
0002
0000
0013
0100
0010
,
0001
0000
1000
0100
0000
1000
0010
0100
,
0000
0001
0000
0001
0100
0010
1000
0100
,
1000
0000
0100
0010
0000
0001
0000
1000
,
0000
0100
0000
0001
0000
0010
0100
0010
,
0001
0000
1000
0100
0000
1000
0010
0100
,
0000
0001
0000
0001
1000
0100
0010
0001
,
2000
0000
0000
0000
0000
0000
3010
0200
,
0000
0000
0000
0302
0000
0000
0000
0000
,
1003
0000
1000
0100
0010
0100
0000
1000
,
0000
0001
0100
0001
0000
1000
0100
0010
,
0001
0000
0001
0100
0010
0100
0000
0001
,
0000
1000
0100
1000
0000
0001
0000
0010
,
0100
0000
1000
0001
0100
0001
0000
0010
,
0000
0100
1000
0100
0000
1000
0100
0010
,
0001
0000
0100
0010
1000
0010
0000
0100
,
0000
0001
1000
0001
0000
0010
0000
0100
,
1000
1010
0100
0101
,
0010
0000
0011
0000
0100
0000
0100
1000
,
0001
0101
1000
1100
,
0001
0011
1000
1010
,
1000
0001
1000
0001
1000
0001
1000
0001
,
0100
0010
0100
0010
0100
0010
0100
0010
,
1000
0100
0010
0000
0001
0100
0010
0000
,
1000
0000
0000
0100
0000
0000
0010
0000
0000
0001
0000
0000
1001
0000
0000
0000
,
0002
0000
0000
0000
0103
0000
0000
0000
0120
0000
0000
2030
0000
0000
3002
0000
,
0000
0000
0103
0000
0010
0000
0000
0000
2010
0000
0000
3020
0000
0000
0130
0000
,
0002
0000
0000
0000
0013
0000
0000
0000
0021
0000
0000
0230
0000
0000
2300
0000
,
0000
0000
3001
0000
0100
0000
0000
0000
0201
0000
0000
0320
0000
0000
1030
0000
,
0200
0000
0000
0000
0310
0000
0000
0000
0120
0000
0000
0032
0000
0000
1003
0000
,
0000
0000
0000
0000
0010
0000
0000
0000
0000
0000
0000
0000
0100
0000
0000
0000
0000
0000
0000
0000
0001
0000
0000
0000
2000
0000
0000
0000
0000
0000
0000
0000
0000
3200
0000
0000
0000
0000
0000
0000
0000
0000
1300
0000
0000
0000
0000
0000
,
0001
0000
0000
0000
0100
0000
0000
0000
0201
0000
0000
0320
0000
0000
2030
0000
,
0000
0000
3100
0000
0010
0000
0000
0000
0021
0000
0000
0230
0000
0000
1300
0000
,
0002
0000
1003
0010
1000
0001
0100
0020
,
0000
0130
0001
1000
0100
0010
0001
0010
,
0200
0000
1300
0010
1000
0001
0100
0020
,
0000
0130
0001
2000
0000
3100
0010
0100
,
2000
0000
3001
0100
0001
1000
0100
0020
,
0000
0130
1000
0001
0010
0100
1000
0010
,
0200
0000
0000
0000
0000
0000
0301
2000
,
0000
0000
0000
3200
0000
0000
0000
0000
,
0310
0000
0001
0100
0001
1000
0000
0010
,
0000
1000
0100
1000
0000
0001
0100
0010
,
1000
0000
0001
0100
0001
1000
0000
0010
,
0000
0100
0001
0100
0000
0001
0000
0010
,
0200
0000
0000
2300
0000
0000
0000
3020
,
0000
0000
0000
0230
0000
0000
0000
0002
,
0000
0000
0000
0000
,
0000
0000
0000
0000
,
0303
0000
0000
0000
;

//---------------dance-single - ----------------
#NOTES:
     dance-single:
     :
     Easy:
     5:
     0.311021,0.403538,0.255135,0.391206,0.008504,256.000000,226.000000,30.000000,46.000000,0.000000,0.000000,0.311021,0.403538,0.255135,0.391206,0.008504,256.000000,226.000000,30.000000,46.000000,0.000000,0.000000:
0000
0000
0000
0000
,
0000
0000
0000
0000
,
0000
0000
0000
0000
,
0000
0000
0000
0000
,
0000
0000
0000
0000
,
1000
0010
0100
0010
,
1000
0100
0010
0100
,
1000
0001
1000
0001
,
0100
0010
1000
0010
0100
0000
0000
0000
,
0002
0000
0000
2003
0000
0000
3001
0000
,
0200
0000
0000
0320
0000
0000
0130
0000
,
0002
0000
0000
0023
0000
0000
0031
0000
,
2000
0000
0000
3020
0000
0000
0230
0000
,
0302
0000
0000
2003
0000
0000
3001
0000
,
0020
0000
0000
0230
0000
0000
0310
0000
,
0002
0000
0000
0203
0000
0000
0301
0000
,
2000
3200
0320
0032
,
1003
0010
1010
0000
,
0100
0001
0101
0000
,
1000
0100
1100
0000
,
0001
0010
0011
0000
,
0001
1000
1010
0000
,
1000
0001
0011
0000
,
0010
0100
1100
0000
,
0010
0100
0101
0001
,
1000
0100
0001
0100
,
1000
0001
0011
0000
,
0001
0100
1000
0100
,
0001
1000
1010
0000
,
0010
0100
0001
0010
,
0100
1000
1010
0000
,
0020
0000
0130
0001
,
2000
0000
3200
0000
,
0301
0000
1000
0000
0001
0000
0000
0100
,
0000
0010
0000
0100
0000
0000
0001
0000
,
1000
0000
0010
0000
1000
0000
0000
0001
,
0000
0100
0000
0001
0000
1000
0000
0010
,
1000
0000
0100
0000
1000
0000
0000
0001
,
0000
0100
0000
0001
0000
0000
1000
0000
,
0001
0000
0010
0000
0001
0000
0000
1000
,
0000
0010
0000
1000
0000
0000
0001
0000
,
0010
0010
0001
0001
,
0100
0100
1000
1000
,
0010
0010
1000
1000
,
0100
0100
0001
0001
,
1000
1100
0001
0101
,
1000
1010
0001
0011
,
1000
1000
0001
0001
,
0100
0000
0000
0010
0000
0000
1000
0000
0000
0010
0000
0000
0100
0000
0000
0000
,
0001
0010
0022
0033
,
0000
0001
1000
0000
2020
0000
3030
0000
,
0100
0001
0202
0303
,
0000
0001
1000
0000
2200
0000
3300
0000
,
0010
0001
0022
0033
,
2000
0000
0020
3030
,
0100
0001
0202
0303
,
0000
0001
1000
0000
2200
0000
3300
0000
,
1000
1100
0001
0101
,
1000
0100
0001
0100
,
1000
1010
0001
0011
,
1000
0010
0001
0010
,
1000
1010
0100
0101
,
0010
0011
0100
1100
,
2000
0000
0000
0000
0000
0000
3001
0200
,
0000
0000
0000
0320
0000
0000
0000
0000
,
1030
0000
0100
0000
1000
0000
0000
0001
,
0000
0010
0000
0001
0000
0000
0100
0000
,
1000
0000
0010
0000
1000
0000
0000
0001
,
0000
0100
0000
0001
0000
0010
0000
0100
,
2000
0000
0000
3020
0000
0000
0000
0230
,
0000
0000
0000
0302
0000
0000
0000
2000
,
0000
0000
0000
0000
,
0000
0000
0000
0000
,
3003
0000
0000
0000
;

//---------------dance-single - ----------------
#NOTES:
     dance-single:
     :
     Beginner:
     2:
     0.123923,0.205383,0.000000,0.000000,0.000000,102.000000,102.000000,0.000000,0.000000,0.000000,0.000000,0.123923,0.205383,0.000000,0.000000,0.000000,102.000000,102.000000,0.000000,0.000000,0.000000,0.000000:
// measure 0
0000
0000
0000
0000
,  // measure 1
0000
0000
0000
0000
,  // measure 2
0000
0000
0000
0000
,  // measure 3
0000
0000
0000
0000
,  // measure 4
0000
0000
0000
0000
,  // measure 5
1000
0000
0001
0000
,  // measure 6
1000
0000
0001
0000
,  // measure 7
0010
0000
0100
0000
,  // measure 8
1000
0001
1000
0000
,  // measure 9
0001
0000
0000
0000
,  // measure 10
0100
0000
0000
0000
,  // measure 11
1000
0000
0000
0000
,  // measure 12
0100
0000
0000
0000
,  // measure 13
0001
0000
0000
0000
,  // measure 14
0010
0000
0000
0000
,  // measure 15
1000
0000
0000
0000
,  // measure 16
0010
0010
0010
0000
,  // measure 17
0001
0000
0000
0000
,  // measure 18
1000
0000
0000
0000
,  // measure 19
0010
0000
0000
0000
,  // measure 20
1000
0000
0000
0000
,  // measure 21
0001
0000
0000
0000
,  // measure 22
0100
0000
0000
0000
,  // measure 23
0010
0000
0000
0000
,  // measure 24
1000
0000
0001
0000
,  // measure 25
1000
0000
0100
0000
,  // measure 26
1000
0000
0000
0000
,  // measure 27
0010
0000
0000
0000
,  // measure 28
0100
0000
0000
0000
,  // measure 29
1000
0000
0010
0000
,  // measure 30
1000
0000
0000
0000
,  // measure 31
0100
0000
0000
0000
,  // measure 32
0001
0000
0010
0000
,  // measure 33
0001
0000
0000
0000
,  // measure 34
1000
0000
0000
0000
,  // measure 35
0100
0000
0000
0000
,  // measure 36
1000
0000
0000
0000
,  // measure 37
0001
0000
0000
0000
,  // measure 38
0100
0000
0000
0000
,  // measure 39
0010
0000
0000
0000
,  // measure 40
0100
0000
0000
0000
,  // measure 41
0001
0000
0001
0000
,  // measure 42
0001
0000
0001
0000
,  // measure 43
1000
0000
1000
0000
,  // measure 44
1000
0000
1000
0000
,  // measure 45
0010
0000
0100
0000
,  // measure 46
0010
0000
0100
0000
,  // measure 47
0001
0000
1000
0000
,  // measure 48
0001
1000
0001
0000
,  // measure 49
1000
1000
1000
0000
,  // measure 50
0010
0000
1000
0000
,  // measure 51
0001
0001
0001
0000
,  // measure 52
0010
0000
0001
0000
,  // measure 53
1000
1000
1000
0000
,  // measure 54
0100
0000
1000
0000
,  // measure 55
0001
0001
0001
0000
,  // measure 56
0100
0000
0001
0000
,  // measure 57
1000
0000
0100
0000
,  // measure 58
0010
0000
0000
0000
,  // measure 59
1000
0000
0100
0000
,  // measure 60
0001
0000
0000
0000
,  // measure 61
1000
0000
0001
0000
,  // measure 62
0010
0000
0100
0000
,  // measure 63
1000
0000
0000
0000
,  // measure 64
0010
0000
0100
0000
,  // measure 65
0010
0000
0000
0000
,  // measure 66
1000
0000
0000
0000
,  // measure 67
0100
0000
0000
0000
,  // measure 68
0001
0000
0000
0000
,  // measure 69
0010
0000
0000
0000
;
