#TITLE:DDU-DU DDU-DU;
#SUBTITLE:;
#ARTIST:BLACKPINK;
#TITLETRANSLIT:;
#SUBTITLETRANSLIT:;
#ARTISTTRANSLIT:;
#GENRE:;
#CREDIT:;
#BANNER:DDU-DU DDU-DU.png;
#BACKGROUND:DDU-DU DDU-DU-bg.png;
#LYRICSPATH:;
#CDTITLE:;
#MUSIC:DDU-DU DDU-DU.ogg;
#OFFSET:1.100000;
#SAMPLESTART:7.459711;
#SAMPLELENGTH:11.999990;
#LASTBEATHINT:0.121996;
#SELECTABLE:YES;
#BPMS:0.000000=140.000000
;
#STOPS:
;
#BGCHANGES:2.250=DDU-DU DDU-DU.avi=1.000=1=0=1===CrossFade==,
212.000=DDU-DU DDU-DU-bg.png=1.000=1=0=1===CrossFade==,
99999=-nosongbg-=1.000=0=0=0 // don't automatically add -songbackground-
;
#KEYSOUNDS:;
#ATTACKS:;

//---------------dance-single - ----------------
#NOTES:
     dance-single:
     :
     Hard:
     12:
     0.501546,0.567132,0.064815,0.399693,0.237655,325.000000,319.000000,6.000000,37.000000,0.000000,0.000000,0.501546,0.567132,0.064815,0.399693,0.237655,325.000000,319.000000,6.000000,37.000000,0.000000,0.000000:
0000
0000
0000
0000
,
0000
0000
0000
0000
,
0000
0000
0000
0000
,
0000
0000
0000
0000
,
0000
0000
0000
0000
,
2000
0000
0000
0000
3100
0000
0010
0000
0002
0000
0000
0000
0003
0000
0100
0010
,
1000
0010
1000
0010
0200
0000
0301
0000
,
2000
0000
0000
0000
3100
0000
0010
0000
0002
0000
0000
0000
0003
0000
0100
0010
,
1000
0010
1000
0010
0100
0001
0012
0000
,
1003
0000
0000
0000
0100
0000
0010
0000
0002
0000
0000
0000
0003
0000
0100
0010
,
1000
0010
1000
0010
0100
0001
0010
0001
,
2000
0000
0000
0000
3100
0000
0010
0000
0002
0000
0000
0000
0003
0000
0100
0010
,
1000
0010
1000
0010
0100
0000
0002
0000
,
1003
0000
0100
0010
0001
0001
0100
0010
,
1000
0010
0100
0001
0020
0100
0000
0031
,
1000
0001
0010
0100
1000
1000
0010
0100
,
0001
0100
0010
1000
0200
0010
0000
0000
,
1300
0010
0100
0001
0100
0010
1000
1000
,
0001
0010
0100
0010
0001
2000
0000
0000
,
3002
0000
0013
0100
2000
0000
3010
0100
,
0001
0100
0010
1000
0001
2000
0000
0000
,
3100
0000
0000
0010
0001
0010
0100
1000
0100
0010
0000
0010
,
0001
0000
0100
0010
1000
0010
0100
0001
0100
0010
0000
0010
,
1000
0000
0000
0001
0010
0001
1000
0100
1000
0010
0000
0010
,
1000
0000
0000
0001
0100
0001
1000
0100
1000
0010
0000
0010
,
1000
0000
0001
0000
0100
0000
0000
0100
0000
0000
0010
0000
1000
0000
0000
1000
,
0000
0000
0100
0000
0010
0000
0000
0010
0000
0000
0001
0000
1000
0000
0000
1000
,
0000
0000
0001
0000
0010
0000
0000
0100
0000
0000
0010
0000
0001
0000
0000
1000
,
0000
0000
0001
0000
0010
0000
0000
0100
0000
0000
0010
0000
0001
0000
0000
0000
,
2000
0000
0000
3001
0010
0001
0100
0000
,
0020
0000
0000
1030
0001
1000
0100
0000
,
2000
0000
0000
3001
0100
0001
1000
0000
,
0002
0000
0000
0013
0100
1000
0001
0001
,
2000
0000
0000
3010
0100
0001
0100
0000
,
0020
0000
0000
1030
0100
1000
0001
0000
,
0200
0000
0000
0310
1000
0010
0100
0000
,
0002
0000
0000
1003
0100
0010
0001
0000
,
0012
0000
1003
0100
0010
0100
1000
0000
,
0012
0000
1003
0100
0010
0100
1000
0010
,
0200
0000
0310
1000
0001
1000
0010
0000
,
0201
0000
0310
1000
0001
1000
0020
0000
,
1030
0100
1000
0010
0010
0100
0001
0010
,
0010
0100
1000
0001
0001
0100
0010
0100
,
0001
0100
0000
0000
1000
0100
0000
0000
0001
1000
0001
1000
0001
0000
0010
0000
,
0100
0000
1000
0000
0100
0000
1000
0000
0010
0100
0000
0000
0100
0001
0000
0000
,
0012
0000
0000
0000
0103
0000
0010
0000
2000
0000
0000
0000
0000
0000
3100
0010
,
0001
0010
0001
0010
0100
1000
0001
1000
,
0020
0000
0000
0000
0130
0000
0010
0000
2000
0000
0000
0000
0000
0000
3100
0010
,
0001
0000
0010
0000
0001
0000
0010
0000
0100
1000
0000
0000
1000
0010
0000
0000
,
0102
0000
0000
0000
0103
0000
0010
0000
2000
0000
0000
0000
0000
0000
3100
0010
,
0001
0010
0001
0010
0100
1000
0001
1000
,
0020
0000
0000
0000
0130
0000
0010
0000
2000
0000
0000
0000
0000
0000
3100
0010
,
0001
1000
0001
1000
0100
0000
0000
0000
;

//---------------dance-single - ----------------
#NOTES:
     dance-single:
     :
     Medium:
     7:
     0.362656,0.396993,0.129630,0.432101,0.000000,235.000000,223.000000,12.000000,40.000000,0.000000,0.000000,0.362656,0.396993,0.129630,0.432101,0.000000,235.000000,223.000000,12.000000,40.000000,0.000000,0.000000:
0000
0000
0000
0000
,
0000
0000
0000
0000
,
0000
0000
0000
0000
,
0000
0000
0000
0000
,
0000
0000
0000
0000
,
1000
0000
0100
0010
0002
0000
0000
0000
,
1003
0010
1000
0001
,
0102
0000
0013
0100
1000
0000
0000
1000
,
0001
0010
0110
0000
,
1000
0000
0100
0010
0002
0000
0000
0000
,
1003
0010
1000
0001
,
0102
0000
0013
0100
1000
0000
0000
1000
,
0001
0010
0110
0000
,
0001
0000
1000
0100
0010
0000
0010
0100
,
1000
0000
1000
0001
2000
0000
3001
0000
,
0001
0000
0100
0001
0010
0000
0010
0001
,
0100
0000
0001
1000
0002
0000
0103
0000
,
0010
0000
1000
0001
0010
0000
0010
0001
,
1000
0000
0100
0010
0200
0000
1300
0000
,
0002
0000
0103
0010
0200
0000
0301
0010
,
0001
0000
1000
0100
1000
0002
0000
0000
,
0103
0000
0010
1000
0010
0000
0100
0000
,
1001
0000
0010
0001
0010
0000
0100
0000
,
1001
0000
0100
0001
0100
0000
0100
1000
,
0100
0010
1000
0100
,
1001
0000
0010
0000
0001
0000
0100
0100
,
0020
0000
1030
0000
0100
0000
0010
0010
,
0002
0000
0103
0000
0010
0000
1000
1000
,
0200
0310
0001
1000
,
0020
0000
0000
0100
0000
0000
1030
0000
,
0002
0000
0000
1000
0000
0000
0013
0000
,
0200
0000
0000
1000
0000
0000
0310
0000
,
0002
0000
0000
0100
0000
0000
1003
0000
,
2000
0000
0000
0001
0000
0000
3100
0000
,
0020
0000
0000
0001
0000
0000
0130
0000
,
0200
0000
0000
1000
0000
0000
0310
0000
,
0002
0000
0000
0100
0000
0000
1003
0000
,
0020
0000
0130
0001
0100
0000
0001
0100
,
0002
0000
0013
0100
0010
0000
0100
0010
,
0200
0000
1300
0010
1000
0000
0010
1000
,
0020
0000
0130
0001
0100
0000
0010
0000
,
2001
0000
3100
0010
0100
0000
0010
0100
,
0020
0000
0031
1000
0001
0000
1000
0001
,
0020
0230
2300
3002
,
0103
0010
0100
0010
1000
0000
0001
0000
,
0021
0000
0000
0031
2000
0000
0000
3001
,
0010
0001
0010
0100
2000
0000
3010
0000
,
1020
0000
0000
1030
0002
0000
0000
1003
,
0010
1000
0010
0100
0001
0000
1000
0000
,
1200
0000
0000
1300
0002
0000
0000
1003
,
0010
1000
0010
0100
0001
0000
1000
0000
,
0201
0000
0000
0301
2000
0000
0000
3001
,
0010
0001
0010
0100
1000
0000
0000
0000
;

//---------------dance-single - ----------------
#NOTES:
     dance-single:
     :
     Easy:
     5:
     0.280865,0.311923,0.086420,0.313273,0.000000,182.000000,174.000000,8.000000,29.000000,0.000000,0.000000,0.280865,0.311923,0.086420,0.313273,0.000000,182.000000,174.000000,8.000000,29.000000,0.000000,0.000000:
0000
0000
0000
0000
,
0000
0000
0000
0000
,
0000
0000
0000
0000
,
0000
0000
0000
0000
,
0000
0000
0000
0000
,
1000
1000
0020
0000
,
0130
0001
1000
0100
,
1100
0100
0020
0000
,
0031
1000
0001
0000
,
0001
0001
0020
0000
,
0130
1000
0001
0100
,
0101
0100
0020
0000
,
1030
0001
1000
0000
,
1000
0100
0010
0010
,
0100
0000
1000
0000
0001
0010
0000
0000
,
0001
0100
0010
0010
,
0100
0000
0001
0000
1000
0010
0000
0000
,
1000
0100
0001
0100
,
1000
0000
0100
0000
0010
0001
0000
0000
,
0002
0010
2003
0010
,
3001
0000
0010
0000
0100
1000
0000
0000
,
1200
0320
0001
0031
,
0100
0010
1000
1000
,
0201
0320
1000
1030
,
0100
0010
0001
1000
,
0001
0002
0103
0200
,
1300
2000
3010
0020
,
0031
0010
0020
1030
,
2000
3100
0200
0301
,
1000
0000
1000
0100
,
0010
0000
0000
0001
,
1000
0010
1000
0010
,
0100
0001
0100
0001
,
0010
0000
0100
1000
,
0001
0000
0000
0100
,
0010
1000
0001
1000
,
0100
0010
0001
1000
,
0001
0000
0001
0010
,
0100
0100
0100
1000
,
0010
0010
0010
0100
,
0001
0000
0001
0000
0001
0000
1000
0100
,
2000
3010
0020
0130
,
0200
0301
0002
0013
,
0002
0203
2300
3200
,
0301
1000
0001
0000
0010
0000
0010
0000
,
2100
0000
0010
0000
,
0001
0100
3010
1000
,
0102
0000
0010
0000
,
1003
0010
1000
0001
,
0102
0000
0010
0000
,
1000
0100
0013
0100
,
2100
0000
0010
0000
,
3001
0010
0001
0010
0100
0000
0000
0000
;

//---------------dance-single - ----------------
#NOTES:
     dance-single:
     :
     Beginner:
     2:
     0.175927,0.226853,0.000000,0.000000,0.000000,114.000000,114.000000,0.000000,0.000000,0.000000,0.000000,0.175927,0.226853,0.000000,0.000000,0.000000,114.000000,114.000000,0.000000,0.000000,0.000000,0.000000:
0000
0000
0000
0000
,
0000
0000
0000
0000
,
0000
0000
0000
0000
,
0000
0000
0000
0000
,
0000
0000
0000
0000
,
1000
0000
0010
0000
,
1000
1000
1000
0000
,
0001
0000
0010
0000
,
0001
1000
0001
0000
,
0100
0000
0010
0000
,
1000
1000
1000
0000
,
0100
0000
0010
0000
,
0001
1000
0001
0000
,
1000
0000
0010
0000
,
1000
0100
0010
0000
,
0001
0000
0010
0000
,
0001
0100
0010
0000
,
1000
0000
1000
0000
,
0001
0010
0001
0000
,
1000
0000
0001
0000
,
1000
0010
1000
0000
,
0000
0100
0100
0100
,
0000
0010
0010
0010
,
0000
0100
0100
0100
,
0000
1000
1000
1000
,
0000
0001
0000
0010
,
0000
0001
0000
0010
,
0000
1000
0000
0010
,
0000
1000
0000
0010
,
0000
0000
1000
1000
,
1000
0000
0000
0000
,
0001
0000
0010
0000
,
0001
0000
0001
0000
,
0100
0000
0001
0001
,
0001
0000
0000
0000
,
1000
0000
0010
0000
,
1000
0000
1000
0000
,
0001
0000
0001
0000
,
0100
0000
0100
0000
,
0010
0000
0010
0000
,
1000
0000
1000
0000
,
0100
0100
0100
0000
,
0010
0010
0010
0000
,
0001
1000
0001
1000
,
0001
0000
0000
0000
,
0100
0000
0010
0000
,
0100
0100
0100
0000
,
0001
0000
1000
0000
,
0001
0001
0001
0000
,
0010
0000
0100
0000
,
1000
1000
1000
0000
,
0010
0000
0100
0000
,
0001
0001
0001
0000
;

//---------------dance-single - ----------------
#NOTES:
     dance-single:
     :
     Challenge:
     16:
     0.663583,0.911733,0.172840,0.162038,0.448305,430.000000,414.000000,16.000000,15.000000,0.000000,0.000000,0.663583,0.911733,0.172840,0.162038,0.448305,430.000000,414.000000,16.000000,15.000000,0.000000,0.000000:
// measure 0
0000
0000
0000
0000
,  // measure 1
0000
0000
0000
0000
,  // measure 2
0000
0000
0000
0000
,  // measure 3
0000
0000
0000
0000
,  // measure 4
0000
0000
0000
0000
0000
1000
0001
0000
,  // measure 5
1000
0000
0100
0010
0100
0000
1000
0000
0020
0000
0000
0000
0130
0000
0001
1000
,  // measure 6
0010
0000
1000
0000
0001
0000
1000
0000
0100
0000
0010
0001
0020
0000
0000
0000
,  // measure 7
0031
0000
0100
0010
0100
0000
0001
0000
0020
0000
0000
0000
0130
0000
1000
0001
,  // measure 8
0010
0100
0010
0100
1000
0001
1001
0000
,  // measure 9
0001
0000
1000
0010
1000
0000
0100
0000
0010
0000
0001
0000
1000
0000
0010
0100
,  // measure 10
0010
1000
0001
1000
0001
0000
0100
0000
0010
0000
1000
0010
2000
0000
0000
0000
,  // measure 11
3001
0000
0100
0010
0100
0000
0001
0000
0010
0000
0100
0000
1000
0000
0100
0010
,  // measure 12
0001
1000
0010
1000
0100
0010
0001
0000
,  // measure 13
1010
0000
0000
0000
0000
0000
0000
0000
0001
0000
0000
0000
1000
0000
0100
0010
,  // measure 14
0100
0000
1000
0000
0001
0000
1000
0000
0010
0000
0100
0001
1000
0000
0000
0000
,  // measure 15
0011
0000
0000
0000
0000
0000
0000
0000
1000
0000
0000
0000
0001
0000
0010
0100
,  // measure 16
0010
0000
0001
0000
1000
0000
0001
0000
0100
0000
0000
0000
0010
1000
0010
0000
,  // measure 17
0100
0000
0000
0000
0002
0000
0000
0000
1003
0000
0000
0000
0200
0000
0310
0001
,  // measure 18
0010
0000
0100
0000
2000
0000
3000
0000
0010
0000
1000
0001
1000
0000
0000
0000
,  // measure 19
1200
0000
0000
0000
0310
0000
0001
0000
2000
0000
0000
0000
3010
0000
0100
0001
,  // measure 20
0100
0000
0000
0000
0000
0000
0010
0000
0000
0000
0000
0000
1000
0000
0000
0000
0000
0000
0100
0000
0000
0000
0000
0000
0010
0000
0000
0000
0001
0000
0000
0000
1000
0000
0000
0000
0010
0000
0000
0100
0000
0000
0010
0000
0000
0000
0000
0000
,  // measure 21
1010
0000
0000
0000
0000
0000
0001
0000
0100
0000
0001
0000
1000
0000
0100
0000
1000
0000
0001
0000
0000
0000
0100
0010
,  // measure 22
0100
0000
0000
0000
0001
0000
1000
0000
0010
0000
1000
0000
0001
0000
0010
0000
0001
0000
1000
0000
0000
0000
0010
0100
,  // measure 23
0010
0000
0000
0000
0000
0000
0000
0000
0000
0000
0000
0000
1000
0000
0000
0000
0100
0000
0000
0000
0010
0000
0000
0000
0001
0000
0000
0000
0010
0000
0000
0000
0100
0000
0000
0000
1000
0000
0000
0000
0000
0000
0001
0000
0000
0100
0000
0000
,  // measure 24
0001
0000
0000
0000
0000
0000
1000
0000
0000
0000
0000
0000
0001
0000
0000
0000
0010
0000
0000
0000
0100
0000
0000
0000
1000
0000
0000
0000
0100
0000
0000
0000
0010
0000
0000
0000
0001
0000
0000
1000
0000
0000
0010
0000
0000
0100
0000
0000
,  // measure 25
0001
0000
1000
0000
1000
0000
0010
0000
0100
0000
0001
0000
0001
0000
1000
0010
,  // measure 26
1000
0000
0001
0000
0010
0000
0100
0000
1000
0000
0001
0010
0001
0000
0000
0000
,  // measure 27
0101
0100
0010
1000
0001
1000
0010
0100
,  // measure 28
0002
0000
0000
0000
,  // measure 29
0013
0100
0010
0100
0010
0100
0010
0100
,  // measure 30
1000
0100
1000
0100
1000
0100
1000
0100
,  // measure 31
1000
0001
1000
0001
1000
0001
1000
0001
,  // measure 32
0100
0001
0100
0001
0100
0001
1000
1000
,  // measure 33
0001
0010
0001
0010
0001
0010
0001
0010
,  // measure 34
0001
1000
0001
1000
0001
1000
0001
1000
,  // measure 35
0010
1000
0010
1000
0010
1000
0010
1000
,  // measure 36
0010
0000
0000
0100
0000
0000
0010
0000
0000
0100
0000
0000
0010
1000
0010
1000
0010
1000
0001
0010
0001
0010
0001
0010
,  // measure 37
0100
1000
0010
0100
0001
0100
0010
1000
,  // measure 38
0100
1000
0010
0100
0001
0100
0010
1000
,  // measure 39
0100
0010
0001
1000
0010
1000
0001
0010
,  // measure 40
0100
0010
0001
1000
0010
1000
0001
0001
,  // measure 41
1010
1000
0100
0110
1001
0010
0100
1100
,  // measure 42
0011
0000
0001
0000
0100
0000
1010
0000
0101
0000
1000
0000
0010
0100
0010
0100
,  // measure 43
0001
0000
0010
0000
0001
0000
0010
0000
0000
0000
0000
0000
0100
0000
1000
0000
0100
0000
1000
0000
0000
0000
0000
0000
0001
0000
0000
0100
0000
0000
1000
0000
0000
0100
0000
0000
0001
0000
1000
0000
0001
0000
1000
0000
0001
0000
1000
0000
,  // measure 44
0010
0000
0100
0000
0001
0000
1000
0000
0010
0100
0000
0000
0001
1000
0000
0000
,  // measure 45
1001
0000
0100
0010
0100
0000
1000
0000
0020
0000
0000
0000
0130
0000
0001
1000
,  // measure 46
0010
0000
1000
0000
0001
0000
1000
0000
0100
0000
0010
0001
0020
0000
0030
0000
,  // measure 47
1001
0000
0010
0000
0100
0000
1000
0000
0020
0000
0000
0000
0130
0000
0001
1000
,  // measure 48
0010
0000
1000
0000
0001
0000
0010
0000
0001
1000
0000
0000
0010
0100
0000
0000
,  // measure 49
1001
0000
1000
0010
1000
0000
0100
0000
0010
0000
0001
0000
1000
0000
0010
0100
,  // measure 50
0010
1000
0001
1000
0001
0000
0100
0000
0010
0000
1000
0100
2000
0000
0000
0000
,  // measure 51
3001
0000
0100
0010
0100
0000
0001
0000
0010
0000
0100
0000
1000
0000
0001
0100
,  // measure 52
0010
1000
0010
1000
0200
0000
0310
0000
;
