#TITLE:Bug Thief (Full Song);
#SUBTITLE:;
#ARTIST:IGLOOGHOST;
#TITLETRANSLIT:;
#SUBTITLETRANSLIT:;
#ARTISTTRANSLIT:;
#GENRE:;
#CREDIT:;
#BANNER:Bug Thief.png;
#BACKGROUND:Bug Thief-bg.png;
#LYRICSPATH:;
#CDTITLE:;
#MUSIC:Bug Thief.ogg;
#OFFSET:-0.039999;
#SAMPLESTART:41.067810;
#SAMPLELENGTH:10.279999;
#SELECTABLE:YES;
#BPMS:0.000000=187.000000
;
#STOPS:
;
#BGCHANGES:;
#KEYSOUNDS:;
#ATTACKS:;

//---------------dance-single - ----------------
#NOTES:
     dance-single:
     :
     Easy:
     7:
     0.409127,0.463439,0.055171,0.255794,0.000000,571.000000,560.000000,11.000000,51.000000,0.000000,0.000000,0.409127,0.463439,0.055171,0.255794,0.000000,571.000000,560.000000,11.000000,51.000000,0.000000,0.000000:
// measure 0
0000
0000
0000
0000
,  // measure 1
0000
0000
0000
0000
,  // measure 2
0000
0000
0000
0000
,  // measure 3
0000
0000
0000
0000
,  // measure 4
0010
0000
0000
0000
,  // measure 5
0000
0000
1000
0000
0000
0100
0000
0000
,  // measure 6
0010
0000
0001
0000
,  // measure 7
1000
0000
0001
0000
,  // measure 8
0100
0000
0010
1000
,  // measure 9
0001
0001
0010
0100
,  // measure 10
1000
0000
0010
0000
0100
0000
0002
1000
,  // measure 11
0000
0010
0000
0013
,  // measure 12
0001
0100
1000
0100
,  // measure 13
0010
0010
1000
1000
,  // measure 14
0001
0010
0100
1000
,  // measure 15
0010
0000
0010
0000
0100
0001
0100
0000
,  // measure 16
0210
0000
0300
0001
0000
0000
0001
0000
,  // measure 17
0000
0000
1000
0000
0000
1000
0000
1000
,  // measure 18
0200
0000
0300
1000
0000
0000
1000
0000
,  // measure 19
0000
0000
0001
0000
0000
0001
0000
0001
,  // measure 20
0200
0310
1000
0100
,  // measure 21
0001
0100
1000
0001
,  // measure 22
1000
0000
0010
0000
0100
0001
0000
0000
,  // measure 23
0001
0100
0000
0000
0010
1000
0000
0000
,  // measure 24
0120
0000
0030
1000
0000
0000
1000
0000
,  // measure 25
0000
0000
0001
0000
0000
0001
0000
0001
,  // measure 26
0020
0000
0030
0001
0000
0000
0001
0000
,  // measure 27
0000
0000
1000
0000
0000
1000
0000
1000
,  // measure 28
0010
0100
0001
0100
,  // measure 29
0010
1000
0100
0010
,  // measure 30
0001
1000
0001
0000
0100
0000
0010
1000
,  // measure 31
0010
0000
0000
0010
0000
0000
0100
0001
,  // measure 32
1000
0000
0000
0010
0000
0000
1010
0000
,  // measure 33
0001
0000
0000
0010
0000
0000
0011
0000
,  // measure 34
1000
0100
0001
0100
,  // measure 35
1000
0010
0001
0010
,  // measure 36
0100
0001
0000
0100
0001
0000
0010
0000
,  // measure 37
0100
0000
1000
0001
1000
0000
0010
0000
,  // measure 38
0100
0001
0010
0001
,  // measure 39
1000
0010
0100
0001
,  // measure 40
1000
0000
0000
0100
0000
0000
1100
0000
,  // measure 41
0000
0000
0101
0000
1010
0000
0000
1000
,  // measure 42
0001
0000
0000
0100
0000
0000
0101
0000
,  // measure 43
0010
1000
0001
1000
,  // measure 44
0100
0000
0000
0010
0000
0000
0011
0000
,  // measure 45
0001
0000
1000
0000
0010
0100
0000
0001
,  // measure 46
0100
0010
1000
0001
,  // measure 47
1000
0100
0010
0001
,  // measure 48
1000
0010
1000
0010
,  // measure 49
0200
0000
0301
0000
1000
0010
1000
0000
,  // measure 50
0100
0010
0001
1000
,  // measure 51
0001
0010
0100
1000
,  // measure 52
0001
0100
0000
0001
0100
0000
0010
0000
,  // measure 53
1000
0000
0001
0010
0001
0000
1000
0100
,  // measure 54
1000
0010
0100
0001
,  // measure 55
0010
0000
0100
1000
0001
0000
0001
0000
,  // measure 56
2000
0000
0000
0000
0000
0000
3001
0100
,  // measure 57
0010
0000
0000
0100
0000
0100
0001
1000
,  // measure 58
0100
0000
0000
0100
0000
0000
0011
0000
,  // measure 59
1000
0000
0000
0001
0000
0001
0010
0000
,  // measure 60
0001
1000
0010
0001
,  // measure 61
1000
0100
0001
0010
,  // measure 62
0200
1300
0020
1030
,  // measure 63
0001
0000
0010
0100
0000
0010
0100
0000
,  // measure 64
1000
0000
1000
0100
0010
0000
0010
0000
,  // measure 65
0002
0000
0000
0103
0000
0000
0010
0000
,  // measure 66
1000
0000
0001
0100
0010
0000
0010
0000
,  // measure 67
2000
0000
0000
3001
0000
0000
0010
0000
,  // measure 68
0001
0100
1000
0100
,  // measure 69
0001
0000
0001
2000
0000
0000
3010
0000
,  // measure 70
1000
0100
0001
0100
,  // measure 71
1000
0000
1000
0002
0000
0000
0103
0000
,  // measure 72
0010
1000
0100
0010
,  // measure 73
0001
0010
0100
1000
,  // measure 74
0001
0100
0001
0000
0010
0000
0010
0000
,  // measure 75
0100
1000
0100
0000
0010
0000
0010
0000
,  // measure 76
0002
0000
0000
0203
0000
0000
0310
0000
,  // measure 77
1000
0000
0001
0000
1000
0000
0000
1000
,  // measure 78
0100
0010
0001
0010
,  // measure 79
0100
0000
0000
0100
0000
0000
0100
0000
,  // measure 80
1000
0000
0001
0000
0010
0100
0010
0000
,  // measure 81
0001
0000
1000
0000
0001
0100
0001
0000
,  // measure 82
1000
0100
0010
0100
,  // measure 83
1000
0000
0001
0100
0000
0001
0100
0000
,  // measure 84
0010
0000
0000
0010
1000
0000
0002
0000
,  // measure 85
0000
0000
1003
0100
0010
0000
0001
0000
,  // measure 86
0200
0000
0310
1000
0010
0000
0200
0000
,  // measure 87
0301
1000
0001
0000
0020
0000
0130
0000
,  // measure 88
1000
1000
0010
0010
,  // measure 89
0001
0001
0010
0010
,  // measure 90
0100
0001
0100
0000
0010
0000
1000
0000
,  // measure 91
0001
0010
0001
0000
1000
0000
0100
0000
,  // measure 92
0020
0000
0000
0032
0000
0000
0103
0000
,  // measure 93
0010
1000
0001
1000
,  // measure 94
0100
0000
0100
0010
0100
0000
0100
0000
,  // measure 95
1000
0001
1000
0000
1000
0000
0001
0100
,  // measure 96
0002
0003
0000
0000
,  // measure 97
0000
0000
0000
0000
,  // measure 98
0001
0000
1000
0100
0010
0000
0010
0000
,  // measure 99
0002
0000
0000
1003
0000
0000
0010
0000
,  // measure 100
1000
0000
0001
0100
0010
0000
0010
0000
,  // measure 101
2000
0000
0000
3001
0000
0000
0010
0000
,  // measure 102
0001
0100
1000
0100
,  // measure 103
0001
0000
0001
2000
0000
0000
3010
0000
,  // measure 104
0001
0000
1000
0100
0010
0000
0010
0000
,  // measure 105
0002
0000
0000
1003
0000
0000
0010
0000
,  // measure 106
1000
0000
0001
0100
0010
0000
0010
0000
,  // measure 107
2000
0000
0000
3001
0000
0000
0010
0000
,  // measure 108
0001
0100
1000
0100
,  // measure 109
0001
0000
0001
2000
0000
0000
3010
0000
,  // measure 110
1000
0100
0001
0100
,  // measure 111
1000
0000
1000
0002
0000
0000
0103
0000
,  // measure 112
0010
1000
0100
0010
,  // measure 113
0001
0010
0100
1000
,  // measure 114
0001
0100
0001
0000
0010
0000
0010
0000
,  // measure 115
0100
1000
0100
0000
0010
0000
0010
0000
,  // measure 116
0002
0000
0000
0203
0000
0000
0310
0000
,  // measure 117
1000
0000
0001
0000
1000
0000
0000
1000
,  // measure 118
0100
0010
0001
0010
,  // measure 119
0100
0000
1000
0001
0000
0001
1000
0000
,  // measure 120
0020
0000
0000
0000
,  // measure 121
0000
0000
0000
0000
,  // measure 122
2030
0000
0000
3002
0000
0000
0000
0000
,  // measure 123
0000
0000
0000
0000
0000
0023
0000
0000
,  // measure 124
0230
0000
0000
2300
,  // measure 125
0000
3200
0000
0000
,  // measure 126
0310
0001
1000
0010
,  // measure 127
0100
0010
1000
0001
,  // measure 128
0021
0000
0230
0000
,  // measure 129
2300
0000
3020
0000
,  // measure 130
0230
0000
0302
0000
,  // measure 131
2003
0000
3200
0000
,  // measure 132
0310
0001
0010
0001
,  // measure 133
1000
0000
0010
0000
1000
0000
0010
0100
,  // measure 134
0010
0000
0000
0000
1000
0010
0000
0000
,  // measure 135
0010
0100
0000
0000
0100
0001
0000
0000
,  // measure 136
0001
0010
1000
0010
,  // measure 137
0001
0100
0010
1000
,  // measure 138
0100
0010
0100
0000
1000
0000
0001
0000
,  // measure 139
0100
0010
0100
0000
0001
0000
1000
0000
,  // measure 140
0000
0001
0010
0001
,  // measure 141
0100
0010
1000
1000
,  // measure 142
0100
0010
0001
1000
,  // measure 143
0010
0000
0010
0100
0000
0001
0100
0000
,  // measure 144
0020
0000
0030
1000
,  // measure 145
0100
1000
0001
0100
,  // measure 146
0010
1000
0010
0001
,  // measure 147
0010
0000
0100
0001
0000
0100
0001
0000
,  // measure 148
2000
3100
0010
0001
,  // measure 149
0200
0301
0010
0100
,  // measure 150
1000
0001
0100
1000
,  // measure 151
0100
0000
0001
0000
0010
0000
0100
1000
,  // measure 152
0200
0000
0000
0000
,  // measure 153
0000
0000
0000
0000
,  // measure 154
0300
0000
0000
0000
;

//---------------dance-single - ----------------
#NOTES:
     dance-single:
     :
     Medium:
     12:
     0.638411,0.695158,0.075234,0.662056,0.022570,891.000000,876.000000,15.000000,132.000000,0.000000,0.000000,0.638411,0.695158,0.075234,0.662056,0.022570,891.000000,876.000000,15.000000,132.000000,0.000000,0.000000:
0000
0000
0000
0000
,
0000
0000
0000
0000
,
0000
0000
0000
0000
,
0000
0000
0000
0000
,
0010
0000
0000
0000
,
0000
0000
0100
0000
0000
0001
0000
0000
,
0020
0031
0000
0000
2000
3010
0000
0000
,
0200
0301
0000
0000
2000
3100
0000
0000
,
0011
0000
2000
0000
0000
0000
3001
0100
,
0010
0000
0010
0000
0100
0001
1000
0000
,
0001
0100
0020
0000
1030
0100
0010
0002
,
0000
0100
0000
1003
,
0001
0100
0020
0000
1000
0000
0130
0001
,
0010
0000
0010
0000
0100
1000
0100
0000
,
1000
0010
0100
0000
0001
0000
1000
0100
,
0010
0000
0010
0000
0100
1000
0001
0100
,
0020
0000
0030
1000
0000
0001
0010
0000
,
0100
0000
0010
0000
0001
0000
1000
0010
,
0200
0000
0300
0010
1000
0001
0100
0000
,
0010
0000
1000
0100
0000
1000
0001
0001
,
0200
0000
0310
1000
0001
1000
0100
0000
,
0010
0000
0001
0000
1000
0010
0000
1000
,
0200
0000
0320
0000
0032
0103
0000
0000
,
0200
0301
0000
0000
0020
0130
1000
0001
,
0200
0000
0000
0310
0000
1000
0010
0000
,
0100
0000
0001
0000
1000
0001
0000
0001
,
0020
0000
0000
0130
0000
0100
1000
0000
,
0001
0000
0100
0000
0001
0010
0100
1000
,
1000
0001
0010
0001
0100
0010
0100
0001
,
1000
0100
1000
0010
0100
0010
1000
0001
,
0010
0100
1000
0000
1000
0000
0010
0100
,
0010
0000
0100
0001
0000
0100
0001
0010
,
0200
0000
1300
0100
0000
0010
0001
0010
,
0200
0000
1300
0100
0000
0010
0001
1000
,
1000
0001
0100
0001
0010
0001
0100
0010
,
1000
0100
1000
0001
1000
0010
0100
0001
,
2000
3100
0000
0002
0103
0000
2000
3010
,
0000
0001
0010
0001
0100
0000
1000
0100
,
2000
3200
0320
0032
,
1003
0010
1000
0100
1000
0001
0010
0100
,
2000
0000
0000
0001
0000
0000
3020
0000
,
0100
0030
0101
0000
1010
0000
1000
0001
,
0102
0000
1003
0100
0000
0010
0001
0010
,
0100
1000
0010
1000
0001
0100
0001
0000
,
1010
0000
0010
0100
0000
0100
0001
0000
,
1000
0100
0001
0100
1000
0010
1000
0001
,
1000
0000
0001
0100
0001
1000
0100
0100
,
2000
0000
3020
0000
0130
0001
1000
0001
,
0100
0010
1000
0100
0010
0001
1000
0001
,
0020
0000
0130
1000
0001
1000
0010
0100
,
0001
0100
1000
0100
0001
1000
0001
0000
,
1000
0100
0001
0100
1000
0001
1000
0000
,
0002
0013
0000
0200
1300
0000
0020
1030
,
0000
0001
0100
0010
2000
3000
0010
1000
,
0200
0320
0032
2003
,
3001
0010
0001
0010
0100
1000
0010
0100
,
0002
0000
0000
0000
0003
0000
1000
0100
,
0020
0000
0000
0031
0000
1000
0010
0100
,
0001
0010
0001
1000
0001
0100
0010
1000
,
0100
1000
0001
1000
0010
1000
0001
0100
,
0001
0000
1000
0100
0000
0100
0010
0000
,
0001
0100
1000
0100
0001
1000
0010
0100
,
0002
0203
2300
3200
,
0301
0010
0001
0100
0010
1000
0100
1000
,
0020
0000
0130
0001
1000
0001
0010
0100
,
2000
0000
3001
0020
0000
0031
0100
0001
,
1000
0010
0100
0001
1000
0001
0100
0010
,
1000
0100
0001
0100
1000
0001
0010
0001
,
0200
0000
0310
1000
0100
1000
0001
0010
,
0002
0000
1003
0020
0000
1030
0100
1000
,
0001
0100
1000
0100
0001
0000
0011
0000
,
1000
0100
0010
0000
0010
0100
0100
1000
,
0001
0100
0010
1000
0001
0100
0010
1000
,
0001
1000
0100
0010
0001
1000
0100
0010
,
0001
1000
0010
1000
0100
0010
0001
0010
,
0100
1000
0010
0100
0001
0010
0100
1000
,
0200
0000
0000
2300
0000
0000
3010
0000
,
0100
0001
1000
0000
0100
1000
0001
0100
,
0002
1000
0023
0001
,
0130
0000
1000
0100
0000
1000
0100
1000
,
0001
0000
0011
0000
1000
0100
0010
0100
,
1000
0000
1010
0000
0001
0100
0010
0100
,
0001
1000
0001
0100
0001
0010
0001
1000
,
0010
1000
0001
1000
0100
0010
0001
0100
,
0002
0000
1003
0100
0010
0000
0102
0000
,
0013
0000
0000
0000
0100
0000
1000
0000
0010
0000
0000
0100
0000
0000
0010
0000
,
2000
0000
3010
0010
0200
0000
0302
0000
,
0013
0100
1000
0000
0002
0000
0103
0001
,
1000
0000
0000
1000
0100
0000
0010
0000
0001
0000
0000
0001
0100
0000
0010
0000
,
1000
0000
0000
1000
0100
0000
0010
0000
0001
0000
0000
0001
0100
0000
0010
0000
,
1000
0100
0010
0100
1000
0001
0100
0001
,
1000
0000
0010
0000
0100
0000
0001
0000
0010
0000
0100
1000
0100
0000
0010
0000
,
0002
0000
1003
0010
0100
0000
0201
0000
,
0310
0000
1000
0100
0010
0100
0000
1000
,
0002
0003
0100
0010
2000
0000
3200
0000
,
0310
0001
0020
0000
0230
0000
1300
0001
,
0200
0000
0310
1000
0001
0010
0001
0010
,
0002
0000
1003
0200
0000
0000
0000
1300
,
0001
0000
0100
0001
0100
0000
1010
0000
,
0100
0000
1001
0000
0010
0100
0100
1000
,
0001
0000
0100
0001
0100
0000
1010
0000
,
0100
0000
1001
0000
1000
0100
0000
0001
,
0200
0000
0310
0001
2000
0000
3010
0000
,
0100
0001
1000
0000
0100
0010
0010
0100
,
2000
0000
3010
0100
0001
0010
0001
0010
,
0002
0000
1003
0200
0000
0000
1300
0001
,
1000
0000
0000
0010
0000
0000
0100
0000
0001
0000
1000
0000
0100
0000
0100
0000
,
2000
0000
3010
0200
0000
0310
1000
0001
,
0020
0000
0130
0100
1000
0010
1000
0010
,
2000
0000
3001
0020
0000
0031
0100
0001
,
1000
0000
0000
0010
0000
0000
0100
0000
0001
0000
1000
0000
0100
0000
0100
0000
,
2000
0000
3010
0200
0000
0310
1000
0001
,
0020
0000
0031
1000
0100
1000
0001
1000
,
0020
0000
0130
0002
0000
0013
0001
1000
,
0001
0100
0001
1000
0001
0010
0100
1000
,
0001
1000
0010
1000
0100
0010
0001
0100
,
0002
0013
0000
0200
1300
0000
0020
1030
,
0000
0001
0100
0010
1000
0001
1000
0100
,
0020
0000
0032
0000
0203
0000
0310
1000
,
0001
1000
0020
0000
0130
0001
0000
1000
,
0020
0000
0000
0000
,
0000
0000
0000
0000
,
0130
0001
1000
0100
0010
0001
1000
0010
,
1000
0100
0001
0100
1000
0010
0100
0001
,
2000
0000
0100
0000
,
3010
0000
1000
0010
0100
0000
0100
0001
,
0020
0230
2300
3002
,
2003
3200
0320
0031
,
2100
0000
3002
0000
,
0203
0000
0010
0000
0000
0010
0000
0310
,
2000
0000
3002
0000
,
0023
0000
0100
0000
0000
0100
0000
0130
,
1000
0000
1000
0010
0000
0010
0100
0000
,
0001
0000
1000
0000
0001
0000
0010
0001
,
0200
0000
0301
1000
0020
0000
0130
0001
,
2000
0000
3001
0010
0002
0000
1003
0100
,
0010
0001
0010
0100
1000
0100
0020
0000
,
0031
0100
0001
1000
0010
0100
0001
0100
,
0010
1000
0001
0010
0100
1000
0001
0100
,
0010
0100
0001
1000
0100
0010
0001
1000
,
0000
0000
0001
1000
0001
0000
0010
0000
0001
0000
0100
0000
0002
0000
0000
0000
,
1003
0010
0100
0001
0100
0010
1000
0100
,
2000
3200
0320
0032
,
2003
0000
3010
0200
0000
0301
2000
0000
,
3002
0000
0000
1000
0000
0013
0100
1000
,
0001
1000
0100
0010
0001
0100
0010
1000
,
0002
0203
0320
2030
,
3002
0000
1003
0010
0000
0100
0001
0001
,
1000
0000
0100
0010
0100
1000
0001
0100
,
0001
0010
0001
0100
0010
1000
0100
1000
,
0020
0000
0130
0001
1000
0001
0010
0100
,
1000
0100
0010
0002
0000
1003
0010
0100
,
0002
0000
0000
0000
,
0000
0000
0000
0000
,
0003
0000
0000
0000
;

//---------------dance-single - ----------------
#NOTES:
     dance-single:
     :
     Hard:
     17:
     0.941495,1.274457,0.290903,0.396230,0.601869,1314.000000,1256.000000,58.000000,79.000000,0.000000,0.000000,0.941495,1.274457,0.290903,0.396230,0.601869,1314.000000,1256.000000,58.000000,79.000000,0.000000,0.000000:
0000
0000
0000
0000
,
0000
0000
0000
0000
,
0000
0000
0000
0000
,
0000
0000
0000
0000
,
1010
0000
0000
0000
,
0000
0000
0100
0000
0000
0001
0000
0000
,
1000
0000
0010
0000
0000
0000
0000
0000
0100
0000
0001
0000
1000
0100
1000
0100
,
0010
0000
0001
0000
0100
0000
0010
1000
0001
1000
0100
0000
0010
0000
0001
0000
,
0200
0000
0000
0000
0301
0010
0100
1000
,
0010
0000
0020
0000
0130
0001
1000
0000
,
0101
0100
0010
0000
1000
0100
0010
0002
,
0000
0000
0000
0000
0100
0000
0000
0000
1003
0000
0100
0000
0010
0000
0001
0100
,
0002
0000
0000
0000
1003
0010
1000
0100
,
0010
0000
0020
0000
0031
0100
1000
0000
,
0101
0001
1000
0000
0100
0000
1000
0100
,
0010
0000
0010
0000
0001
0100
1000
0100
,
0202
0000
0303
0010
0000
1000
0100
0000
,
0010
0000
0001
0000
0100
0000
0010
1000
,
2200
0000
3300
0010
0001
0100
0010
0000
,
1000
0000
0001
0010
0000
0001
0100
0010
,
1020
0000
0130
0001
0010
0100
1000
0000
,
0010
0000
1000
0000
0001
0010
0001
0100
,
0201
0000
0320
0000
1030
0001
2000
0000
,
3100
0010
0002
0000
0103
0010
1000
0100
,
1200
0000
0310
0001
0100
0010
1000
0000
,
0010
0000
1010
0000
0001
0100
0010
0100
,
0102
0000
0013
0100
1000
0010
0100
0000
,
0001
0000
0011
0000
0010
0100
1000
0010
,
0110
1000
0100
1000
0001
0010
0100
0010
,
0001
0100
1000
0100
0001
0010
0100
1000
,
1010
0010
0100
0000
0001
0000
0100
0010
,
2000
0000
3001
0020
0000
0031
1000
0010
,
0101
0000
0001
1000
0100
1000
0010
1000
,
1100
0000
1000
0001
0100
0001
0010
0001
,
0101
0010
1000
0001
1000
0100
1000
0010
,
0100
0001
0001
0100
1000
1000
0100
0001
,
1000
1000
0001
0101
0001
1000
0100
0010
,
0011
0000
0001
1000
0001
0000
0100
0000
0001
1000
0001
0000
0010
0000
0100
1000
,
0001
0100
1000
0100
0010
0100
0001
1000
,
0001
0000
0010
0000
0100
0000
1000
0000
0100
0000
0010
0001
1000
0001
0100
0010
,
2000
0000
0000
0000
3001
0100
0002
0000
0000
0000
1003
0100
2000
0000
0000
0000
,
3010
0100
0001
0100
0002
0000
0003
0000
0021
0000
0000
0000
0130
0000
1000
0000
,
2100
0000
3000
0000
0001
0010
0002
0000
0003
0000
1000
0010
2000
0000
3001
0100
,
0002
0000
1003
0100
2000
0000
3001
0010
0002
0000
1003
0010
2000
0000
3001
0000
,
0011
0001
1000
1010
1000
0001
0010
0100
,
1100
0000
1000
0001
1000
0000
0010
0000
1000
0001
1000
0000
0010
0000
0100
0001
,
1000
0000
0100
0010
0001
1000
0200
0000
2300
0000
3020
0000
0230
0000
0302
0000
,
0013
0100
0100
1000
0100
0100
0010
0001
,
0011
0000
0001
1000
0001
0000
0100
0000
0001
1000
0001
0000
0010
0000
0100
0000
,
1000
0000
0000
1000
0001
0000
0100
0000
0010
0000
0100
0000
0001
0010
0001
0000
,
1000
0010
0100
0001
0100
1000
0100
0010
,
1000
0000
0001
0010
0001
0000
0100
0000
0010
0000
1000
0000
0100
0000
0010
0000
,
0012
0000
0000
0000
1003
0100
2000
0000
0000
0000
3001
0100
0002
0000
0003
0000
,
1100
0000
1000
0100
1000
0000
0001
0000
0100
0010
0100
0000
0001
0000
1000
0000
,
1100
0100
0010
0100
0001
0100
0010
0100
,
1000
0000
0010
0000
1000
0000
0100
0000
0001
0000
0100
0010
0001
1000
0001
1000
,
0010
0100
0001
0100
0010
1000
0001
1000
0100
0010
0001
0100
0001
0010
0100
1000
,
0001
1000
0010
1000
0001
0100
0010
0100
0001
1000
0100
1000
0001
0010
0100
1000
,
0010
0000
0100
0001
0100
0000
0010
0000
1000
0100
1000
0000
0001
0000
0100
0000
,
0110
0000
0010
1000
0010
0000
0100
0000
0001
0000
0010
0000
0100
0000
1000
0000
,
1100
0000
1000
0001
0100
0001
0100
0010
1000
0100
1000
0001
0100
0010
1000
0001
,
1000
0010
0100
0001
0100
0000
0001
0000
1000
0100
1000
0000
0010
0000
1000
0000
,
0001
0100
1000
0100
0001
0100
0010
1000
,
0010
1000
0001
1000
0100
0010
0001
0010
0100
1000
0001
1000
0010
0100
0001
0100
,
0010
0000
1000
1100
0001
0100
0010
0100
,
0001
0000
0100
0002
0000
1000
0000
0013
,
0110
0000
1000
0100
1000
0000
0010
0000
0100
0000
0001
0000
0010
0000
0001
0000
,
1000
0000
0001
0100
0001
0000
1000
0000
0010
0000
0100
0000
0001
0000
1000
0000
,
1100
0000
0001
0100
0001
0010
0100
1000
,
0002
0000
0103
0020
0000
1000
0000
0130
,
0101
0000
1000
0100
1000
0000
0001
0000
0010
0000
0001
0000
1000
0000
0010
0000
,
0100
1001
0100
0000
1001
0100
0100
1000
,
0010
1000
0001
0100
0010
1000
0010
0100
,
0001
0010
0001
0010
0100
1000
0100
1000
0001
0100
0010
1000
0010
0100
0001
0100
,
0010
0000
1000
0100
1000
0000
0001
0000
0100
0000
0010
0000
0100
0000
0001
0000
,
1000
0100
1000
0100
0010
0001
0010
0001
1000
0010
1000
0001
0100
0001
0010
0100
,
1000
0000
0100
0000
0010
0001
0010
0000
0100
0000
1000
0000
0001
0000
0100
0000
,
0001
0000
1000
0000
0010
0100
0001
1000
,
1100
0010
0001
0100
0010
0100
0001
1000
,
1200
0000
0000
0310
0000
0000
0001
0000
0100
0000
0001
0000
0010
0000
0100
0000
,
1000
0010
1000
0010
0100
0001
0100
0001
1000
0100
0010
0100
1000
0000
0001
1000
,
0010
0100
0010
0100
0001
0000
1000
0100
1000
0000
0001
0010
0001
0000
1000
0000
,
0001
0000
0100
0010
1000
0010
0100
0001
1000
0100
0010
0100
1000
0001
0010
0001
,
1000
0010
1000
0001
0100
0001
1000
0010
1000
0001
0100
0010
1000
0010
0100
0001
,
1000
0000
0001
0010
0100
0010
0001
0000
1000
0100
0010
0100
1000
0000
0001
1000
,
0001
0100
0010
0100
0001
1000
0010
1000
0001
0100
0010
1000
0001
0010
0100
1000
,
0002
0003
0100
0010
1020
0030
1000
0000
,
0011
0001
1000
0100
0020
0000
0130
1000
,
0011
0000
0000
0010
0001
0000
1000
0000
1010
0000
0000
0010
0100
0000
0001
0000
,
0101
0000
0000
0001
1000
0000
0100
0000
1100
0000
0000
1000
0001
0000
0100
0000
,
0001
0000
1000
0100
1000
0001
0100
0001
1000
0100
1000
0001
0010
0000
0001
0000
,
1000
0010
0000
1000
0010
0000
0100
0000
0001
0000
1000
0100
1000
0000
0010
0000
,
1000
0000
0001
0010
0001
0100
0001
0000
0010
0100
1000
0100
1000
0000
0001
1000
,
0001
0100
0010
0100
0001
1000
0001
0010
0100
1000
0100
0010
0001
1000
0001
0100
,
0010
0000
1000
0001
0101
0000
0101
0000
,
0001
0000
1000
0000
1100
0000
0100
0010
0100
0000
1000
0001
1000
0000
0010
0000
,
2000
0000
3100
0001
0100
1000
0010
1000
,
0002
0000
1003
0201
0000
0000
0000
0310
,
1010
0000
0000
0010
1000
0000
0001
0000
1000
0000
0100
0000
0001
0000
0100
0000
,
1000
0000
0001
0020
0000
0031
0001
1000
,
1200
0000
0310
0001
0100
0010
1000
0010
,
0100
0000
0001
0200
0000
0310
1000
0001
,
0011
0000
1000
0100
1000
0000
0010
0000
0100
0000
0001
0000
0010
0000
0001
0000
,
0100
0010
0100
0001
0010
0100
0100
1000
,
0102
0000
0013
0100
1000
0010
0001
0010
,
1000
0000
1000
0200
0000
0310
0001
1000
,
1010
0000
0001
0100
0001
0000
0010
0000
0100
0000
1000
0000
0001
0000
1000
0000
,
0020
0000
0130
0002
0000
1003
1000
0010
,
0101
0000
0001
0100
0001
0010
1000
0010
,
0002
0000
1003
0200
0000
0310
0100
1000
,
1010
0000
0100
0001
0100
0000
0010
0000
1000
0000
0001
0000
0010
0000
0001
0000
,
0100
1010
0100
0000
1001
0100
0000
0011
,
0100
0010
0001
1000
0010
1000
0100
1000
,
0020
0000
0130
0002
0000
1003
0100
0010
,
0100
1000
0001
1000
0100
0010
0001
1000
0010
0000
0100
0000
0001
0000
1000
0000
,
0100
0000
0010
0000
0001
1000
0010
1000
0001
0000
0010
0000
0001
0010
0100
1000
,
0200
0310
0001
0200
1300
0100
0002
0013
,
0100
1000
1000
1000
0010
0100
0100
0001
,
0100
0001
0100
0001
1000
0100
1000
0100
0010
0000
0001
0000
1000
0000
0001
0000
,
0100
0010
1000
0010
0100
0001
1000
0001
0010
0100
1000
0001
1000
0100
0010
0001
,
0010
0001
1000
0100
0010
0001
1000
0100
,
0010
1000
0001
0100
1000
0010
0001
0010
,
0100
0001
0100
0001
1000
0100
1000
0100
0010
0001
0010
0001
1000
0010
1000
0010
,
0100
0001
1000
0001
0010
0100
1000
0100
1000
0001
0100
0010
1000
0010
0100
0001
,
1000
0100
1000
0100
0001
0100
0001
0100
,
1000
0001
1000
0010
0200
0000
0301
1000
,
0010
0100
0010
0100
0001
1000
0001
1000
0001
0010
0001
0010
0100
1000
0100
1000
,
0001
0100
0010
1000
0001
1000
0100
0010
0001
1000
0100
1000
0001
0100
0001
0010
,
0200
0000
0000
1000
0000
0000
1000
0000
,
0000
0000
0010
0000
0000
0010
0000
0310
,
0002
0000
0000
0203
0000
0000
0320
0000
,
0000
0000
1000
0000
0000
1030
0001
0100
,
0020
0000
0030
1000
0000
0010
0100
0000
,
0001
0000
1000
0000
0001
0000
0010
0001
,
0201
0000
0300
0010
1000
0001
0000
0010
,
0001
0000
1000
0000
0010
0000
0100
0001
0100
0001
0100
0000
0010
0000
1000
0000
,
1000
0000
0001
0010
0001
0000
1000
0000
0010
0000
0100
0000
0002
0000
0000
0000
,
0000
1003
0100
1000
0010
0100
0001
0100
,
0010
0000
1000
0001
1000
0000
0010
0000
0100
0000
0010
0000
1000
0000
0100
0000
,
0010
0100
1000
0001
0100
0010
1000
0002
,
0000
0000
1003
0100
1000
0000
0001
0000
0010
0000
0100
0000
2000
0000
0000
0000
,
3001
0010
0001
0100
0010
0100
0001
1000
,
0002
0000
0103
0010
1000
0100
0020
0000
,
0032
0000
0000
0000
0000
0000
0013
0000
0000
0200
0000
0000
0000
0000
0000
1300
0000
0000
0001
0000
0010
0000
0100
0000
,
1000
0001
0100
0020
0000
1030
0010
1000
,
0001
0010
0100
1000
0100
0010
0001
1000
,
1000
0100
0001
0100
1000
0010
0001
0010
,
1000
0100
0010
0001
0100
0010
1000
0001
,
2000
0000
3100
0010
0100
1000
0001
0100
,
0001
0010
0001
0100
0010
1000
0100
1000
,
0010
0000
0100
0000
0001
1000
0001
1000
0010
0100
0010
0100
0001
0010
0001
0010
,
0100
1000
0001
1000
0010
0100
0001
0100
0010
1000
0001
1000
0100
0010
0001
1000
,
0002
0000
0000
0000
,
0000
0000
0000
0000
,
0003
0000
0000
0000
;

//---------------dance-single - ----------------
#NOTES:
     dance-single:
     :
     Beginner:
     3:
     0.154050,0.193100,0.000000,0.055171,0.000000,215.000000,215.000000,0.000000,11.000000,0.000000,0.000000,0.154050,0.193100,0.000000,0.055171,0.000000,215.000000,215.000000,0.000000,11.000000,0.000000,0.000000:
// measure 0
0000
0000
0000
0000
,  // measure 1
0000
0000
0000
0000
,  // measure 2
0000
0000
0000
0000
,  // measure 3
0000
0000
0000
0000
,  // measure 4
0001
0000
0000
0000
,  // measure 5
0000
0000
0000
0000
,  // measure 6
0010
0000
0010
0000
,  // measure 7
0100
0000
0100
0000
,  // measure 8
2000
0000
0000
0000
,  // measure 9
3010
0000
0000
0000
,  // measure 10
1000
0000
0000
0000
,  // measure 11
0100
0000
0000
0000
,  // measure 12
1000
0000
1000
0000
,  // measure 13
0001
0000
0001
0000
,  // measure 14
0010
0000
0100
0000
,  // measure 15
1000
0000
0001
0000
,  // measure 16
1000
0000
0000
0000
,  // measure 17
0010
0000
0000
0000
,  // measure 18
1000
0000
0000
0000
,  // measure 19
0001
0000
0000
0000
,  // measure 20
1000
0000
1000
0000
,  // measure 21
0001
0000
0001
0000
,  // measure 22
0010
0000
0100
0000
,  // measure 23
1000
0000
1000
0000
,  // measure 24
0001
0000
0000
0000
,  // measure 25
0010
0000
0000
0000
,  // measure 26
0001
0000
0000
0000
,  // measure 27
1000
0000
0000
0000
,  // measure 28
0001
0000
0001
0000
,  // measure 29
0100
0000
0100
0000
,  // measure 30
0001
0000
1000
0000
,  // measure 31
0100
0000
0000
0000
,  // measure 32
1000
0000
0000
0000
,  // measure 33
0010
0000
0000
0000
,  // measure 34
1000
0000
0010
0000
,  // measure 35
1000
0000
0001
0000
,  // measure 36
0010
0000
0000
0000
,  // measure 37
0100
0000
0000
0000
,  // measure 38
0010
0000
0010
0000
,  // measure 39
0001
0000
1000
0000
,  // measure 40
0001
0000
0000
0000
,  // measure 41
0000
0000
0000
0000
,  // measure 42
1000
0000
0000
0000
,  // measure 43
0100
0000
0100
0000
,  // measure 44
1000
0000
0000
0000
,  // measure 45
0010
0000
0000
0000
,  // measure 46
1000
0000
0010
0000
,  // measure 47
1000
0000
0001
0000
,  // measure 48
0010
0000
0000
0000
,  // measure 49
0010
0000
0000
0000
,  // measure 50
0001
0000
0001
0000
,  // measure 51
1000
0000
1000
0000
,  // measure 52
0010
0000
0000
0000
,  // measure 53
1000
0000
0001
0000
,  // measure 54
1000
0000
0100
0000
,  // measure 55
0010
0000
0001
0000
,  // measure 56
1000
0000
0000
0000
,  // measure 57
0001
0000
0000
0000
,  // measure 58
1000
0000
0000
0000
,  // measure 59
0010
0000
0010
0000
,  // measure 60
1000
0000
0000
0000
,  // measure 61
0100
0000
0000
0000
,  // measure 62
0010
0000
0010
0000
,  // measure 63
0001
0000
1000
0000
,  // measure 64
0001
0000
0100
0000
,  // measure 65
0001
0000
0000
0000
,  // measure 66
1000
0000
0100
0000
,  // measure 67
1000
0000
0000
0000
,  // measure 68
0010
0000
0010
0000
,  // measure 69
0010
0000
0000
0000
,  // measure 70
0100
0000
0100
0000
,  // measure 71
0100
0000
0000
0000
,  // measure 72
0001
0000
0000
0000
,  // measure 73
0010
0000
0000
0000
,  // measure 74
0100
0000
0000
0000
,  // measure 75
1000
0000
0000
0000
,  // measure 76
0001
0000
0100
0000
,  // measure 77
0001
0000
0000
0000
,  // measure 78
0010
0000
0010
0000
,  // measure 79
0100
0000
0100
0000
,  // measure 80
1000
0000
1000
0000
,  // measure 81
0010
0000
0000
0000
,  // measure 82
0001
0000
0001
0000
,  // measure 83
0010
0000
0000
0000
,  // measure 84
1000
0000
0100
0000
,  // measure 85
1000
0000
1000
0000
,  // measure 86
0001
0000
0000
0000
,  // measure 87
0100
0000
0000
0000
,  // measure 88
0001
0000
0001
0000
,  // measure 89
0010
0000
0010
0000
,  // measure 90
0001
0000
1000
0000
,  // measure 91
0001
0000
0000
0000
,  // measure 92
0100
0000
0000
0000
,  // measure 93
0010
0000
0000
0000
,  // measure 94
1000
0000
0001
0000
,  // measure 95
1000
0000
1000
0000
,  // measure 96
0100
0000
0000
0000
,  // measure 97
0000
0000
0000
0000
,  // measure 98
2000
3000
0000
0000
,  // measure 99
0001
0000
0010
0000
,  // measure 100
2000
3000
0000
0000
,  // measure 101
0000
0000
0000
0000
,  // measure 102
0001
0000
0010
0000
,  // measure 103
0001
0000
1000
0000
,  // measure 104
0001
0000
0000
0000
,  // measure 105
0100
0000
0010
0000
,  // measure 106
0100
0000
0000
0000
,  // measure 107
0001
0000
0010
0000
,  // measure 108
0002
0003
0000
0000
,  // measure 109
1000
0000
0010
0000
,  // measure 110
0001
0000
0010
0000
,  // measure 111
1000
0000
0001
0000
,  // measure 112
1000
0000
0000
0000
,  // measure 113
0100
0000
0000
0000
,  // measure 114
1000
0000
0010
0000
,  // measure 115
1000
0000
0010
0000
,  // measure 116
1000
0000
1000
0000
,  // measure 117
0001
0000
0001
0000
,  // measure 118
0010
0000
0001
0000
,  // measure 119
1000
0000
0001
0000
,  // measure 120
0200
0000
0000
0000
,  // measure 121
0300
0000
0000
0000
,  // measure 122
0020
0000
0000
0000
,  // measure 123
0030
0000
0000
0000
,  // measure 124
2000
0000
0000
0001
,  // measure 125
0000
3001
0000
0000
,  // measure 126
0010
0000
0000
0000
,  // measure 127
0100
0000
1000
0000
,  // measure 128
0001
0000
0001
0000
,  // measure 129
1000
0000
1000
0000
,  // measure 130
0010
0000
0010
0000
,  // measure 131
0100
0000
0100
0000
,  // measure 132
0002
0000
1003
0000
,  // measure 133
2000
0000
3001
0000
,  // measure 134
0002
0000
1003
0000
,  // measure 135
1000
0000
0000
0000
,  // measure 136
0001
0000
0000
0000
,  // measure 137
0100
0000
0000
0000
,  // measure 138
0010
0000
0000
0000
,  // measure 139
1000
0000
0000
0000
,  // measure 140
0001
0000
0000
0000
,  // measure 141
0010
0000
0000
0000
,  // measure 142
0100
0000
0000
0000
,  // measure 143
1000
0000
0000
0000
,  // measure 144
0001
0000
0000
0000
,  // measure 145
0100
0000
0100
0000
,  // measure 146
0001
0000
0001
0000
,  // measure 147
1000
0000
0001
0000
,  // measure 148
1000
0000
0000
0000
,  // measure 149
0100
0000
0000
0000
,  // measure 150
0010
0000
0010
0000
,  // measure 151
0001
0000
0001
0000
,  // measure 152
2000
0000
0000
0000
,  // measure 153
0000
0000
0000
0000
,  // measure 154
3000
0000
0000
0000
;
