#TITLE:BREAK OVER;
#SUBTITLE:;
#ARTIST:MASAYOSHI IIMORI;
#TITLETRANSLIT:;
#SUBTITLETRANSLIT:;
#ARTISTTRANSLIT:;
#GENRE:FESTIVAL SOUND;
#CREDIT:;
#BANNER:BREAK OVER.png;
#BACKGROUND:BREAK OVER-bg.png;
#LYRICSPATH:;
#CDTITLE:;
#MUSIC:BREAK OVER.ogg;
#OFFSET:0.680000;
#SAMPLESTART:13.720023;
#SAMPLELENGTH:12.800009;
#SELECTABLE:YES;
#BPMS:0.000000=150.000000
,164.000000=106.000000
;
#STOPS:
;
#BGCHANGES:4.000=BREAK OVER.avi=1.000=0=0=1=====,
99999=-nosongbg-=1.000=0=0=0 // don't automatically add -songbackground-
;
#KEYSOUNDS:;
#ATTACKS:;

//---------------dance-single - ----------------
#NOTES:
     dance-single:
     :
     Challenge:
     15:
     0.698141,0.851987,0.320336,0.186242,0.815740,656.000000,613.000000,43.000000,25.000000,0.000000,0.000000,0.698141,0.851987,0.320336,0.186242,0.815740,656.000000,613.000000,43.000000,25.000000,0.000000,0.000000:
0000
0000
0000
0000
,
0000
0000
0000
0000
,
0000
0000
0000
0000
,
0000
0000
0000
0000
,
0000
0000
0000
0000
,
1000
0100
0001
0100
1000
0100
0001
0100
,
1000
0010
0001
0010
1000
0010
0001
0010
,
1000
0100
1000
0100
0001
0100
0001
0100
1000
0001
0010
0001
1000
0010
0100
0001
,
0020
0000
0000
0000
0031
0000
1000
0010
2000
0000
0000
0000
3010
0000
0000
0000
,
0110
0000
0000
0000
0100
0001
1000
0000
0020
0000
0000
0000
1030
0000
0001
0010
,
0100
0000
1000
0010
0100
0000
0001
0010
0001
0100
0010
1000
0001
0100
0010
1000
,
0001
0010
0001
0010
0100
0000
1000
0000
1020
0000
0030
0000
0100
0000
0010
1000
,
0001
0010
0100
1000
0001
0010
0100
1000
0001
0100
0010
1000
0010
0000
0000
0000
,
0101
0000
0000
0000
1000
0100
1000
0100
0010
0100
0010
0100
1000
0100
0010
0001
,
2000
0000
0000
0000
3010
0100
0010
0100
0001
0100
0001
0100
0010
1000
0001
0010
,
0200
0000
0000
0000
1300
0100
1000
0100
0001
0100
0001
0100
0010
0001
1000
0100
,
0020
0030
0002
0003
0200
0300
2000
3000
,
0110
0000
0000
0000
0001
1000
0001
0000
0020
0000
0000
0000
0130
0000
0010
0001
,
0100
0000
0001
0100
1000
0100
0001
1000
0001
0010
0100
1000
0010
0100
0000
0000
,
1000
0010
1000
0010
0100
0000
0001
0000
1000
0000
0001
0010
0100
0000
1000
0010
,
0100
0001
0100
0000
0100
0001
0100
0000
0001
0000
0100
0001
0100
0000
0010
0000
,
1001
0000
0000
0000
0010
0001
0100
0000
0000
0000
0010
1000
0100
0000
0010
0000
,
1100
0000
0000
0000
0010
0001
0100
0000
0000
0000
0010
1000
0100
0000
0010
0000
,
0001
0100
0001
0100
0010
1000
0010
1000
0001
0010
0001
0010
0100
1000
0010
0100
,
0001
0000
0000
0000
0000
0000
0000
0000
0010
0000
0000
0000
0000
0000
0000
0000
0100
0000
0000
0000
0000
0000
0000
0000
1000
0100
1000
0000
0001
0000
0100
0000
,
0001
0000
0000
0000
0010
0001
0100
0000
1000
0000
0100
0001
0100
0000
0100
0000
,
0010
0000
0000
1000
0000
0000
0001
0000
0000
0000
0000
0000
0010
0000
0000
0001
0000
0000
1000
0000
0000
0000
0000
0000
1000
0000
0000
0000
0000
0000
0010
0000
0100
0000
0010
0000
0100
0000
0000
0000
0000
0000
0001
0000
0000
0000
0000
0000
,
1000
0100
0010
0001
0020
0000
0230
0000
1300
0001
1000
0000
0001
0100
1000
0000
,
1000
0000
0000
0000
0000
0000
0100
0000
0000
0001
0000
0000
0010
0000
0000
0000
0000
0000
0010
0000
0000
0000
0000
0000
0100
0000
1000
0000
0100
0000
1000
0000
0000
0000
0000
0000
0010
0000
0000
0000
0000
0000
0100
0000
0000
0000
0000
0000
,
0001
0000
0000
0001
0000
0000
0001
0000
0000
0000
0000
0000
0010
0000
0000
0001
0010
0100
1000
0000
0000
0200
0000
0000
,
0000
0000
0000
0301
0000
0000
0100
0000
0000
1000
0100
0010
0001
0000
0000
0100
0000
0000
0110
0000
0000
0000
0000
0000
,
1010
0000
0000
0000
0000
0000
1000
0000
0000
0100
0000
0000
0010
0000
0000
0001
0100
0001
0100
0000
0000
0020
0000
0000
,
0000
0000
0000
0130
0000
0000
0010
0000
0000
1000
0100
1000
0100
0000
0000
0010
0000
0000
0011
0000
0000
0000
0000
0000
,
1001
0000
0000
0000
0000
0000
0000
0000
0001
0000
0100
0001
0010
0000
0010
0000
,
0100
1000
0010
0000
0100
0001
0010
0000
0010
0001
0100
0010
1000
0000
0010
0000
,
0202
0000
0000
0000
0303
0000
0000
0000
0010
0000
1000
0000
0001
0100
1000
0000
,
1000
0000
0100
0001
0010
0000
0010
0000
0100
1000
0001
1000
0010
0100
0010
0100
,
0001
0000
0000
0000
0000
0000
0001
0000
0000
0000
0000
0000
1000
0000
0000
0001
0010
0100
1000
0000
0000
0020
0000
0000
,
0000
0000
0000
0000
0000
0000
1030
0000
0000
0000
0000
0000
0001
0000
0000
0000
0000
0000
1000
0000
0100
0000
0010
0000
0001
0000
0000
0000
0000
0000
0100
0000
0000
0000
0000
0000
0101
0000
0000
0000
0000
0000
0100
0000
0000
0001
0000
0000
,
1000
0000
0000
0000
0000
0000
0100
0000
0000
0010
0000
0000
0001
0000
0000
0000
0000
0000
1000
0000
0000
0000
0000
0000
0001
0000
0000
0000
0000
0000
0100
0000
0010
0000
0100
0000
0010
0000
0000
0000
0000
0000
1000
0000
0000
0000
0000
0000
,
0001
0010
0100
1000
0001
0100
0001
0100
0010
1000
0010
1000
0000
0000
0000
0000
,
0101
0000
0000
0000
,
0000
0000
0000
0000
,
0000
0000
0000
0000
,
0000
0000
0000
0000
,
0000
0000
0000
0000
,
0000
0000
0000
0000
,
1000
0100
0001
0100
,
1000
0100
0010
0100
0001
0100
0010
0100
,
1000
0000
0010
1000
0000
0010
1000
0000
0101
0000
0010
1000
0000
0010
1000
0001
,
0101
0000
0000
0000
0001
0000
0010
0000
0000
0000
0001
0000
0010
0000
0000
0000
1100
0000
0000
0000
0001
0000
0010
0000
0000
0000
0001
0000
0010
0000
0100
1000
,
0100
0000
0001
0000
0101
0000
1000
0000
0100
1000
0100
1000
0100
0010
0001
0100
,
0010
0000
0010
0000
0010
0000
0010
0000
0010
0000
2000
0000
3001
0100
1000
0100
,
0101
0000
0000
1100
0000
0000
0101
0000
0001
0100
1000
0000
1000
0100
0001
0000
,
0001
0010
1000
0000
1000
0010
0001
1000
0001
0100
1000
0100
0001
0000
1100
0000
,
0101
0000
0000
1001
0000
0000
1100
0000
0010
0001
0100
0000
0010
1000
0100
0000
,
0010
0001
0100
1000
0100
0001
0010
0001
2000
0100
3002
0100
2003
0100
3002
0100
,
1003
0000
0010
0100
0001
0000
1000
0001
1000
0100
0010
0000
0001
0100
0010
0000
,
1000
0000
0010
1000
0100
0000
1000
0001
1000
0000
0010
0000
0100
0100
0001
0001
,
1000
0000
0100
1000
0010
0000
0001
0010
1000
0010
0100
0000
0001
0010
0100
0000
,
1000
0100
0001
0100
1000
0100
0001
0100
1000
0000
1010
0000
0101
0000
0010
0000
,
0101
0000
0000
0000
0000
0000
0000
0000
0000
1100
0000
0000
0000
0000
0000
0000
0000
0000
0101
0000
0000
0000
0000
0000
0000
0000
0000
1100
0000
0000
0000
0000
0000
0000
0000
0000
1010
0000
0000
0000
0100
0000
0000
0000
0001
0000
0000
0000
,
0010
0000
0000
1100
0000
0000
0101
0000
0000
1100
0000
0000
1001
0001
0000
0000
,
1100
0000
0000
1000
0000
0000
0000
0000
0000
0101
0000
0000
0000
0000
0000
0000
0000
0000
1100
0000
0000
0000
0000
0000
0000
0000
0000
0101
0000
0000
0000
0000
0000
0000
0000
0000
0011
0000
0000
0000
0100
0000
0000
0000
1000
0000
0000
0000
,
0010
0000
0000
0101
0000
0000
1100
0000
0000
0101
0000
0000
2000
0000
0000
0000
,
3001
0100
0010
0010
0100
0001
0001
1000
0100
0100
1000
0001
0001
0100
0010
1000
,
0100
1000
0001
0001
1000
0010
0010
1000
0001
0001
1000
0100
0100
1000
0010
0100
,
0001
0010
0100
1000
0010
0100
0001
0010
0100
1000
0010
0100
0001
1000
0100
1000
,
0001
0100
0010
1000
0100
0010
0001
1000
0001
0100
1000
0100
0001
0100
1000
0100
,
0010
0010
1000
0000
0200
0300
0000
0000
0000
0000
0000
0000
0000
0000
0000
0000
;

//---------------dance-single - ----------------
#NOTES:
     dance-single:
     :
     Medium:
     9:
     0.435274,0.593809,0.260739,0.134094,0.074497,409.000000,374.000000,35.000000,18.000000,0.000000,0.000000,0.435274,0.593809,0.260739,0.134094,0.074497,409.000000,374.000000,35.000000,18.000000,0.000000,0.000000:
0000
0000
0000
0000
,
0000
0000
0000
0000
,
0000
0000
0000
0000
,
0000
0000
0000
0000
,
0000
0000
0000
0000
,
0001
0000
1000
0000
0001
1000
0001
1000
,
0010
0000
0100
0000
0010
0100
0010
0100
,
0001
0010
0001
0000
1000
0010
1000
0000
,
0001
0100
0010
1000
0002
0000
0013
0000
,
0011
0000
0001
1000
0010
0000
0010
1000
,
0001
1000
0100
1000
0001
0010
0001
0010
,
0200
0000
1300
0010
0001
0000
0010
0100
,
0001
0010
0001
0010
0100
1000
0010
0000
,
0100
0001
1000
1100
0000
1000
0001
1000
,
0010
0000
0100
0001
0000
0001
1000
0100
,
0020
0000
0031
0100
0000
1000
0010
1000
,
0100
0100
0010
0001
,
1100
0000
0100
1000
0010
0000
0100
0001
,
0100
0010
0100
0010
1000
0100
0010
0000
,
0001
0001
1000
0100
1000
0010
0001
0010
,
0100
0000
0001
0000
0010
0010
0100
0100
,
1000
0000
0010
1000
0000
0001
0100
0001
,
0010
0000
0001
0010
0000
0001
1000
0100
,
1000
0001
0100
0001
1000
0010
0100
0001
,
1000
0100
0010
0001
,
0100
0000
0101
0000
0010
1000
0001
1000
,
0100
0010
0100
0010
0001
1000
0010
0010
,
0200
0000
0302
0000
1003
0100
0010
0100
,
1000
0010
1000
0010
0100
0001
0010
0010
,
0001
1000
0001
0000
0101
0000
0001
0010
,
0000
0010
1000
0010
0001
1000
0001
0000
,
0101
0000
1000
0100
0010
0001
1000
0010
,
0000
0010
0001
0010
1000
0001
1000
0000
,
2100
0000
0000
0000
3100
0010
0100
0100
,
1000
0010
1000
0001
0001
0010
1000
0010
,
0002
0000
0000
0000
1003
0010
0100
0100
,
0010
1000
0010
0100
0001
0010
0001
0001
,
1000
0000
1000
0000
0010
0100
0001
2000
,
0000
3010
0100
0001
1000
0010
0200
0000
,
0301
1000
0001
0010
0100
1000
0001
0020
,
0000
0130
1000
0001
0010
0100
0000
0000
,
1000
0000
0000
0000
,
0000
0000
0000
0000
,
0000
0000
0000
0000
,
0000
0000
0000
0000
,
0000
0000
0000
0000
,
0000
0000
0000
0000
,
0000
0000
0000
0000
,
0000
0000
0000
0000
,
2010
0000
0000
0001
0000
0000
0100
0000
0100
0000
0000
0001
0000
0000
3010
0000
,
0200
0000
0000
0010
0000
0000
0001
0000
0001
0000
0000
0010
0000
0000
1300
0000
,
0100
0000
0001
0000
0100
0000
0001
0000
1000
0000
0100
0000
1000
0000
0001
0100
,
0002
0000
0000
0000
0000
0013
0100
0100
,
1100
0000
0000
1100
0000
0000
1100
0000
1000
0000
0000
0001
0000
0000
1010
0000
,
0101
0000
0000
0101
0000
0000
0101
0000
0001
0000
0000
1000
0000
0000
0110
0000
,
1010
0000
0000
1001
0000
0000
0101
0000
0001
0000
0000
0010
0000
0000
1100
0000
,
0011
0000
0000
1001
0000
0000
1100
0000
1000
0000
0010
0000
1000
0000
0010
0000
,
0100
0001
0010
0001
1000
0100
0001
0010
,
0000
0010
0001
0100
1000
0001
0100
0100
,
0001
0010
1000
0100
1000
0010
0001
0100
,
0010
0010
0010
0010
0020
1000
0200
0330
,
0101
0000
0001
0010
1100
1000
0101
0001
,
1100
1000
0101
0001
1000
0100
0001
0100
,
0010
0001
0000
0010
0001
0000
1000
0000
0101
0000
0001
0000
1100
0000
1000
0000
,
0101
0001
1100
1000
0010
0100
0001
0000
,
2100
0000
0000
0001
0000
0000
0010
0000
0000
0001
0000
0000
3100
0000
0010
0000
,
0002
0000
0000
1000
0000
0000
0010
0000
0000
1000
0000
0000
0103
0000
0010
0000
,
1000
0000
0100
0000
0001
0000
0100
0000
1000
0100
1000
0000
0001
0000
0110
0000
,
0001
0000
0100
0000
1000
0000
0100
0000
0001
0100
0001
0000
1000
0000
0110
0000
,
1000
0000
0001
0000
0200
0300
0000
0000
0000
0000
0000
0000
0000
0000
0000
0000
;

//---------------dance-single - ----------------
#NOTES:
     dance-single:
     :
     Easy:
     5:
     0.270317,0.335329,0.037248,0.148994,0.014899,254.000000,249.000000,5.000000,20.000000,0.000000,0.000000,0.270317,0.335329,0.037248,0.148994,0.014899,254.000000,249.000000,5.000000,20.000000,0.000000,0.000000:
0000
0000
0000
0000
,
0000
0000
0000
0000
,
0000
0000
0000
0000
,
0000
0000
0000
0000
,
0000
0000
0000
0000
,
1000
0100
0010
0100
,
0001
0100
0010
0100
,
1000
1000
0001
0001
,
0101
0000
0010
0010
,
2010
3100
0010
0001
,
1000
0100
1000
0100
,
0010
0000
0001
0100
,
0010
0010
1000
0001
,
1000
0000
0100
0010
0000
0100
0010
0000
,
0001
0000
0100
0010
0000
0100
0010
0000
,
1000
0000
0100
0010
0000
0100
0010
0000
,
0001
0001
0100
0010
,
2010
3100
0010
0001
,
0100
0100
0001
1000
,
0001
0001
0010
0100
,
1000
1000
0001
0100
,
0001
0000
0000
0010
0000
0000
0001
0000
,
1000
0000
0000
0010
0000
0000
1000
0000
,
0100
0000
0000
0010
0000
0000
0100
0000
,
1000
1000
0010
0100
,
0101
0000
0010
0001
,
1000
0100
0001
0100
,
2000
3000
0010
1000
,
0001
0100
1000
0100
,
0001
0000
0000
0000
0010
0000
0001
0001
,
0000
1000
1000
0000
0020
0000
0130
0000
,
0001
0000
1000
0000
0001
0000
0010
0010
,
0000
0100
0100
0000
2000
0000
3001
0000
,
1000
0000
0001
0100
,
0001
0100
0010
1000
,
1100
0000
1000
0100
,
1000
0100
0010
0001
,
1000
0000
1000
0000
0010
0000
0100
0001
,
0000
0100
0001
0000
0010
0000
0010
0000
,
0001
0000
0100
0000
0010
0000
1000
0100
,
0000
1000
0100
0000
0010
0000
0000
0000
,
0001
0000
0000
0000
,
0000
0000
0000
0000
,
0000
0000
0000
0000
,
0000
0000
0000
0000
,
0000
0000
0000
0000
,
0000
0000
0000
0000
,
0000
0000
0000
0000
,
0000
0000
0000
0000
,
0001
0000
0000
0001
0000
0000
0010
0000
0001
0000
0000
0001
0000
0000
0010
0000
,
0100
0000
0000
0100
0000
0000
1000
0000
0100
0000
0000
0100
0000
0000
1000
0000
,
0010
0100
0010
0000
0010
0100
0010
0000
,
1000
0000
0000
0000
0000
0000
0001
0001
,
1000
0100
0020
0032
,
0023
0000
0032
0000
0023
0032
1003
1000
,
0001
0100
0020
2030
,
3020
0000
2030
0000
3001
0010
0001
0010
,
0100
0000
0100
0000
0100
1000
0100
0010
,
0100
0000
0100
0000
0010
0001
0020
0000
,
0031
0000
0100
0000
0001
1000
0001
0000
,
0010
0010
0010
0100
0020
0000
0031
0000
,
1000
0000
0010
0000
1000
1000
0020
0000
,
0130
0001
1000
0000
0001
1000
0002
0000
,
1003
0000
0010
0000
1000
1000
0010
0000
,
0100
0001
1000
0000
0100
0010
0200
0000
,
1300
0000
1000
0000
1000
0000
1000
0001
,
0100
0000
0100
0000
0100
0000
0100
0010
,
0001
0000
0001
0000
0001
0000
0001
1000
,
0010
0000
0010
0000
0010
0000
0010
0001
,
0100
0010
1000
0000
0000
0000
0000
0000
;

//---------------dance-single - ----------------
#NOTES:
     dance-single:
     :
     Beginner:
     3:
     0.170278,0.232151,0.000000,0.014899,0.000000,160.000000,160.000000,0.000000,2.000000,0.000000,0.000000,0.170278,0.232151,0.000000,0.014899,0.000000,160.000000,160.000000,0.000000,2.000000,0.000000,0.000000:
// measure 0
0000
0000
0000
0000
,  // measure 1
0000
0000
0000
0000
,  // measure 2
0000
0000
0000
0000
,  // measure 3
0000
0000
0000
0000
,  // measure 4
0000
0000
0000
0000
,  // measure 5
1000
0000
1000
0000
,  // measure 6
0001
0000
0001
0000
,  // measure 7
1000
0000
0001
0000
,  // measure 8
1000
0000
0000
0000
,  // measure 9
0100
0100
0100
0010
,  // measure 10
0100
0100
0100
0000
,  // measure 11
0100
0100
0100
0010
,  // measure 12
0100
0100
0100
0000
,  // measure 13
1000
0000
0001
0000
,  // measure 14
0020
0030
0001
0000
,  // measure 15
2000
3000
0010
0000
,  // measure 16
1000
0000
0000
0000
,  // measure 17
0100
0100
0100
0000
,  // measure 18
1000
0000
0001
0000
,  // measure 19
0100
0100
0100
0000
,  // measure 20
0010
0000
0010
0000
,  // measure 21
1000
0000
0000
1000
,  // measure 22
0001
0000
0000
0001
,  // measure 23
1000
0000
0100
0000
,  // measure 24
0010
0000
0000
0001
,  // measure 25
0100
0000
0010
0100
,  // measure 26
0000
0100
0010
0100
,  // measure 27
0100
0000
0001
0100
,  // measure 28
0000
0100
0010
0100
,  // measure 29
0000
0000
1000
0001
,  // measure 30
0000
0001
0010
0100
,  // measure 31
1000
0000
0001
1000
,  // measure 32
0000
1000
0100
0010
,  // measure 33
0000
0000
0001
0001
,  // measure 34
0100
0100
0010
0010
,  // measure 35
1000
0000
0001
0001
,  // measure 36
0010
0010
0001
1000
,  // measure 37
0000
0000
0010
0100
,  // measure 38
0000
0100
0010
0100
,  // measure 39
0001
0000
0010
0100
,  // measure 40
0000
0100
0010
0000
,  // measure 41
1000
0000
0000
0000
,  // measure 42
0000
0000
0000
0000
,  // measure 43
0000
0000
0000
0000
,  // measure 44
0000
0000
0000
0000
,  // measure 45
0000
0000
0000
0000
,  // measure 46
0000
0000
0000
0000
,  // measure 47
0000
0000
0000
0000
,  // measure 48
0000
0000
0000
0000
,  // measure 49
0010
0010
0010
0010
,  // measure 50
1000
1000
1000
1000
,  // measure 51
0100
0010
0100
0010
,  // measure 52
0001
0000
0000
0010
,  // measure 53
0001
0000
1000
1000
,  // measure 54
1000
1000
0010
0100
,  // measure 55
0000
0000
0001
0001
,  // measure 56
0001
0001
0010
0010
,  // measure 57
0001
1000
0001
0000
,  // measure 58
1000
0100
1000
0000
,  // measure 59
0001
1000
0001
0000
,  // measure 60
1000
0010
0100
0000
,  // measure 61
0001
0001
0001
0000
,  // measure 62
0010
0000
0100
0000
,  // measure 63
1000
1000
1000
0000
,  // measure 64
0010
0000
0100
0000
,  // measure 65
0001
1000
0001
1000
,  // measure 66
0001
1000
0001
1000
,  // measure 67
0010
0100
0010
0100
,  // measure 68
0001
0010
0100
1000
,  // measure 69
0010
0100
0000
0000
;

//---------------dance-single - ----------------
#NOTES:
     dance-single:
     :
     Hard:
     12:
     0.500193,0.591132,0.089396,0.260739,0.327786,470.000000,458.000000,12.000000,35.000000,0.000000,0.000000,0.500193,0.591132,0.089396,0.260739,0.327786,470.000000,458.000000,12.000000,35.000000,0.000000,0.000000:
0000
0000
0000
0000
,
0000
0000
0000
0000
,
0000
0000
0000
0000
,
0000
0000
0000
0000
,
0000
0000
0000
0000
,
0001
0100
0001
0100
0010
1000
0100
1000
,
0010
0100
0010
0100
0001
0010
0100
0010
,
0001
0000
0001
0000
1000
0000
1000
0000
0010
0100
0010
0100
0001
1000
0001
1000
,
0100
0100
0100
0010
,
2001
0000
0000
0000
3001
0100
0001
0000
0020
0000
0000
0000
0130
0000
1000
0001
,
1000
0010
0100
0010
1000
0010
0100
0001
,
0010
0100
0010
0100
1000
0000
0010
0000
0200
0000
0000
0000
0301
0000
1000
0100
,
1000
0010
0100
0010
1000
0010
0110
0000
,
0102
0000
1000
1000
0000
0010
0013
0100
,
2100
0000
0001
0001
0000
0010
3010
0100
,
0002
0000
1000
1000
0000
0010
0013
0100
,
1000
1000
0010
0001
,
2001
0000
0000
0000
3001
0100
0001
0000
0020
0000
0000
0000
0130
0000
1000
0001
,
1000
0000
0010
0000
0100
0000
0010
0000
1000
0000
0010
0000
0100
0001
0000
0000
,
0010
0100
0010
0100
1000
0000
0010
0000
0100
0000
0001
0000
0010
0000
0001
0000
,
0100
0010
0100
0000
0010
0100
0010
0000
1000
0000
0100
0010
0100
0000
1000
0000
,
0002
0000
1000
1000
0000
0010
0013
0100
,
2100
0000
0001
0001
0000
0010
3010
0100
,
0002
0000
1000
1000
0000
0010
0013
0100
,
1000
1000
0010
0001
,
2100
0000
0000
0000
3001
0100
0001
0000
0010
0000
0100
0000
1000
0000
1000
0000
,
0010
0100
0010
0000
1000
0000
0001
0000
0010
0000
0001
0000
0100
0000
0100
0000
,
0020
0000
0000
0000
2030
0000
0000
0000
3001
0010
0001
0000
0100
0010
0100
0000
,
0001
1000
0100
1000
0010
0100
0001
0001
,
0010
0010
0010
0000
0100
1000
0010
0200
,
0000
0000
0301
0000
0010
0000
0100
1000
0100
0000
0010
0000
0002
0000
0000
0000
,
0103
0000
0000
0000
0010
0000
1000
0000
0100
0000
0010
0001
0010
0000
0200
0000
,
0000
0000
1300
0000
0010
0000
0100
0001
0100
0000
0010
0000
2000
0000
0000
0000
,
3100
0000
0000
0000
0000
0000
0000
0000
0010
0000
0001
1000
0001
0000
0100
0000
,
0010
1000
0010
0000
0100
0001
0100
0000
0010
0000
1000
0000
0100
0000
0100
0000
,
0020
0000
0000
0000
0001
0000
0000
0000
0130
0000
1000
0000
0001
0100
0001
0000
,
1000
0000
0001
0010
0001
0000
0100
0000
0010
0000
1000
0000
0001
0000
0001
0000
,
0010
0000
0010
0000
0100
1000
0010
0200
,
0000
0000
0301
0000
0010
0000
0100
1000
0100
0000
0010
0000
0002
0000
0000
0000
,
0103
0000
0000
0000
0010
0000
1000
0000
0001
0000
1000
0100
1000
0000
0002
0000
,
0000
0000
0103
0000
0010
0000
1000
0100
1000
0000
0010
0000
0000
0000
0000
0000
,
0101
0000
0000
0000
,
0000
0000
0000
0000
,
0000
0000
0000
0000
,
0000
0000
0000
0000
,
0000
0000
0000
0000
,
0000
0000
0000
0000
,
0000
0000
0000
0000
,
0000
0000
0000
0000
,
2010
0000
0000
0001
0000
0000
3100
0000
0012
0000
0000
1000
0000
0000
0103
0001
,
0200
0000
0000
0010
0000
0000
0301
0000
0200
0000
0000
1000
0000
0000
0310
0000
,
1000
0000
0100
0000
0010
0000
0001
0000
1000
0100
1000
0100
0010
0001
0010
0001
,
0100
0000
0100
0000
0100
0000
0100
0000
0100
0000
0010
0000
1000
0001
1000
0001
,
0200
0000
0000
0000
0301
0000
0010
0000
0100
1000
0100
0000
0010
0001
0010
0000
,
0100
1000
0100
0000
0010
0001
0010
0000
0100
0000
1000
0000
0010
0000
0100
0000
,
0102
0000
0000
1000
0000
0000
0013
0000
0100
1000
0100
0000
0010
0001
0010
0000
,
0100
1000
0100
0000
0010
0001
0010
0000
0002
0000
2003
0000
3002
0000
2003
0000
,
3010
0000
1000
0100
1000
0000
0010
0000
0100
0001
0100
0000
0010
0000
0200
0000
,
0000
0000
0301
1000
0001
0000
0010
0001
0010
0000
0100
0000
1000
0001
1000
0001
,
0000
0000
1000
0010
1000
0000
0001
0010
0001
0000
0100
0000
1000
0000
0100
0000
,
0010
0010
0010
0010
2020
0000
3030
0000
,
0010
0000
0000
0010
1000
0000
0100
0000
0010
0001
0010
0000
0001
0010
0001
0000
,
0010
0001
0010
0000
0001
0010
0001
0000
0010
0000
0100
0000
1000
0000
0010
0000
,
0100
0001
0000
0001
1000
0000
0100
0000
0010
0001
0010
0000
0001
0010
0001
0000
,
0010
0001
0010
0000
0001
0010
0001
0000
1000
0000
1000
0010
0100
0000
0000
0000
,
0001
0000
0001
0100
0000
0100
0010
0000
0010
0100
0000
0100
0001
0000
1000
0000
,
0001
0000
0001
0010
0000
0010
0100
0000
0100
0010
0000
0010
0001
0000
1000
0000
,
0010
0000
0010
0100
0000
0100
0001
0000
0001
0010
0000
0010
0100
0000
1000
0000
,
0100
0000
0100
0010
0000
0010
0001
0000
0001
0100
0000
0100
0010
0000
1000
0000
,
0100
0000
0000
0000
;
