#TITLE:2 tribe 4 K;
#SUBTITLE:;
#ARTIST:Remo-con;
#TITLETRANSLIT:;
#SUBTITLETRANSLIT:;
#ARTISTTRANSLIT:;
#GENRE:;
#CREDIT:;
#BANNER:2 tribe 4 K.png;
#BACKGROUND:2 tribe 4 K-bg.png;
#LYRICSPATH:;
#CDTITLE:;
#MUSIC:2 tribe 4 K.ogg;
#OFFSET:-1.785725;
#SAMPLESTART:99.280;
#SAMPLELENGTH:13.720;
#SELECTABLE:YES;
#DISPLAYBPM:140.000000;
#BPMS:0.000000=140.000000
,28.000000=280.001007
,32.000000=140.000000
,144.000000=70.000000
,146.000000=140.000000
;
#STOPS:28.000000=0.214000,
29.000000=0.214000,
30.000000=0.214000,
31.000000=0.214000
;
#BGCHANGES:;
#KEYSOUNDS:;
#ATTACKS:;

//---------------dance-single - ----------------
#NOTES:
     dance-single:
     :
     Medium:
     8:
     0.369858,0.416745,0.236104,0.333803,0.004071,318.000000,289.000000,29.000000,41.000000,0.000000,0.000000,0.369858,0.416745,0.236104,0.333803,0.004071,318.000000,289.000000,29.000000,41.000000,0.000000,0.000000:
0000
0000
0000
0000
,
0000
0000
0000
0000
,
0000
0000
0000
0000
,
0000
0000
0000
0000
,
0010
1000
0100
1000
,
0010
0001
0100
0001
,
0010
1100
0010
0101
,
0002
0023
0230
2300
,
3010
0000
0100
0000
0001
0010
0001
0000
,
0100
0000
0010
1000
0010
0000
0100
0000
,
0000
0000
0001
0000
0010
0100
0010
0000
,
0001
1000
1010
0000
,
1000
0000
0100
0000
0010
0100
0010
0000
,
0001
0000
0100
0000
0010
1000
0010
0000
,
1000
0000
0100
0000
0010
0001
0010
0000
,
0100
0000
0000
0100
0000
0000
0000
0000
1000
0000
0000
0000
0001
0000
0010
0000
,
0001
0000
0001
0000
0100
0010
0100
0000
,
0010
0100
0010
0000
0100
0000
0100
0002
,
0010
0000
0000
1000
0000
0000
0103
0200
,
0010
0000
0000
0001
0000
0000
0310
1000
,
1000
0000
0001
0000
0010
0100
0010
0000
,
0100
0010
0100
0000
0010
0000
0010
0000
,
0012
0000
0000
1000
0000
0000
0103
0000
,
0020
0000
0000
1000
0000
0000
0130
0001
,
0001
0000
0000
0010
0010
0000
0000
0001
,
1000
0100
1000
0010
,
1000
0000
0000
0010
0010
0000
0000
1000
,
0001
0100
0001
0010
,
1100
0000
1000
0000
0001
0000
1000
0010
,
1000
0000
0001
0000
0001
0010
0001
0000
,
0011
0001
1000
1000
,
0001
0000
0010
0000
0120
0000
0130
1000
,
0020
0000
0000
1000
0000
0000
0000
0130
,
0002
0000
0000
0010
0000
0000
0000
1003
,
0200
0000
0000
0001
0000
0000
0000
0310
,
1000
0000
0010
0000
0001
0000
0100
1000
,
0200
0300
0100
0001
,
0021
0000
0031
1000
0001
0000
1000
0000
,
1020
0000
1030
0100
1000
0000
0001
0000
,
0201
0000
0301
1000
0001
0000
0010
0000
,
0110
0000
0020
0000
0031
1000
0001
0010
,
0010
0000
0001
0100
0001
1000
0000
0100
,
1000
0000
0001
0100
0001
1000
0000
0100
,
0000
0010
0000
0001
1000
0000
0000
0000
,
0000
0000
0010
0110
,
0001
0101
1000
1100
,
0010
0000
0110
0000
0001
0200
0301
0000
,
0012
0003
1000
0200
1300
0002
1003
0000
,
0100
0000
0010
0000
0001
1001
0000
0000
,
0001
0101
1000
1100
,
0010
0000
0110
0000
0100
2000
3100
0010
,
0020
0030
0001
0002
0003
2000
3100
1000
,
0000
0001
0010
0001
2000
0000
0100
0000
,
0010
0000
3001
0100
0002
0000
0010
0000
,
0100
0000
1003
0100
1000
0000
0110
0000
,
0001
0101
1000
1100
,
0010
0000
0100
0010
0002
0000
0000
0000
,
0100
0000
1003
0010
2000
0000
0000
0000
,
0010
0000
3001
0000
0001
0200
0300
0100
,
0002
0003
0100
0002
1003
0000
0100
0000
,
0010
0000
0001
0001
2000
0000
0100
0000
,
0010
0000
3001
0100
0002
0000
0010
0000
,
0100
0000
1003
0100
0020
0000
0100
0000
,
1000
0031
1000
0101
,
0001
0000
1000
0100
1000
0000
1020
0000
,
0031
0021
1030
1200
,
0301
0000
0201
0000
1300
0100
1000
0100
,
0010
0001
0010
0000
2002
0000
0000
0000
,
0000
3003
0000
0000
;

//---------------dance-single - ----------------
#NOTES:
     dance-single:
     :
     Easy:
     5:
     0.280301,0.333396,0.179114,0.309378,0.000000,241.000000,219.000000,22.000000,38.000000,0.000000,0.000000,0.280301,0.333396,0.179114,0.309378,0.000000,241.000000,219.000000,22.000000,38.000000,0.000000,0.000000:
0000
0000
0000
0000
,
0000
0000
0000
0000
,
0000
0000
0000
0000
,
0000
0000
0000
0000
,
1000
0100
1000
0100
,
0001
0100
0001
0100
,
0010
0001
0010
0001
,
1000
0100
0010
0001
,
0100
0010
2000
3000
,
0100
0020
0031
0000
,
0002
0103
0010
1000
,
0100
0100
1001
0000
,
0001
0010
1000
0100
,
1000
0010
0001
0000
,
1000
0100
0001
0010
,
0001
0100
1000
0010
,
0100
0100
0001
0001
,
0010
0010
0001
0100
,
1001
0000
0000
0000
,
1001
0000
0000
0000
,
0100
0100
1000
1000
,
0010
0010
1000
0100
,
1001
0001
0000
0010
,
1001
0100
0000
0001
,
0001
0000
0001
0000
,
0010
0010
0010
0000
,
0100
0000
0100
0000
,
0010
0010
0002
2003
,
3100
0001
0100
1000
,
0100
0010
0001
1010
,
0101
0001
0100
0010
,
1010
1000
0002
0013
,
0200
0000
0000
0000
0000
0300
0000
0100
,
2000
0000
0000
0000
0000
3000
0000
1000
,
0020
0000
0000
1000
0000
0000
0130
0000
,
0101
0000
0000
0000
,
0000
0000
0001
0100
,
0101
1000
0100
0010
,
1100
0020
0031
0100
,
0101
1000
0100
0001
,
1100
0200
1300
0010
,
0001
0100
1000
0010
,
0100
0000
0001
0010
,
1000
0010
0100
0000
,
0000
0000
1000
0100
,
1000
0010
1000
0100
,
1000
0010
0200
0301
,
0020
0130
0020
0031
,
0200
0301
1001
0000
,
0010
0100
1000
0100
,
0010
0100
2000
3010
,
0200
1300
0200
0310
,
2000
3100
0012
0010
,
1000
1003
2010
0010
,
0001
3001
0200
0310
,
2000
3010
0200
0301
,
0020
0031
0021
0000
,
0130
1000
1020
0000
,
0130
0001
1000
1200
,
0301
0201
0310
0001
,
1000
0100
0020
0001
,
0100
0031
0200
0010
,
1000
0310
2000
0100
,
0001
3100
1100
0000
,
0000
0000
0001
0000
0002
0000
0100
0003
,
2000
0000
0100
3000
0002
0000
0010
0003
,
2000
0000
0010
3000
0001
0000
0010
0000
,
0100
1000
2002
0000
,
0000
3003
0000
0000
;

//---------------dance-single - ----------------
#NOTES:
     dance-single:
     :
     Beginner:
     2:
     0.118634,0.164866,0.032566,0.000000,0.000000,102.000000,98.000000,4.000000,0.000000,0.000000,0.000000,0.118634,0.164866,0.032566,0.000000,0.000000,102.000000,98.000000,4.000000,0.000000,0.000000,0.000000:
0000
0000
0000
0000
,
0000
0000
0000
0000
,
0000
0000
0000
0000
,
0000
0000
0000
0000
,
0001
0000
0001
0000
,
1000
0000
1000
0000
,
0001
0000
1000
0000
,
0010
0000
0000
0000
,
0000
0000
0001
0000
,
0000
0000
0100
0000
,
0000
0000
0010
0000
,
0000
0000
0100
0000
,
0001
0000
0001
0000
,
1000
0000
1000
0000
,
0001
0000
1000
0000
,
1001
0000
0000
0000
,
1000
0000
0000
0000
,
0100
0000
0000
0000
,
0010
0000
0010
0000
,
0100
0000
0100
0000
,
0010
0000
0000
0000
,
0001
0000
0000
0000
,
1000
0000
1000
0000
,
0001
0000
0001
0000
,
1001
0000
0000
0000
,
0010
0000
0000
0000
,
0100
0000
0000
0000
,
0010
0000
0000
0000
,
0001
0000
0001
0000
,
0100
0000
0100
0000
,
0001
0000
1000
0000
,
1001
0000
0000
0000
,
1000
0000
0000
0000
,
0100
0000
0000
0000
,
1000
0000
0000
0000
,
0010
0000
0000
0000
,
0000
0000
1000
0000
,
0010
0000
1000
0000
,
1000
0000
0001
0000
,
0010
0000
0001
0000
,
0000
0000
1000
0000
,
1000
0000
0100
0000
,
0100
0000
0010
0000
,
0010
0000
0001
0000
,
0000
0000
0001
0000
,
0001
0000
1000
0000
,
0001
0000
1000
0000
,
0100
0000
0100
0000
,
0100
0000
1000
0000
,
1000
0000
0001
0000
,
0001
0000
0010
0000
,
0000
0000
0100
0000
,
0000
0000
1000
0000
,
0000
0000
0010
0000
,
0000
0000
0100
0000
,
0100
0000
0001
0000
,
0000
0000
1000
0000
,
0100
0000
0010
0000
,
0100
0000
1000
0000
,
0000
0000
0010
0000
,
0000
0000
1000
0000
,
1000
0000
0001
0000
,
0001
0000
0010
0000
,
0010
0000
0001
0000
,
0000
0000
1000
0000
,
1000
0000
0010
0000
,
0010
0000
0100
0000
,
0001
0000
1001
0000
;

//---------------dance-single - ----------------
#NOTES:
     dance-single:
     :
     Hard:
     13:
     0.672258,0.780773,0.317520,0.293095,0.651323,578.000000,539.000000,39.000000,36.000000,0.000000,0.000000,0.672258,0.780773,0.317520,0.293095,0.651323,578.000000,539.000000,39.000000,36.000000,0.000000,0.000000:
0000
0000
0000
0000
,
0000
0000
0000
0000
,
0000
0000
0000
0000
,
0000
0000
0000
0000
,
0001
0000
0000
1000
0010
0000
0100
0000
0001
0000
0000
1000
0010
0000
0100
0000
,
0001
0000
0000
1000
0010
1000
0000
1000
0010
1000
0000
1000
0010
0000
0100
0000
,
0001
0000
0000
1000
0010
0000
0100
0000
0001
0000
0000
1000
0010
0000
0100
0000
,
0002
0023
0230
1300
,
1000
0000
0000
0100
1000
0000
0001
0000
0010
0100
0010
0000
0001
0000
0000
0100
,
0001
0000
0100
0000
0010
1000
0010
0000
0100
0000
0000
0001
1000
0000
0100
0000
,
1000
0000
0000
0010
1000
0000
0001
0000
0010
0100
0010
0000
0001
0000
0000
0100
,
0001
0000
1000
0000
0100
0010
0000
0000
0002
0000
0000
0103
0000
0000
0001
0000
,
0010
0000
0000
0010
0001
0000
0100
0000
0010
1000
0010
0000
0100
0000
0000
0010
,
1000
0000
0000
1000
0100
0010
0100
0000
1000
0000
0010
0000
0001
0000
0010
0000
,
1000
0000
0000
1000
0100
0000
0010
0000
0001
0100
0001
0000
0010
0000
0000
0010
,
0100
0000
0000
0100
1000
0001
1000
0000
0010
0000
0100
0000
0001
0000
0100
0000
,
0010
0000
0010
0000
0010
1000
0001
0100
0010
0000
1000
0000
0001
0010
0100
0010
,
0001
0000
1000
0100
0010
0001
0100
0001
0010
0000
0010
0000
0010
0001
1000
0100
,
0010
0000
0001
0000
0001
0100
0020
0000
0000
0000
1030
0000
0001
0000
0001
0000
,
1000
0100
0010
0200
0000
1300
0001
0001
,
0100
0000
0100
0000
0100
0010
1000
0001
0100
0000
0001
0000
1000
0100
0010
0100
,
1000
0000
0000
0000
0000
0000
0001
0000
0000
0010
0000
0000
0100
0000
0000
0010
0000
0000
0001
0000
0000
1000
0000
0000
0001
0000
0100
0000
0010
0000
1000
0000
0000
0000
0000
0000
1000
0000
0000
0010
0000
0000
0100
0000
0000
0001
0000
0000
,
0010
0100
1000
0020
0000
0130
0001
0001
,
0010
0000
0100
0000
1000
0000
0020
0000
0000
0130
0000
0001
0000
0000
0010
0000
,
0012
0000
0000
0000
0000
0000
1003
0100
2000
0000
0000
0000
0000
0000
3001
0000
,
0101
0000
0000
0110
0000
0000
2010
0000
0000
0000
3001
0000
0100
0000
0010
0000
,
2010
0000
0000
0000
0000
0000
3001
0010
0002
0000
0000
0000
0000
0000
1003
0000
,
1010
0000
0000
0110
0000
0000
0101
0000
0000
1001
0000
0000
0011
0000
0010
0000
,
0100
0000
0000
0100
1000
0100
0010
0001
0010
0000
0000
0001
0100
0001
0000
0000
,
1000
0010
0000
0010
1000
0000
0100
0010
0001
0000
0100
0000
0110
0000
0000
0000
,
1001
0000
0000
0000
1000
0010
0000
0000
1010
0000
0000
0000
0010
0000
0100
0000
,
0101
0000
0000
0000
0000
0000
0000
0000
0000
0011
0000
0000
0000
0000
0000
0000
0000
0000
0101
0000
0000
0000
0000
0000
0010
0000
0000
0000
1000
0000
0000
0000
0010
0000
0000
0000
1000
0000
0000
0000
0000
0000
0100
0000
0000
0000
0000
0000
,
0012
0000
0000
0023
0000
0000
0032
0000
0000
0023
0000
0000
0031
0000
1000
0000
,
2010
0000
0000
3020
0000
0000
2030
0000
0000
3020
0000
0000
1030
0000
0100
0000
,
0021
0000
0000
0031
0000
0000
0012
0000
0000
0023
0000
0000
0130
0000
1000
0000
,
1000
0010
0000
0100
0001
0000
1000
0100
0000
0010
0001
0000
0100
0000
0010
0000
,
0000
1000
0000
0000
0100
0000
0000
0001
0000
0000
0100
0000
0000
1000
0000
0000
0010
0000
0000
0000
0000
0000
0100
0000
0001
0000
0000
0000
0000
0000
0000
0000
,
0011
0000
0000
0010
0001
0000
0100
0000
1000
0000
0100
0000
0001
1000
0000
0000
,
1010
0000
0000
0100
0001
0000
0010
0000
0001
0000
1000
0000
0100
0000
0000
0000
,
1100
0000
0000
0010
0001
0000
1000
0000
0001
0100
0000
0000
0100
0010
1000
0000
,
1100
0000
0000
0010
0001
0000
1000
0001
0100
0000
0010
0000
1000
0000
0010
0000
,
0110
0000
0000
0000
0000
0000
0000
0000
0000
0100
0000
0000
0001
0000
0000
0000
0000
0000
0010
0000
0000
0000
0000
0000
0100
0000
0000
0000
0000
0000
0010
0000
0000
0000
0000
0000
0001
0000
0000
0000
1000
0000
0010
0000
0000
0000
0000
0000
,
0110
0000
0000
0000
0000
0000
0000
0000
0000
0100
0000
0000
0001
0000
0000
0000
0000
0000
1000
0000
0000
0000
0000
0000
0100
0000
0000
0000
0000
0000
0001
0000
0000
0000
0000
0000
0100
0000
0000
0000
0010
0000
0001
0000
0000
0000
0010
0000
,
0000
0000
0100
1000
0000
0000
0010
0000
0000
0100
0000
0000
0001
0000
0000
0000
0000
0000
0000
0000
0000
0000
0000
0000
,
0000
0000
0000
0000
0000
0001
0000
0001
0100
0000
0000
0010
1000
0000
0100
0000
,
1100
0000
0000
1000
0010
0000
0100
0000
0001
0000
0100
0000
0010
1000
0000
0000
,
1010
0000
0000
1000
0001
0000
0010
0000
0100
0000
1000
0000
0100
0000
0000
0000
,
0011
0000
0000
0001
1000
0000
0010
0000
1000
0000
0100
0000
0010
0001
0010
0000
,
0100
0000
0000
1000
0000
0000
0100
0000
0000
0000
0000
0000
0100
0000
0000
0010
0000
0000
0001
0000
0000
0000
0000
0000
1000
0000
0010
0000
1000
0000
0010
0000
0000
0000
0000
0000
0100
0000
0000
0000
0000
0000
0001
0000
0000
0000
0000
0000
,
0101
0000
0000
0001
0010
0000
1000
0000
0010
0000
0001
0000
0100
0010
1000
0000
,
1010
0000
0000
0010
1000
0000
0100
0000
1000
0000
0001
0000
0010
0000
0001
0000
,
0101
0000
0000
0000
0000
0000
0101
0000
0000
0100
0000
0000
0010
0000
0000
1000
0000
0000
0100
0000
0010
0001
0000
0010
,
0000
0000
0000
0000
0001
0000
1000
0000
0000
0000
0000
0000
0000
0000
0000
0000
0010
0000
1000
0000
0000
0000
0000
0000
1200
0000
0000
0000
0000
0000
0000
0000
0000
0010
0000
0000
0000
0000
0000
0000
0000
0000
0001
0000
0000
0000
0000
0000
,
0000
0010
0000
0000
1300
0000
0001
0000
0200
0000
0000
0010
0000
0000
1000
0000
,
0000
0010
0000
0000
0301
1000
0000
1000
0001
0000
1000
0100
1000
0000
0010
0000
,
0110
0000
0000
0100
0001
0000
0010
0000
0001
0000
0100
0000
0010
1000
0001
0000
,
0010
0001
1000
0000
0001
0100
0001
0000
0021
0000
0000
0100
0000
0000
1000
0000
,
0000
0100
0000
0000
0031
0000
1000
0000
0200
0000
0000
0010
0000
0000
1000
0000
,
0000
0010
0000
0000
1300
0001
0000
0001
1000
0000
0100
0000
0001
0000
0100
0000
,
1000
0000
0000
0000
0101
0000
0100
0000
0010
1000
0000
0001
0010
0000
0100
1000
,
0000
0001
0100
0000
0010
0000
1000
0000
2100
0000
0000
3001
0010
0000
0100
0000
,
1000
0100
0000
0100
0010
0000
0001
0000
2000
0000
0000
3001
0100
0000
0010
0000
,
1000
0010
0000
0010
0100
0000
0001
0000
0012
0000
0000
1003
0100
0000
0010
0000
,
0001
0100
0000
0100
0010
0000
1000
0000
0001
0100
0000
0000
0001
0000
0010
0100
,
0000
0100
1000
0000
0100
0010
0001
0010
0100
0000
2000
0000
0010
0000
3001
0000
,
0100
0002
0010
1003
0100
0020
0001
0130
,
1000
0000
0020
0000
0100
0000
1030
0000
0001
0010
0001
0000
1000
0010
1000
0000
,
0001
0010
0100
0000
1000
0010
0100
0000
0010
1000
0000
0001
0010
0000
0100
1000
,
0000
0001
0100
0000
0020
0000
0000
0000
0030
0000
0000
0000
0000
0000
0000
0000
;
