#TITLE:WEAPON OF CHOICE;
#SUBTITLE:;
#ARTIST:Fatboy Slim;
#TITLETRANSLIT:;
#SUBTITLETRANSLIT:;
#ARTISTTRANSLIT:;
#CREDIT:;
#BANNER:weapon of choice.png;
#BACKGROUND:weapon of choice-bg.png;
#LYRICSPATH:;
#CDTITLE:;
#MUSIC:weapon of choice.ogg;
#OFFSET:1.080;
#SAMPLESTART:38.600;
#SAMPLELENGTH:12.000;
#SELECTABLE:YES;
#BPMS:0.000=196.001;
#STOPS:;
#BGCHANGES:1.667=bgvideo.avi=1.000=1=0=1,
374.000=bg.png=1.000=1=0=1,
99999=-nosongbg-=1.000=0=0=0 // don't automatically add -songbackground-
;

//---------------dance-single - ----------------
#NOTES:
     dance-single:
     :
     Hard:
     8:
     0.722,0.724,0.200,0.261,0.000:
0000
0000
0000
0000
,
0000
0000
0000
0000
,
0000
0000
0000
0000
,
0001
0010
0100
1000
0100
0010
0001
1000
,
0001
0010
0100
1000
0100
0010
0001
1000
,
0001
0010
0001
0010
0100
0010
0100
0010
,
0100
1000
0100
1000
0010
1000
0010
1000
,
0001
0010
0100
2000
0000
3010
0001
0010
,
1000
0100
0010
0002
0000
0013
0001
0010
,
0001
0000
0001
1000
0000
1000
0010
0000
,
0010
0100
0000
0100
0001
0000
1001
0000
,
0001
0000
0001
0010
0000
0010
0001
0000
,
0001
1000
0000
1000
0010
0000
1010
0000
,
1000
0000
0100
0010
0000
0010
0100
0000
,
0100
1000
0000
1000
0001
0000
0011
0000
,
0100
0000
1000
0010
0000
0010
0100
0000
,
0100
0001
0000
0001
1000
0000
2000
0000
,
0010
0000
3010
0000
1000
0000
0001
0010
,
0001
0010
0000
0010
0001
1000
0100
1000
,
0100
0000
0010
0001
1000
0001
0010
0000
,
0010
0100
0000
0100
1000
0000
2000
0000
,
0001
0000
3001
0010
0000
0010
0001
0000
,
0001
1000
0000
1000
0010
0100
0001
0010
,
0100
1000
0010
0001
0000
0001
1000
0000
,
1000
0100
0000
0100
0001
0000
0001
0010
,
0100
0000
0110
0000
1000
0000
1000
0010
,
0100
0000
0110
0000
0100
0001
0010
0000
,
0001
1000
0010
1000
0000
1000
0100
0000
,
0100
0001
0000
0001
0100
0010
0001
0000
,
1000
0000
0001
0010
0001
0000
1000
0010
,
1000
0100
0000
0100
0010
0001
0100
0000
,
0001
0010
0100
1000
0000
1000
0010
0000
,
0001
0010
0000
1000
0010
0100
0001
1000
,
0020
0000
0100
0000
0031
0010
1000
0010
,
0200
0000
1000
0000
0301
1000
0010
0001
,
0020
0000
1000
0000
0130
0001
0010
0100
,
2000
0000
0001
0000
3100
0010
1000
0010
,
0200
0000
0001
0000
0310
0001
0100
0010
,
0200
0000
1300
0100
0001
0010
0100
1000
,
0001
0000
0010
0100
1000
0100
0010
0001
,
1000
0000
0001
0100
0001
1000
0100
1000
,
0002
0000
1000
0000
0103
0001
0100
0010
,
2000
0000
0100
0000
3001
1000
0100
0010
,
0200
0000
0010
0000
0301
0100
1000
0100
,
0020
0000
0001
0000
1030
0010
0100
0010
,
1000
0100
1000
0100
0010
0100
0010
0100
,
0010
0001
0010
0001
1000
0010
1000
0010
,
0100
0001
0010
0200
0000
1300
0010
0100
,
0001
0010
0000
0110
0000
1100
0000
0100
,
0020
0000
0031
0010
0000
0010
0001
0000
,
1000
0010
0000
0010
1000
0000
1001
0000
,
0001
0100
0010
1000
0000
1000
0001
0000
,
0001
0010
0000
0010
0001
0000
1001
0000
,
1000
0000
0010
1000
0000
1000
0100
0000
,
0100
0010
0000
0010
0001
0000
1001
0000
,
1000
0001
0010
0001
0000
0001
1000
0000
,
1000
0010
0000
0010
0100
0000
1001
0000
,
1000
0000
0010
0100
0000
0101
0000
0100
,
0001
0010
0100
1000
0000
1010
0000
1000
,
0001
0000
0001
0010
0000
0011
0000
0010
,
0100
1000
0010
0100
0000
0101
0000
0001
,
1000
0010
1000
0100
0000
0011
0000
0001
,
0100
1000
0100
0001
0000
1010
0000
1000
,
0100
0001
0100
1000
0000
0001
0010
0001
,
0010
0100
1000
0010
0001
0001
0010
1000
,
0001
1000
0010
0000
0010
0100
0000
0100
,
0001
0000
0001
0010
0000
0010
0100
0000
,
0100
0010
0100
1000
0000
1000
0010
0000
,
0010
0100
0000
0100
0001
0000
1000
0000
,
0010
0100
0001
0010
0000
0010
0001
0000
,
0001
1000
0000
1000
0010
0000
0100
0000
,
1000
0100
0001
0010
0000
0010
0100
0000
,
0100
1000
0000
1000
0001
0000
1000
0000
,
0001
0000
0021
0000
0130
2000
0100
3000
,
0120
0000
0031
0000
1000
0010
0100
0001
,
0010
0000
2100
0000
3001
0200
0001
0300
,
0120
0000
1030
0000
0001
0010
0100
1000
,
0001
0000
0100
0000
0001
0010
0001
0000
,
0010
0000
0001
0000
1000
0010
1000
0000
,
0001
0010
0001
1000
0000
1000
0100
0000
,
0010
0001
0010
0100
1000
0000
1001
0000
,
1000
0100
0010
0001
0010
0000
0002
0010
,
0000
0013
0001
1000
0010
0000
0100
0000
,
0001
0010
0100
1000
0100
0000
0200
1000
,
0000
1300
0001
0010
1000
0000
0010
0000
,
0001
0100
0010
1000
0100
0000
0200
1000
,
0000
1300
0010
0100
0001
0000
0010
0000
,
0100
1000
0010
0100
0001
0000
0002
0010
,
0000
0013
0001
1000
0010
1000
0001
0010
,
0200
0000
1000
0000
0310
0001
1000
0010
,
2000
0000
0100
0000
3001
1000
0010
0100
,
0002
0000
1003
1000
,
0012
0000
0003
0000
;

//---------------dance-single - ----------------
#NOTES:
     dance-single:
     :
     Medium:
     5:
     0.487,0.604,0.017,0.261,0.000:
0000
0000
0000
0000
,
0000
0000
0000
0000
,
0000
0000
0000
0000
,
1000
0010
1000
0100
,
0001
0010
1000
0001
,
0010
0010
0001
0001
,
1000
1000
0100
0100
,
0010
0001
0010
0002
0000
0000
0000
0000
,
1003
0010
1000
0020
0000
0000
0000
0000
,
1030
0000
0000
0010
0000
0000
1000
0000
,
0000
0001
0000
0000
0010
0000
0001
1000
,
0001
0000
0000
0010
0000
0000
0001
0000
,
0000
1000
0000
0000
0010
0000
0110
0000
,
0010
0000
0000
1000
0000
0000
0100
0000
,
0000
0010
0000
0000
0001
0000
1000
0010
,
1000
0000
0000
0001
0000
0000
0010
0000
,
0000
0001
0000
0000
1000
0000
2000
0000
,
0010
0000
3010
0000
1000
0000
0001
0010
,
0001
0000
0100
0000
0010
1000
0010
0000
,
1000
0000
0000
0100
0000
0000
0010
0000
,
0000
0100
0000
0000
1000
0001
0000
0001
,
0010
0001
1000
0010
,
1000
0000
0001
0000
0010
0100
0010
0000
,
0100
0000
0000
1000
0000
0000
0100
0000
,
0000
0010
0000
0000
0001
0000
1000
0000
,
0010
0000
1000
0000
0001
0000
0010
0001
,
0010
0000
0100
0000
1000
0000
0010
1000
,
0010
0100
0001
1000
,
0100
1000
0010
0100
,
0100
0000
0001
0010
0001
0000
0001
0010
,
0001
0000
1000
0000
0100
0010
0100
0000
,
1000
0001
0010
0001
,
0100
0000
0010
0000
1000
0001
1000
0000
,
0020
0000
0030
0000
0100
0001
0100
0000
,
0002
0000
0003
0000
1000
0010
1000
0000
,
0200
0000
0300
0000
0010
0100
0010
0000
,
0200
0000
0300
0000
1000
0010
1000
0000
,
0002
0000
0003
0000
0010
0100
0010
0000
,
2000
3000
0010
0001
,
1000
0020
1000
2030
,
0001
0000
3002
0000
0013
0100
0010
0000
,
0002
0000
0003
0000
1000
0010
1000
0000
,
0200
0000
0300
0000
0010
0100
0010
0000
,
0002
0000
0003
0000
1000
0010
1000
0000
,
0200
0000
0300
0000
1000
0010
1000
0000
,
0002
0023
0230
2300
,
3200
0320
0032
2003
,
3002
0000
0013
0100
0000
0100
1000
0000
,
0010
0000
0100
0001
0000
0001
0100
0000
,
0010
0000
1000
0000
0001
0010
0001
0000
,
0200
0010
1000
0001
,
0310
0000
1000
0100
1000
0000
0001
0010
,
0001
0100
0010
1000
,
0001
0000
0100
0000
0010
1000
0010
0000
,
1000
0001
0010
0100
,
1000
0010
1000
0000
0001
0010
0001
0000
,
0100
0001
0100
1000
,
0100
0001
0100
0000
0010
0000
1000
0000
,
0100
0000
1000
0000
0001
0000
0010
0001
,
0010
0000
0100
1000
0100
0000
0001
0000
,
0100
1000
0010
1000
,
0001
0000
0100
0001
0100
0000
0010
0000
,
1000
0100
0010
0001
,
1000
0010
1000
0000
0001
0010
0001
0000
,
1000
0010
1000
0100
,
0110
0000
0010
0000
0000
0001
0000
0000
,
1000
0000
0000
0010
0000
0000
1000
0000
,
0001
0000
1000
0000
0000
0010
0000
0000
,
1000
0000
0000
0100
0000
0000
0010
0000
,
0001
0000
0010
0000
0000
0001
0000
0000
,
0100
0000
0000
0010
0000
0000
1000
0000
,
0001
0000
0010
0000
0000
0100
0000
0000
,
0010
0000
0000
0001
0000
0000
1000
0000
,
0010
0000
1000
0000
0000
0001
0000
0000
,
0010
0000
0000
0100
0000
0000
1000
0000
,
0010
0000
1000
0000
0000
0001
0000
0000
,
1000
0000
0000
0001
0000
0000
1000
0000
,
0100
0000
0010
0000
0000
0001
0000
0000
,
1000
0000
0000
0010
0000
0000
1000
0000
,
0001
0000
0010
0000
0000
0100
0000
0000
,
0010
0000
0000
0001
0000
0000
1000
0000
,
0010
1000
0010
0000
0100
0000
0000
0000
,
0001
0100
0001
0000
0010
0000
0000
0000
,
0100
1000
0100
0000
0010
0000
0000
0000
,
0001
1000
0001
0000
0010
0000
0000
0000
,
0100
1000
0100
0000
1000
0000
1000
0000
,
0010
0100
0010
0000
0100
0000
0100
0000
,
0001
0010
0001
0000
0010
0000
0010
0000
,
0100
1000
0100
0000
1000
0001
1000
0001
,
2000
0000
3001
0010
,
0002
0000
0000
0000
0103
0001
0100
0001
,
0200
0000
0310
1000
,
0020
0000
0030
0000
;

//---------------dance-single - ----------------
#NOTES:
     dance-single:
     :
     Easy:
     4:
     0.429,0.443,0.270,0.374,0.000: // measure 1
0000
0000
0000
0000
,  // measure 2
0000
0000
0000
0000
,  // measure 3
0000
0000
0000
0000
,  // measure 4
1000
0000
0000
0010
0000
0000
1000
0000
,  // measure 5
0001
0000
0000
0010
0000
0000
0001
0000
,  // measure 6
0020
0000
0230
0000
,  // measure 7
2300
0000
3020
0000
,  // measure 8
2030
0000
0000
3002
0000
0000
0023
0000
,  // measure 9
0032
0000
0000
2003
0000
0000
3020
0000
,  // measure 10
1030
0000
0000
0010
0000
0000
1000
0000
,  // measure 11
0000
0001
0000
0000
0010
0000
1001
0000
,  // measure 12
0010
0000
0000
0001
0000
0000
1000
0000
,  // measure 13
0000
0010
0000
0000
0100
0000
0101
0000
,  // measure 14
0001
0000
0000
0010
0000
0000
0100
0000
,  // measure 15
0000
1000
0000
0000
0010
0000
1001
0000
,  // measure 16
0010
0000
0000
1000
0000
0000
0100
0000
,  // measure 17
0000
0010
0000
0000
0001
0000
1001
0000
,  // measure 18
0010
0001
0000
1000
,  // measure 19
0100
0000
0100
1000
,  // measure 20
0010
0000
0000
1000
0000
0000
0100
0000
,  // measure 21
0000
0010
0000
0000
0001
0000
1001
0000
,  // measure 22
0010
0010
0001
0100
,  // measure 23
0000
0001
1000
0010
,  // measure 24
1000
0000
0000
0010
0000
0000
1000
0000
,  // measure 25
0000
0100
0000
0000
0010
0000
0001
0000
,  // measure 26
1000
1000
0010
0010
,  // measure 27
0200
0300
0100
0001
,  // measure 28
0010
0000
0011
0000
0000
0001
0000
0000
,  // measure 29
0001
0000
0000
0001
0000
0000
0001
0000
,  // measure 30
1000
0001
0010
0100
,  // measure 31
0001
0100
1000
0010
,  // measure 32
0100
0000
0010
0000
0000
1000
0000
0000
,  // measure 33
0001
0000
1001
1000
,  // measure 34
0020
0030
0101
0100
,  // measure 35
0020
0030
1100
1000
,  // measure 36
0020
0030
0101
0001
,  // measure 37
0020
0030
1001
0001
,  // measure 38
2000
3000
1010
1000
,  // measure 39
0200
0300
0010
0001
,  // measure 40
1000
0020
0000
2000
,  // measure 41
3030
0020
0000
1030
,  // measure 42
1010
0000
1000
0100
,  // measure 43
0011
0000
0001
0100
,  // measure 44
1010
0000
1000
0100
,  // measure 45
0001
0000
0001
0100
,  // measure 46
2000
0000
3020
0000
,  // measure 47
0230
0000
0302
0000
,  // measure 48
0023
0000
0000
0230
0000
0000
2300
0000
,  // measure 49
3002
0000
0000
0203
0000
0000
0310
0000
,  // measure 50
1000
0000
0000
0001
0000
0000
0010
0000
,  // measure 51
0000
0001
0000
0000
0100
0000
0110
0000
,  // measure 52
0010
0000
0000
1000
0000
0000
0100
0000
,  // measure 53
0000
0010
0000
0000
0100
0000
1100
0000
,  // measure 54
1000
0000
0000
0010
0000
0000
0100
0000
,  // measure 55
0000
0001
0000
0000
0010
0000
0011
0000
,  // measure 56
0001
0000
0000
1000
0000
0000
0010
0000
,  // measure 57
0000
0100
0000
0000
0001
0000
0001
0000
,  // measure 58
1002
0000
0000
1000
0000
0000
1000
0000
,  // measure 59
0000
1000
0000
0000
1000
0000
1003
0000
,  // measure 60
2100
0000
0000
0100
0000
0000
0100
0000
,  // measure 61
0000
0100
0000
0000
0100
0000
3100
0000
,  // measure 62
0012
0000
0000
0010
0000
0000
0010
0000
,  // measure 63
0000
0010
0000
0000
0010
0000
0013
0000
,  // measure 64
2001
0000
0000
0001
0000
0000
0001
0000
,  // measure 65
0000
0001
0000
0000
3001
0000
0100
0000
,  // measure 66
0110
0000
0010
0000
0000
1000
0000
0000
,  // measure 67
0001
0000
0000
0100
0000
0000
0010
0000
,  // measure 68
1000
0000
0001
0000
0000
0100
0000
0000
,  // measure 69
1000
0000
0000
0100
0000
0000
0001
0000
,  // measure 70
0001
0000
1000
0000
0000
0010
0000
0000
,  // measure 71
0100
0000
0000
0010
0000
0000
1000
0000
,  // measure 72
0001
0000
0010
0000
0000
0100
0000
0000
,  // measure 73
1000
0000
0000
0100
0000
0000
0001
0000
,  // measure 74
0100
0000
1000
0000
0000
0010
0000
0000
,  // measure 75
0100
0000
0000
0001
0000
0000
0100
0000
,  // measure 76
0010
0000
1000
0000
0000
0100
0000
0000
,  // measure 77
0001
0000
0000
0100
0000
0000
1000
0000
,  // measure 78
0100
0000
0010
0000
0000
0001
0000
0000
,  // measure 79
1000
0000
0000
0010
0000
0000
1000
0000
,  // measure 80
0001
0000
0010
0000
0000
0001
0000
0000
,  // measure 81
1000
0000
0000
0010
0000
0000
1000
0000
,  // measure 82
0200
0000
1300
0000
1100
0000
0000
0200
,  // measure 83
0000
0010
0310
0001
,  // measure 84
2000
0000
3001
0000
1001
0000
0000
0002
,  // measure 85
0000
0100
0103
0010
,  // measure 86
2000
0000
3100
0000
0011
0000
0000
0002
,  // measure 87
0000
1000
1003
0010
,  // measure 88
2000
0000
3001
0000
0011
0000
0000
0020
,  // measure 89
0000
0100
0130
1000
,  // measure 90
0011
0000
0001
1000
,  // measure 91
0101
0000
1000
0010
,  // measure 92
1001
0000
0001
0010
,  // measure 93
2002
0000
3003
0000
;

//---------------dance-double - ----------------
#NOTES:
     dance-double:
     :
     Hard:
     8:
     0.732,0.688,0.331,0.235,0.000:
00000000
00000000
00000000
00000000
,
00000000
00000000
00000000
00000000
,
00000000
00000000
00000000
00000000
,
00100000
10000000
00010000
00100000
00010000
10000000
00100000
01000000
,
00010000
00100000
00010000
10000000
00100000
10000000
00010000
00100000
,
01000000
10000000
01000000
10000000
00010000
00100000
00010000
00100000
,
00001000
00010000
00001000
00010000
00000100
00001000
00000100
00001000
,
00000001
00000010
00001000
00000020
00000000
00000031
00000100
00001000
,
00010000
00100000
01000000
00010000
00100000
01000000
10000000
00010000
,
10000000
00000000
01000000
00100000
00000000
00010000
01000000
00000000
,
10000000
01000000
00000000
00010000
00100000
00000000
00011000
00000000
,
00001100
00000000
00000100
00000010
00000000
00000001
00000100
00000000
,
00001000
00000100
00000000
00000010
00001000
00000000
00011000
00000000
,
01010000
00000000
00010000
00100000
00000000
10000000
00100000
00000000
,
01000000
00100000
00000000
00001000
00010000
00000000
00011000
00000000
,
00001000
00000000
00000100
00000001
00000000
00000100
00001000
00000000
,
00000100
00000010
00000000
00001000
00000100
00000000
00000011
00000000
,
00000210
00000000
00001300
00000000
00000001
00000100
00000001
00000100
,
00000010
00000000
00001000
00000000
00000100
00010000
00000100
00010000
,
00001000
00000000
00100000
00000000
00010000
01000000
00010000
01000000
,
00100000
00000000
10000000
01000000
10000000
00100000
00000000
00100000
,
01000000
00010000
01000000
00000000
00010000
00100000
00010000
00100000
,
00001000
00000000
00010000
00000000
00000100
00001000
00000100
00001000
,
00000001
00000100
00001000
00000100
00000000
00000010
00001000
00000000
,
00000100
00001000
00000000
00000100
00010000
00000000
00010000
00001000
,
00100000
00000000
00010000
00000000
10000000
01000000
00100000
00010000
,
00100000
00000000
01000000
00000000
00100000
00010000
00001000
00000100
,
00001000
00000000
00000100
00000000
00000010
00000001
00001000
00000100
,
00000010
00000000
00000001
00001000
00000001
00000000
00000010
00000000
,
00001100
00000000
00000100
00000010
00000001
00000000
00001000
00000100
,
00001000
00000000
00000010
00010000
00001000
00100000
00010000
00000000
,
00010000
00100000
01000000
10000000
00000000
10000000
00100000
00000000
,
01000000
00001000
00000000
00010000
00001000
00010000
00000100
00010000
,
00000010
00001000
00000100
00000010
00000002
00000000
00000103
00000001
,
00000000
00000101
00000000
00000100
00000020
00000000
00001030
00000010
,
00000000
00001010
00000000
00001000
00000200
00000000
00010300
00001000
,
00000000
00011000
00000000
00001000
00200000
00000000
00310000
00100000
,
00000000
00110000
00000000
00100000
02000000
00000000
03100000
01000000
,
00000000
11000000
00000000
10000000
00200000
00000000
01300000
00010000
,
00100000
00000000
02100000
00000000
13000000
00010000
01000000
00010000
,
00100000
00000000
01000000
00010000
00001000
00000010
00000001
00000100
,
00000001
00000010
00000100
00001000
00000200
00000000
00001300
00000100
,
00000000
00001100
00000000
00000100
00000020
00000000
00000031
00000010
,
00000000
00000011
00000000
00000001
00000200
00000000
00001300
00000100
,
00000000
00001100
00000000
00000100
00000020
00000000
00001030
00000000
,
00100000
10000000
00100000
10000000
01000000
00100000
01000000
00100000
,
00001000
00010000
00001000
00010000
00000100
00001000
00000100
00001000
,
00000010
00000100
00000001
00000020
00000000
00000130
00001000
00000100
,
00000000
00010100
00000000
00011000
00000000
01001000
00000000
00001000
,
00200000
00000000
01300000
00000000
00100000
00010000
00100000
00000000
,
00010000
01000000
00100000
10000000
00000000
01000000
00100000
00000000
,
00210000
00000000
00301000
00010000
00000000
00010000
00000100
00001000
,
00000010
00000000
00000100
00000000
00000010
00000001
00000010
00000000
,
00001000
00000000
00000100
00000000
00000010
00001000
00000010
00000000
,
00000100
00010000
00001000
00010000
00000000
00001000
00100000
00000000
,
00210000
00000000
01300000
10000000
00000000
10000000
00010000
00000000
,
01000000
00010000
00000000
00100000
00010000
00000000
01000000
00000000
,
10100000
00000000
00100000
01000000
00000000
00001000
00100000
00000000
,
00110000
00000000
00100000
00001000
00000000
00010000
00100000
00000000
,
00011000
00000000
00001000
00000010
00000000
00000100
00000010
00000000
,
00000011
00000000
00000001
00000100
00000000
00000010
00000000
00001000
,
00001200
00000000
00010300
00001000
00000000
00100000
00001000
00000000
,
00120000
00000000
00130000
00001000
00000000
01000000
00100000
00000000
,
10000000
01000000
00010000
01000000
00000000
00100000
00010000
00000000
,
00100000
00000000
11000000
00000000
01000000
00100000
00001000
00010000
,
00001000
00000000
00000010
00000000
00000001
00000100
00001000
00000100
,
00000010
00000000
00010000
00000000
00000100
00001000
00000010
00010000
,
00001000
00000000
01000000
00000000
00100000
01000000
00010000
00100000
,
00001000
00000000
01000000
00000000
00100000
10000000
01000000
00010000
,
01000000
00100000
00010000
00000000
01000000
00000000
01010000
00000000
,
00010000
00000000
00100000
00001000
00010000
00000100
00001000
00000000
,
00001000
00000010
00000100
00000001
00000010
00000000
00000110
00000000
,
00000010
00001000
00000010
00000100
00010000
00000000
00011000
00000000
,
00010000
00100000
10000000
00000000
12000000
00000000
03100000
00000000
,
00120000
00000000
01030000
10000000
01000000
00100000
10000000
00000000
,
00010000
00000000
00210000
00000000
00000000
00302000
00000000
00000000
,
00013000
00000000
00000100
00000000
00001000
00000010
00001000
00000100
,
00000010
00000000
00000001
00000100
00001000
00000000
00000100
00000010
,
00010000
00000000
00001000
00010000
00100000
01000000
00010000
00000000
,
00010000
00100000
00010000
10000000
00000000
10000000
01000000
00100000
,
00000000
00001000
00010000
00100000
00010000
00000000
00001000
00000000
,
00000010
00000001
00000010
00000100
00001000
00000000
00000010
00010000
,
00000000
00000100
00001000
00000010
00010000
00000000
00100000
00000000
,
10000000
01000000
00100000
00010000
00100000
00000000
00001000
01000000
,
00000000
00010000
00100000
00001000
00010000
00000000
00000100
00000000
,
00000010
00000001
00000100
00001000
00010000
00000000
00001000
00100000
,
00000000
00100000
00010000
01000000
00100000
00000000
10000000
00000000
,
00100000
10000000
01000000
00010000
00001000
00000000
00010000
00000010
,
00001000
00000010
00000100
00000010
00000001
00001000
00000100
00000001
,
00000010
00000100
00010000
00000010
00002000
00000000
00003100
00010000
,
00000000
00011000
00000000
00001000
02000000
00000000
03010000
00100000
,
00000000
00110000
00000000
00100000
02000000
00000000
13000000
00100000
,
00000000
01010000
00000000
00010000
00200000
00000000
00000000
00000000
,
00300000
00000000
00000000
00000000
;

//---------------dance-double - ----------------
#NOTES:
     dance-double:
     :
     Medium:
     6:
     0.566,0.563,0.348,0.513,0.000:
00000000
00000000
00000000
00000000
,
00000000
00000000
00000000
00000000
,
00000000
00000000
00000000
00000000
,
10000000
00000000
00000000
00010000
00000000
00010000
01000000
00000000
,
00010000
00000000
00000000
00100000
00000000
00100000
00001000
00000000
,
00012000
00003200
00000320
00020030
,
00032000
02003000
03020000
20030000
,
32000000
00000000
00000000
00100000
00000000
00000000
13000000
00000000
,
01020000
00000000
00000000
10000000
00000000
00000000
00130000
00000000
,
00011000
00001000
00000100
00000010
,
00000100
00000000
00000001
00000000
00000010
00000100
00000010
00000000
,
00000001
00000100
00001000
00010000
,
00100000
00000000
10000000
00000000
01000000
00100000
01000000
00000000
,
10000000
00010000
01000000
00100000
,
00010000
00000000
00001000
00000000
00000100
00000010
00000100
00000000
,
00000001
00000000
00000001
00000010
00000000
00000010
00000001
00000000
,
00000001
00001000
00000000
00001000
00000001
00000000
00000010
00000000
,
00002100
00000000
00000010
00000000
00003100
00000000
00010000
00001000
,
00020000
00000100
00031000
00100000
,
00210000
00000000
00000000
01000000
00000000
00000000
10000000
00000000
,
00000000
01000000
00000000
00000000
00310000
00000000
00100000
00000000
,
11000000
10000000
00100000
01000000
,
00010000
00000000
00100000
00000000
00001000
00010000
00001000
00000000
,
00001200
00000000
00000000
00000010
00000000
00000000
00000001
00000000
,
00000000
00000010
00000000
00000000
00001300
00000000
00000100
00000000
,
00000020
00000000
00001000
00000000
00001030
00000000
00000100
00001000
,
00000100
00010000
00002000
00103000
,
00210000
00000000
00000000
01000000
00000000
00000000
10000000
00000000
,
00000000
01000000
00000000
00000000
00310000
00000000
01000000
00000000
,
00200000
10000000
20300000
01000000
,
30010000
00000000
00100000
01000000
00100000
00000000
00010000
00000000
,
00210000
00000000
00000000
01000000
00000000
00000000
00001000
00000000
,
00000000
01000000
00000000
00000000
00310000
00000000
01000000
00000000
,
02010000
00000000
00100000
00000000
03020000
00000000
00000000
00100000
,
00000000
00100000
00030000
00000000
00102000
00000000
00000000
00010000
,
00000000
00010000
00003000
00000000
00001200
00000000
00000000
00000010
,
00000000
00000010
00000300
00000000
00000102
00000000
00000000
00001000
,
00000000
00001000
00000003
00000000
00002001
00000000
00000000
00000100
,
00000000
00000100
00000000
00003100
00010000
00000000
00001000
00000000
,
00100000
00210000
00000000
01300000
,
10000000
10200000
00000000
01300000
,
00010000
00000000
00100000
00000000
00102000
00000000
00000000
00010000
,
00000000
00010000
00003000
00000000
00020010
00000000
00000000
00001000
,
00000000
00001000
00030000
00000000
01002000
00000000
00000000
00010000
,
00000000
00010000
00003000
00000000
00020100
00000000
00000000
00031000
,
00020000
00032000
00003200
00000320
,
00002030
00003200
00020300
00032000
,
00203000
00000000
00000000
00010000
00000000
00000000
01300000
00000000
,
21000000
00000000
00000000
00100000
00000000
00000000
30010000
00000000
,
01010000
00000000
00010000
00000000
10000000
01000000
10000000
00000000
,
00010000
00000000
00100000
00000000
00001000
00000000
00001000
00010000
,
00001000
00000000
00001000
00010000
00001000
00000000
00001000
00010000
,
00000020
00000100
00001000
00000130
,
00000101
00000000
00000001
00000000
00001000
00000100
00001000
00000000
,
00000100
00000000
00010000
00000000
00001000
00000000
00010000
00001000
,
00010000
00000000
00010000
00001000
00010000
00000000
00010000
00001000
,
00200000
00010000
01000000
00310000
,
02000000
00000000
00000000
00010000
00000000
00000000
03100000
00000000
,
20100000
00000000
00000000
01000000
00000000
00000000
30010000
00000000
,
00210000
00000000
00000000
00010000
00000000
00000000
00301000
00000000
,
00021000
00000000
00000000
00000100
00000000
00000000
00030010
00000000
,
00001020
00000000
00000000
00000100
00000000
00000000
00010030
00000000
,
00001200
00000000
00000000
00000001
00000000
00000000
00000310
00000000
,
00001200
00000000
00000000
00010000
00000000
00000000
00001300
00000000
,
00000010
00000000
00010000
00000000
00001000
00010000
00001000
00000000
,
00010000
00000000
00100000
00000000
10000000
00100000
10000000
00000000
,
00100000
00000000
00010000
00000000
00001000
00010000
00001000
00000000
,
00000010
00000000
00000001
00000000
00000010
00000100
00000010
00000000
,
00000001
00000000
00000010
00000000
00001000
00010000
00001000
00000000
,
00000010
00000000
00000100
00001000
00000100
00000000
00000010
00000000
,
00000011
00000000
00000000
00000001
00000100
00000000
00000010
00000000
,
00001000
00000000
00000100
00000000
00000010
00000001
00000010
00000000
,
00000100
00010000
00001000
01000000
,
00010000
10000000
00010000
00000000
00100000
00000000
01000000
00000000
,
11000000
00000000
00000000
10000000
01000000
00000000
00100000
00000000
,
00001000
00000000
00010000
00000000
00000100
00001000
00000100
00000000
,
00010000
00000000
00001000
00000000
01000000
00010000
01000000
00000000
,
00001000
00000000
00010000
00001000
00010000
00000000
00000100
00000000
,
00001100
00000000
00000000
00000100
00000010
00000000
00000001
00000000
,
00000100
00000010
00001000
00000100
,
00000210
00000000
00010300
00001000
,
01000000
00000000
00010000
00000000
10010000
00000000
00010000
00100000
,
00010000
00100000
02000000
00000000
,
13000000
00000000
00100000
00000000
01010000
00000000
00010000
00100000
,
00010000
01000000
00002000
00000000
,
00013000
00000000
00000100
00000000
00001100
00000000
00000100
00000010
,
00000100
00000010
00000002
00000000
,
00000103
00000000
00000001
00000000
00001001
00000000
00001000
00000100
,
00002000
00000010
00000100
00003100
,
00000100
00000000
00010000
00000000
00012000
00000000
00000000
00100000
,
00000000
00103000
00000000
00000000
01020000
00000000
00000000
00100000
,
00000000
00130000
00000000
00000000
00012000
00000000
00000000
01000000
,
00000000
01003000
00000000
00000000
00010000
00000000
00000000
00000000
;

//---------------dance-double - ----------------
#NOTES:
     dance-double:
     :
     Easy:
     5:
     0.403,0.440,0.139,0.139,0.000:
00000000
00000000
00000000
00000000
,
00000000
00000000
00000000
00000000
,
00000000
00000000
00000000
00000000
,
10000000
00000000
00000000
01000000
00000000
00000000
00010000
00000000
,
00010000
00000000
00000000
01000000
00000000
00000000
10000000
00000000
,
00010000
00100000
00001000
00010000
,
00000010
00001000
00000100
00010000
,
00000100
00000000
00000100
00002000
00000000
00000000
00000001
00000000
,
00003001
00000000
00000001
00000200
00000000
00000000
00000310
00000000
,
00001010
00001000
00000100
00010000
,
00001000
00100000
00010000
00000000
,
10010000
10000000
01000000
00010000
,
01000000
00100000
00001000
00000000
,
00011000
00001000
00000100
00000001
,
00000100
00001000
00010000
00000000
,
00011000
00010000
01000000
10000000
,
01000000
00010000
00001000
00000010
,
00000110
00000000
00000100
00010000
,
00011000
00000000
00001000
01000000
,
00010000
00100000
01000000
10000000
,
01000000
00100000
00001000
00100000
,
01100000
00000000
00100000
00001000
,
00011000
00000000
00000010
00000100
,
00000110
00000100
00001000
00000010
,
00000100
00000001
00000010
00000100
,
00010000
00010000
00001000
00001000
,
00100000
00010000
01000000
00100000
,
20000000
00000000
01000000
00000000
,
30010000
00000000
00100000
00001000
,
00010000
00000100
00001000
00000010
,
00000010
00000000
00000100
00000001
,
00000200
00000010
00000000
00000001
,
00000301
00000000
00000010
00000100
,
00010000
00001000
00020000
00000000
,
00130000
10000000
02000000
00000000
,
03100000
00001000
00020000
00000000
,
00030100
00000010
00000002
00000000
,
00000103
00000010
00020000
00000000
,
00031000
01000000
00200000
00000000
,
10300000
11000000
00000000
00010000
,
01010000
00001000
00000000
00010000
,
00000100
00001000
00000020
00000000
,
00000130
00000001
00000020
00000000
,
00000130
00010000
00002000
00000000
,
01003000
00010000
00200000
00000000
,
01300000
10000000
00010000
01000000
,
00001000
00010000
00000100
00001000
,
00000002
00000000
00000000
00000000
,
00000020
00000000
00000033
00000000
,
00000110
00000100
00001000
00000010
,
00000100
00000001
00000010
00000000
,
00000100
00000000
00010000
00000000
,
00001000
00000000
01000000
00000000
,
00010000
00100000
10000000
00100000
,
00010000
01000000
00001000
00000000
,
00010000
00000000
00001000
00000000
,
00010000
00000000
00000010
00000000
,
00001000
00000100
00000001
00000000
,
00000100
00010000
00001000
00000000
,
01000000
00001000
00010000
00000000
,
00100000
00010000
00001000
00010000
,
01000000
10000000
00100000
00000000
,
01000000
00001000
00010000
00000000
,
00001000
00010000
00001000
00010000
,
00000100
00000100
00000010
00000001
,
00000100
00000001
00000100
00001000
,
00000100
00000010
00010000
00000000
,
00001000
01000000
00010000
00100000
,
10000000
00100000
00010000
00000000
,
01000000
10000000
01000000
00010000
,
00100000
00001000
00010000
00000000
,
00001000
00000100
00000001
00000100
,
00000010
00001000
00000100
00000000
,
00010000
00001000
00100000
00010000
,
01000000
00010000
00100000
00000000
,
00001000
00100000
00010000
01000000
,
00010000
00100000
00001000
00000000
,
00000100
00000010
00000001
00000010
,
00000100
00000001
00001000
00000000
,
00000100
00010000
00001000
00010000
,
00000010
00000100
00001000
00010000
,
00100000
01000000
00010000
00000000
,
00100000
01000000
10000000
00000000
,
00100000
00001000
00010000
00000000
,
00001000
00010000
00000010
00000000
,
00000100
00000001
00000010
00000000
,
00000100
00010000
00001000
00000000
,
00000010
00000100
00010000
00001000
,
00010000
00000000
01000000
00100000
,
00110000
00000000
01000000
00001000
,
00011000
00000000
00010000
00000100
,
00001100
00000000
00000100
00000010
,
00000011
00000000
00000000
00000000
;

//---------------dance-single - ----------------
#NOTES:
     dance-single:
     :
     Beginner:
     2:
     0.153,0.240,0.044,0.000,0.000: // measure 1
0000
0000
0000
0000
,  // measure 2
0000
0000
0000
0000
,  // measure 3
0000
0000
0000
0000
,  // measure 4
0000
0000
0000
0000
,  // measure 5
0000
0000
0000
0000
,  // measure 6
0001
0000
0001
0000
,  // measure 7
0001
0000
0000
0000
,  // measure 8
1000
0000
0000
0000
,  // measure 9
1100
0000
0000
0000
,  // measure 10
0110
0000
0010
0000
,  // measure 11
0010
0000
0000
0000
,  // measure 12
1001
0000
0001
0000
,  // measure 13
0001
0000
0000
0000
,  // measure 14
0110
0000
0010
0000
,  // measure 15
0010
0000
0000
0000
,  // measure 16
1001
0000
1000
0000
,  // measure 17
1000
0000
0000
0000
,  // measure 18
1000
0000
0000
0000
,  // measure 19
0001
0000
0000
0000
,  // measure 20
0010
0000
0010
0000
,  // measure 21
0010
0000
0000
0000
,  // measure 22
0001
0000
0000
0000
,  // measure 23
1000
0000
0000
0000
,  // measure 24
0010
0000
0010
0000
,  // measure 25
0010
0000
0000
0000
,  // measure 26
0100
0000
0001
0000
,  // measure 27
0100
0000
0000
0000
,  // measure 28
0001
0000
0000
0000
,  // measure 29
0001
0000
0000
0000
,  // measure 30
1000
0000
0100
0000
,  // measure 31
1000
0000
0000
0000
,  // measure 32
0010
0000
0000
0000
,  // measure 33
0010
0000
0000
0000
,  // measure 34
0100
0000
0001
0000
,  // measure 35
0100
0000
0000
0000
,  // measure 36
0001
0000
1000
0000
,  // measure 37
0001
0000
0000
0000
,  // measure 38
1000
0000
0100
0000
,  // measure 39
1000
0000
0000
0000
,  // measure 40
0010
0000
0000
0000
,  // measure 41
0010
0000
0000
0000
,  // measure 42
0100
0000
0001
0000
,  // measure 43
0100
0000
0000
0000
,  // measure 44
0001
0000
1000
0000
,  // measure 45
0001
0000
0000
0000
,  // measure 46
1000
0000
0000
0000
,  // measure 47
0100
0000
0000
0000
,  // measure 48
0010
0000
0010
0000
,  // measure 49
0010
0000
0000
0000
,  // measure 50
0001
0000
0001
0000
,  // measure 51
0001
0000
0000
0000
,  // measure 52
0100
0000
0100
0000
,  // measure 53
0100
0000
0000
0000
,  // measure 54
0001
0000
0000
0000
,  // measure 55
1000
0000
0000
0000
,  // measure 56
0100
0000
0100
0000
,  // measure 57
0100
0000
0000
0000
,  // measure 58
0010
0000
0010
0000
,  // measure 59
0001
0000
0000
0000
,  // measure 60
1000
0000
1000
0000
,  // measure 61
0010
0000
0000
0000
,  // measure 62
0100
0000
0000
0000
,  // measure 63
0001
0000
0000
0000
,  // measure 64
0010
0000
0000
0000
,  // measure 65
1000
0000
0000
0000
,  // measure 66
0100
0000
0100
0000
,  // measure 67
0100
0000
0000
0000
,  // measure 68
0001
0000
0000
0000
,  // measure 69
0001
0000
0000
0000
,  // measure 70
0010
0000
0010
0000
,  // measure 71
0010
0000
0000
0000
,  // measure 72
0100
0000
0000
0000
,  // measure 73
1000
0000
0000
0000
,  // measure 74
0001
0000
0100
0000
,  // measure 75
0001
0000
0000
0000
,  // measure 76
1000
0000
0100
0000
,  // measure 77
1000
0000
0000
0000
,  // measure 78
0001
0000
0000
0000
,  // measure 79
0001
0000
0000
0000
,  // measure 80
0010
0000
0100
0000
,  // measure 81
0010
0000
0000
0000
,  // measure 82
0001
0000
0001
0000
,  // measure 83
0001
0000
0000
0000
,  // measure 84
1000
0000
1000
0000
,  // measure 85
1000
0000
0000
0000
,  // measure 86
0001
0000
0001
0000
,  // measure 87
0001
0000
0000
0000
,  // measure 88
1000
0000
0000
0000
,  // measure 89
0010
0000
0000
0000
,  // measure 90
0100
0000
0001
0000
,  // measure 91
0100
0000
0000
0000
,  // measure 92
0001
0000
1000
0000
,  // measure 93
0001
0000
0000
0000
;
