#TITLE:Sense;
#SUBTITLE:;
#ARTIST:good-cool;
#TITLETRANSLIT:;
#SUBTITLETRANSLIT:;
#ARTISTTRANSLIT:;
#CREDIT:;
#BANNER:sense.png;
#BACKGROUND:sense-bg.png;
#LYRICSPATH:;
#CDTITLE:;
#MUSIC:Sense.ogg;
#OFFSET:-0.295;
#SAMPLESTART:22.375;
#SAMPLELENGTH:12.000;
#SELECTABLE:YES;
#BPMS:0.000=129.960;
#STOPS:;
#BGCHANGES:;

//---------------dance-single - ----------------
#NOTES:
     dance-single:
     :
     Hard:
     8:
     0.502,0.527,0.252,0.140,0.396:
0000
0000
0000
0000
,
0000
0000
0000
0000
,
1000
0000
0100
0000
1000
0000
0000
0010
0000
0100
0000
0000
0001
0000
1000
0000
,
1100
0110
0011
1002
,
0103
0000
0000
0010
0000
0000
1000
0000
0000
0000
0100
0000
0010
0000
0001
0000
,
0100
0000
0000
0010
0000
0000
1000
0000
0000
0001
0000
0000
0010
0000
0001
0000
,
0100
0000
0000
0010
0000
0000
1000
0000
0000
0000
0100
0000
0010
0000
0001
0000
,
0100
0000
0000
0010
0000
0000
1000
0000
0000
0001
0000
0000
0010
0000
0001
0000
,
0101
0000
0000
0000
0101
0000
0000
0000
0001
0000
1000
0000
0000
0001
0000
0000
,
0101
0000
0000
0000
0101
0000
0000
0000
0100
0000
0001
0000
0000
0010
0000
0000
,
1100
0000
0000
0000
1100
0000
0000
0000
1000
0000
0100
0000
0000
0010
0000
0000
,
0002
0000
0000
0203
0000
0000
0320
0000
0000
1030
0000
0000
1002
0000
0000
0000
,
0013
0100
0000
0010
0100
0000
0010
0100
0000
0010
0001
0000
0100
0000
0010
0000
,
1000
0100
0000
1000
0100
0000
1000
0100
0000
1000
0001
0000
0010
0000
0100
0000
,
1000
0010
0000
1000
0010
0000
1000
0010
0000
1000
0001
0000
0010
0000
0100
0000
,
0010
0001
0000
0010
0001
0000
0010
0001
0000
0010
0100
0000
1000
0000
0010
0000
,
1000
0000
0000
0100
0000
0000
0120
0000
0000
0000
0031
0000
0000
0100
0001
0000
,
0010
0000
0000
0100
0000
0000
2100
0000
0000
3100
0000
0010
0000
0100
0000
0000
,
1000
0000
0000
0010
0000
0000
0210
0000
0000
0000
0301
0000
0000
0010
0001
0000
,
0100
0000
0000
0010
0000
0000
2010
0000
0000
3100
0000
0010
0000
0001
0000
0000
,
0100
0010
0100
0100
0001
0000
0011
0000
,
0100
0000
0000
0010
0000
0000
0100
0000
1100
0000
0000
0000
1100
0000
0000
0000
,
1000
0001
1000
1000
0010
0000
1010
0000
,
0101
0000
0000
0000
0000
0000
0000
0000
0000
0000
0001
0000
1000
0100
1000
0000
,
0001
0000
0010
0000
0100
0000
1000
0000
0000
0001
0000
0000
0010
0000
0001
0000
,
1000
0000
0100
0000
0010
0000
0001
0000
0000
1000
0000
0000
0100
0000
1000
0000
,
0001
0000
0000
0000
0101
0000
0000
0000
0001
0000
0000
1000
0100
0000
1000
0000
,
0001
0000
0000
0000
0101
0000
0000
0000
0001
0000
0000
1000
0100
0000
1000
0000
,
0001
0000
0010
0000
0100
0000
1000
0000
0000
0001
0000
0000
0010
0000
0001
0000
,
1000
0000
0100
0000
0010
0000
0001
0000
0000
1000
0000
0000
0100
0000
1000
0000
,
0010
0000
0000
0000
0110
0000
0000
0000
0100
0000
0000
0001
0010
0000
0000
0000
,
0100
0000
0110
0000
0100
0010
0001
0001
,
1000
0000
0000
0100
0000
0000
1000
0000
0000
0001
0000
0000
1000
0000
0010
0000
,
1000
0000
0000
0100
0000
0000
1000
0000
0000
0001
0000
0000
0010
0000
0100
0000
,
1000
0000
0000
0100
0000
0000
1000
0000
0000
0010
0000
0000
0100
0000
0001
0000
,
1000
0000
0000
0100
0000
0000
1000
0000
0000
0001
0000
0010
0100
0000
0010
0000
,
0001
0000
1000
0100
0001
0100
2000
0000
,
3001
0100
1000
0100
0002
0000
1003
0100
,
0001
0100
1000
0010
0001
0010
1000
0000
,
0002
0200
0003
0010
,
0301
0000
0100
0000
0001
0000
0000
0100
0000
0000
0010
0000
1000
0000
0100
0000
,
0010
0000
0001
0000
0010
0000
0000
0100
0000
0000
1000
0000
0010
0000
0100
0000
,
0001
0000
0010
0000
0001
0000
0000
0100
0000
0000
0010
0000
1000
0000
0100
0000
,
0010
0000
0001
0000
0010
0000
0000
0100
0000
0000
1000
0000
0010
0000
0100
0000
,
0001
0000
1000
0000
0100
0000
1000
0000
0001
0010
0000
0000
1001
0000
0000
0000
,
0001
0000
0000
0010
0000
0000
0100
0000
0000
1000
0000
0000
0001
0000
0010
0000
,
0100
0000
1000
0000
0001
0000
0100
0000
0010
1000
0000
0000
1001
0000
0000
0000
,
0001
0000
0000
0010
0000
0000
0100
0000
0000
1000
0000
0000
0001
0000
0010
0000
,
0022
0000
0000
0000
,
0000
0000
0000
0033
,
0001
0010
0000
0001
0010
0000
0001
0010
0000
0001
1000
0000
0100
0000
0010
0000
,
0001
0100
0000
0001
0100
0000
0001
0100
0000
0001
0010
0000
0100
0000
1000
0000
,
0010
0100
0000
0010
0100
0000
0010
0100
0000
0010
1000
0000
0100
0000
0010
0000
,
0001
1000
0000
0001
0010
0000
0001
1000
0000
0010
1000
0000
0001
0000
0001
0000
;

//---------------dance-single - ----------------
#NOTES:
     dance-single:
     :
     Medium:
     6:
     0.370,0.402,0.130,0.186,0.163:
0000
0000
0000
0000
,
0000
0000
0000
0000
,
1100
0000
0000
0000
1000
0000
0000
0010
0000
0000
0000
0000
0100
0000
0000
0000
,
0101
0110
1010
1001
,
1000
0000
0000
0100
0000
0000
1000
0000
0000
0000
0001
0000
0100
0000
0000
0000
,
0010
0000
0000
1000
0000
0000
0010
0000
0000
0100
0000
0000
0001
0000
0000
0000
,
0010
0000
0000
0100
0000
0000
1000
0000
0000
0000
0100
0000
0010
0000
0000
0000
,
0001
0000
0000
0100
0000
0000
0010
0000
0000
0100
0000
0000
0001
0000
0000
0000
,
1100
0000
0000
0000
0100
0000
0000
0000
1000
0000
0001
0000
0000
0100
0000
0000
,
0010
0000
0000
0000
0010
0000
0000
0000
0010
0000
1000
0000
0000
0001
0000
0000
,
0010
0000
0000
0000
0010
0000
0000
0000
0100
0000
1000
0000
0000
0100
0000
0000
,
0010
0000
0000
0010
0000
0000
0010
0000
0000
0010
0000
0000
0020
0000
0000
0000
,
0031
0000
0100
0000
1000
0000
0100
0001
,
0010
0000
0100
0000
1000
0000
0001
0010
,
0100
0000
0001
0000
0100
0000
0010
0001
,
1000
0000
0010
0000
0100
0000
0001
1000
,
0100
0000
1000
0002
0000
0100
0000
0103
,
0010
0000
1000
0200
0000
0010
0000
0310
,
0001
0000
1000
0020
0000
0100
0000
0130
,
0001
0000
0000
0010
0000
0000
0200
0000
0000
0000
1000
0000
0000
0000
1300
0000
,
0100
1000
0100
0000
0010
0000
0001
0000
,
1000
0000
0000
0010
0000
0000
0100
0000
0002
0000
0000
0000
2003
0000
0000
0000
,
3001
0010
0001
0000
1000
0000
0001
0000
,
0201
0000
0000
0000
0000
0301
1000
1000
,
0001
0000
0010
0000
0100
0000
1000
0100
,
1000
0000
0100
0000
0010
0000
0001
0100
,
0001
0000
0000
0010
0000
0000
0010
0000
0000
0100
0000
0000
0000
0000
0000
0000
,
1000
0000
0000
0100
0000
0000
0100
0000
0000
0010
0000
0000
0000
0000
0000
0000
,
0001
0000
1000
0000
0100
0000
0010
0001
,
0010
0000
0100
0000
1000
0000
0001
0100
,
0001
0000
0000
0010
0000
0000
0010
0000
0000
0100
0000
0000
0000
0000
0000
0000
,
1000
0000
0000
0100
0000
0000
0100
0000
0000
0010
0000
0000
0002
0000
0000
0000
,
0103
0000
0000
0001
0000
0000
0100
0000
0000
0010
0000
0000
0100
0000
0000
0000
,
0001
0000
0000
0010
0000
0000
0001
0000
0000
1000
0000
0000
0001
0000
0000
0000
,
1000
0000
0000
0100
0000
0000
1000
0000
0000
0001
0000
0000
1000
0000
0000
0000
,
2000
0000
0000
0100
0000
0000
0100
0000
0000
0000
0000
0000
3100
0000
0100
0000
,
0010
0000
0001
1000
0002
0000
0013
0000
,
0001
0000
0002
0000
0013
0000
0001
1000
,
0002
0000
1003
0001
2000
0000
3010
0000
,
0200
0001
0320
0000
,
1030
0100
1000
0000
0001
0000
0010
0000
,
0100
1000
0100
0000
0010
0000
0001
0000
,
1000
0100
1000
0000
0001
0000
0010
0000
,
0100
1000
0100
0000
0010
0000
0010
0000
,
0100
0000
0000
1000
0000
0000
0001
0000
0100
0000
0000
0000
0010
0000
0000
0000
,
1000
0000
0000
0100
0000
0000
0010
0000
0000
0001
0000
0000
1000
0000
0000
0000
,
0001
0000
0000
0100
0000
0000
0001
0000
1000
0000
0000
0000
0010
0000
0000
0000
,
1000
0000
0000
0100
0000
0000
0010
0000
0000
0001
0000
0000
0010
0000
0000
0000
,
2002
0000
0000
0000
,
0000
0000
0000
3003
,
0101
0000
0101
0000
0001
0000
0100
0010
,
1010
0000
1010
0000
0010
0000
1000
0100
,
1100
0000
1100
0000
0100
0000
0010
0001
,
0020
0000
0230
0000
0310
0001
1000
0001
;

//---------------dance-single - ----------------
#NOTES:
     dance-single:
     :
     Easy:
     4:
     0.336,0.402,0.093,0.252,0.172:
0000
0000
0000
0000
,
0000
0000
0000
0000
,
0000
0000
0000
0000
,
1000
0100
0010
0001
,
1000
0100
0002
0103
,
1000
0010
0100
0010
,
1000
0001
0020
0130
,
1000
0001
0100
0010
,
2010
3020
1030
0100
,
0021
0032
0013
0100
,
2100
3200
1300
0100
,
0010
0000
0000
0001
0000
0000
0010
0000
0000
0001
0000
0000
0020
0000
0000
0000
,
0031
0000
0000
0100
0000
0000
0001
0000
0000
0100
0000
0000
0001
0000
0000
0000
,
1000
0000
0000
0100
0000
0000
1000
0000
0000
0100
0000
0000
1000
0000
0000
0000
,
0010
0000
0000
0100
0000
0000
0010
0000
0000
0100
0000
0000
0010
0000
0000
0000
,
1000
0000
0000
0010
0000
0000
0100
0000
0000
0001
0000
0000
1000
0000
0000
0000
,
0001
0000
0000
0001
0000
0000
2000
0000
0000
0000
0000
0000
3001
0000
0000
0000
,
0010
0000
0000
0010
0000
0000
0200
0000
0000
0000
0000
0000
1300
0000
0000
0000
,
0010
0000
0000
0010
0000
0000
2000
0000
0000
0000
0000
0000
3001
0000
0000
0000
,
0010
0000
0000
0100
0000
0000
2100
0000
0000
0000
0000
0000
3100
0000
0000
0000
,
0010
0010
0001
0001
,
1000
0000
0000
0100
0000
0000
0010
0000
0200
0000
0000
0000
2300
0000
0000
0000
,
3001
0001
0100
0100
,
0020
0000
0000
1030
,
0001
0000
0010
0000
0100
0000
1000
1000
,
0001
0000
0010
0000
0100
0000
1000
0001
,
1000
0100
0010
0100
,
0001
0100
0010
0100
,
1000
0000
0100
0000
0010
0000
0001
0001
,
1000
0000
0100
0000
0010
0000
0001
0001
,
1000
0010
0100
0010
,
0001
0010
0100
0010
,
1000
0000
0000
0001
0000
0000
0100
0000
0000
0001
0000
0000
1000
0000
0000
0000
,
0001
0000
0000
1000
0000
0000
0100
0000
0000
1000
0000
0000
0002
0000
0000
0000
,
1003
0000
0000
0010
0000
0000
0100
0000
0000
0010
0000
0000
1000
0000
0000
0000
,
0001
0000
0000
0010
0000
0000
0100
0000
0000
0010
0000
0000
0001
0000
0000
0000
,
0100
1020
0100
0031
,
1020
0100
0031
1020
,
0130
0102
0010
1003
,
2002
0000
0000
0000
0000
0000
0000
0000
0000
0003
0000
0000
3000
0000
0000
0000
,
0001
0000
0000
0100
0000
0000
0000
0000
0010
0000
0000
0000
1000
0000
0000
0000
,
1000
0000
0000
0100
0000
0000
0000
0000
0010
0000
0000
0000
0001
0000
0000
0000
,
1000
0000
0000
0100
0000
0000
0000
0000
0001
0000
0000
0000
0100
0000
0000
0000
,
1000
0000
0000
0010
0000
0000
0000
0000
0001
0000
0000
0000
0010
0000
0000
0000
,
1000
0100
1000
0100
,
0010
0000
0000
0001
0000
0000
0100
0000
0000
0010
0000
0000
1000
0000
0000
0000
,
0001
0010
0001
0010
,
0100
0000
0000
1000
0000
0000
0010
0000
0000
1000
0000
0000
0100
0000
0000
0000
,
2002
0000
0000
0000
,
0000
0000
0000
3003
,
0001
0000
0000
0100
0000
0000
1000
0000
0000
0100
0000
0000
0001
0000
1000
0000
,
0001
0000
0000
0010
0000
0000
1000
0000
0000
0010
0000
0000
0001
0000
0000
0000
,
1000
0000
0000
0100
0000
0000
0001
0000
0000
0100
0000
0000
1000
0000
0001
0000
,
2000
0000
3200
0000
1300
0001
1000
0001
;

//---------------dance-double - ----------------
#NOTES:
     dance-double:
     :
     Medium:
     7:
     0.377,0.377,0.075,0.242,0.117: // measure 1
00000000
00000000
00000000
00000000
,  // measure 2
00000000
00000000
00000000
00000000
,  // measure 3
10010000
00000000
00000000
00000000
00010000
00000000
00000000
01000000
00000000
00000000
00000000
00000000
00010000
00000000
00100000
00000000
,  // measure 4
00002000
00003200
00000320
00000032
,  // measure 5
00000013
00000000
00000000
00001000
00000000
00000000
00000100
00000000
00000000
00000000
00010000
00000000
00001000
00000000
00000000
00000000
,  // measure 6
00100000
00000000
00000000
00010000
00000000
00000000
01000000
00000000
00000000
00010000
00000000
00000000
00100000
00000000
00000000
00000000
,  // measure 7
00100000
00000000
00000000
01000000
00000000
00000000
10000000
00000000
00000000
00000000
01000000
00000000
00100000
00000000
00000000
00000000
,  // measure 8
00010000
00000000
00000000
01000000
00000000
00000000
00001000
00000000
00000000
01000000
00000000
00000000
00010000
00000000
01000000
00000000
,  // measure 9
00020000
00000000
00000000
00000000
00230000
00000000
00000000
00000000
00301000
00000000
00010000
00000000
00000000
00000100
00000000
00000000
,  // measure 10
00002000
00000000
00000000
00000000
00003020
00000000
00000000
00000000
00000031
00000000
00000010
00000000
00000000
00000100
00000000
00000000
,  // measure 11
00000002
00000000
00000000
00000000
00000023
00000000
00000000
00000000
00000130
00000000
00010000
00000000
00000000
00001000
00000000
00000000
,  // measure 12
00020000
00001000
00000100
00000010
,  // measure 13
00130000
00000000
10000000
00000000
01000000
00000000
00100000
00010000
,  // measure 14
00100000
00000000
01000000
00000000
00100000
00000000
00001000
00010000
,  // measure 15
00001000
00000000
00000010
00000000
00000001
00000000
00000001
00001000
,  // measure 16
00000002
00000203
00002300
00023000
,  // measure 17
00130000
00000000
00000000
10000000
00000000
00000000
00020000
00000000
00000000
00000000
00130000
00000000
00000000
00000000
00010000
00000000
,  // measure 18
01000000
00000000
00000000
00001000
00000000
00000000
00020000
00000000
00000000
00000000
00030010
00000000
00000000
00000000
00000100
00000000
,  // measure 19
00000001
00000000
00000000
00000010
00000000
00000000
00000002
00000000
00000000
00000000
00000103
00000000
00000000
00000000
00000010
00000000
,  // measure 20
00001000
00000000
00000000
00000100
00000000
00000000
00000020
00000000
00000000
00000000
00000100
00000000
00000000
00000000
00000031
00000000
,  // measure 21
00001000
00000000
00001010
00000000
00000010
00001000
00000100
00000000
,  // measure 22
00010000
00000000
00000000
00001000
00000000
00000000
00010000
00000000
00001000
00000000
00000000
00000000
00001000
00000000
00000000
00000000
,  // measure 23
00100000
00000000
00110000
00000000
00010000
10000000
00010000
00000000
,  // measure 24
00210000
00000000
00000000
00000000
00000000
01000000
01300000
00000000
,  // measure 25
10000000
00000000
01000000
00100000
00010000
00000000
01000000
00000000
,  // measure 26
00001000
00000000
00000100
00000010
00000001
00000000
00000010
00000000
,  // measure 27
00001000
00000000
00001100
00000000
00000100
00000010
00000100
00000000
,  // measure 28
00010000
00000000
00011000
00000000
00001000
00010000
00001000
00000000
,  // measure 29
00100000
00000000
00010000
00000000
00100000
00000000
00010000
00000000
00000000
01000000
00000000
00000000
01000000
00000000
00000000
00000000
,  // measure 30
00001000
00000000
00010000
00000000
00001000
00000000
00010000
00000000
00000000
00000010
00000000
00000000
00000010
00000000
00000000
00000000
,  // measure 31
00001000
00000000
01000000
00000000
00100000
00010000
00100000
00000000
,  // measure 32
00001000
00000000
00000100
00000000
00000010
00001000
00000010
00000000
,  // measure 33
00001000
00000000
00000100
00000000
00000010
00000000
00000001
00000100
,  // measure 34
00001000
00000000
00010000
00000000
00100000
00000000
10000000
01000000
,  // measure 35
00010000
00000000
00001000
00000000
00000010
00000000
00000001
00000100
,  // measure 36
00000002
00000000
00000000
00000000
00001000
00000000
00000000
00000000
00000013
00000000
00000000
00000010
00000001
00000000
00001000
00000000
,  // measure 37
00000001
00000000
00000010
00000100
00000010
00000000
00002000
00000000
,  // measure 38
00103000
01000000
00100000
00000000
00020000
00000000
00030010
00000100
,  // measure 39
00000010
00000000
00000100
00001000
00000100
00000000
00020000
00000000
,  // measure 40
00031000
00000000
00000000
00000000
,  // measure 41
00100000
00010000
00100000
00000000
01000000
00000000
10000000
00000000
,  // measure 42
00010000
01000000
00001000
00000000
00010000
00000000
00000100
00000000
,  // measure 43
00010000
00000010
00010000
00000000
00000100
00000000
00001000
00000000
,  // measure 44
00000001
00000000
00000010
00000000
00000001
00000000
00000000
00000100
00000000
00000000
00000100
00000000
00000001
00000000
00001000
00000000
,  // measure 45
00000001
00000000
00000000
00000010
00000000
00000000
00000100
00000000
00001000
00000000
00000000
00000000
00010000
00000000
00000000
00000000
,  // measure 46
00001000
00000000
00000000
00010000
00000000
00000000
00100000
00000000
00000000
01000000
00000000
00000000
10000000
00000000
00000000
00000000
,  // measure 47
10000000
00000000
00000000
01000000
00000000
00000000
00100000
00000000
00010000
00000000
00000000
00000000
00001000
00000000
00000000
00000000
,  // measure 48
00010000
00000000
00000000
00001000
00000000
00000000
00000100
00000000
00000000
00000010
00000000
00000000
00000001
00000000
00000000
00000000
,  // measure 49
00002020
00000000
00000000
00000000
,  // measure 50
00000000
00000000
00000000
00003030
,  // measure 51
00001000
00000000
00000100
00000000
00000010
00000000
00000100
00010000
,  // measure 52
00001000
00000000
01000000
00000000
00100000
00000000
01000000
00001000
,  // measure 53
00010000
00000000
00000100
00000000
00000001
00000000
00000100
00010000
,  // measure 54
00001000
00000000
01000000
00000000
10000000
00000000
01000000
01010000
;

//---------------dance-double - ----------------
#NOTES:
     dance-double:
     :
     Easy:
     5:
     0.345,0.402,0.084,0.242,0.126: // measure 1
00000000
00000000
00000000
00000000
,  // measure 2
00000000
00000000
00000000
00000000
,  // measure 3
00000001
00000010
00000100
00010000
,  // measure 4
00011000
00110000
00011000
00010010
,  // measure 5
00000010
00001000
00020000
00031000
,  // measure 6
00000010
00000100
00000001
00000010
,  // measure 7
00001000
01000000
00200000
00310000
,  // measure 8
01000000
00100000
10000000
00010000
,  // measure 9
00120000
00000000
00000000
00000000
00230000
00000000
00000000
00000000
00300000
00000000
00001000
00000000
00000000
00001000
00000000
00000000
,  // measure 10
00012000
00000000
00000000
00000000
00023000
00000000
00000000
00000000
00000000
00000000
00030010
00000000
00000000
00000010
00000000
00000000
,  // measure 11
00000120
00000000
00000000
00000000
00000230
00000000
00000000
00000000
00000000
00000000
00000301
00000000
00000000
00000001
00000000
00000000
,  // measure 12
00001000
00000000
00000100
00000000
00000010
00000000
00000001
00000001
,  // measure 13
00001000
00000000
00000100
00000000
00010000
00000000
00001000
00001000
,  // measure 14
00100000
00000000
00001000
00000000
00010000
00000000
00000100
00000100
,  // measure 15
00000010
00000000
00000100
00000000
00010000
00000000
00001000
00001000
,  // measure 16
01000000
00000000
00001000
00000000
00010000
00000000
00001000
00001000
,  // measure 17
00100000
00000000
00000000
00010000
00000000
00000000
00200000
00000000
00000000
00000000
00000000
00000000
01300000
00000000
00000000
00000000
,  // measure 18
10000000
00000000
00000000
00010000
00000000
00000000
02000000
00000000
00000000
00000000
00000000
00000000
03001000
00000000
00000000
00000000
,  // measure 19
00100000
00000000
00000000
00001000
00000000
00000000
00020000
00000000
00000000
00000000
00000000
00000000
00030010
00000000
00000000
00000000
,  // measure 20
00000100
00000000
00000000
00000001
00000000
00000000
00002000
00000000
00000000
00000000
00000100
00000000
00003100
00000000
00000000
00000000
,  // measure 21
00000010
00000001
00000100
00000100
,  // measure 22
00000010
00000000
00000000
00000100
00000000
00000000
00000010
00000000
00001000
00000000
00000000
00000000
00000100
00000000
00000000
00000000
,  // measure 23
00010000
00001000
00100000
00010000
,  // measure 24
10020000
00000000
00000000
10030000
,  // measure 25
10000000
00000000
00010000
00000000
00001000
00000000
00000001
00000001
,  // measure 26
00000001
00000000
00001000
00000000
00010000
00000000
10000000
10000000
,  // measure 27
00010000
00100000
00001000
00010000
,  // measure 28
00000010
00010000
00001000
00010000
,  // measure 29
00001000
00000000
00000001
00000000
00001000
00000000
00010000
00001000
,  // measure 30
00010000
00000000
10000000
00000000
00010000
00000000
00001000
00010000
,  // measure 31
00001000
00100000
01000000
10000000
,  // measure 32
00010000
00100000
01000000
10000000
,  // measure 33
00010000
00000000
00000000
00100000
00000000
00000000
00001000
00000000
00000000
00010000
00000000
00000000
00001000
00000000
00000000
00000000
,  // measure 34
00010000
00000000
00000000
00000010
00000000
00000000
00001000
00000000
00000000
00000100
00000000
00000000
00001000
00000000
00000000
00000000
,  // measure 35
00000001
00000000
00000000
00000010
00000000
00000000
00000100
00000000
00000000
00000010
00000000
00000000
00000100
00000000
00000000
00000000
,  // measure 36
00001000
00000000
00000000
00000100
00000000
00000000
00010000
00000000
00000000
00000100
00000000
00000000
00001000
00000000
00000000
00000000
,  // measure 37
00000100
00000000
00000000
00000000
00000010
00000000
00000000
00000000
00002000
00000000
00000000
00000000
00013000
00000000
00000000
00001000
,  // measure 38
01000000
00020000
00130000
00010000
,  // measure 39
01000000
10000000
02000000
03010000
,  // measure 40
00200000
00000000
00002000
00300000
,  // measure 41
00013000
00000000
00001000
00000000
00000100
00000000
00000010
00000001
,  // measure 42
00000010
00001000
00000100
00010000
,  // measure 43
00001000
00000000
00010000
00000000
01000000
00000000
10000000
00010000
,  // measure 44
10000000
00010000
01000000
00100000
,  // measure 45
00200000
10300000
20000000
31000000
,  // measure 46
00100000
00000000
00000000
00001000
00000000
00000000
00010000
00000000
00000000
00000100
00000000
00000000
00001000
00000000
00000000
00000000
,  // measure 47
00000002
00000013
00000002
00000103
,  // measure 48
00000010
00000000
00000000
00010000
00000000
00000000
00001000
00000000
00000000
00010000
00000000
00000000
00010000
00000000
00000000
00000000
,  // measure 49
00012000
00000000
00000000
00000000
,  // measure 50
00000000
00000000
00000000
00000000
,  // measure 51
00103000
00000000
00000000
01000000
00000000
00000000
10000000
00000000
00000000
01000000
00000000
00000000
00100000
00000000
00010000
00000000
,  // measure 52
00100000
00000000
00000000
00001000
00000000
00000000
00010000
00000000
00000000
00000100
00000000
00000000
00001000
00000000
00000100
00000000
,  // measure 53
00001000
00000000
00000000
00000010
00000000
00000000
00000100
00000000
00000000
00000001
00000000
00000000
00000100
00000000
00000010
00000000
,  // measure 54
00002000
00000000
00003200
00000000
00020300
00000000
00031000
00010000
;

//---------------dance-double - Copied from----------------
#NOTES:
     dance-double:
     Copied from:
     Hard:
     8:
     0.501,0.527,0.224,0.140,0.317:
00000000
00000000
00000000
00000000
,
00000000
00000000
00000000
00000000
,
10000000
00000000
00010000
00000000
00100000
00000000
00000000
00001000
00000000
00010000
00000000
00000000
00000010
00000000
00000100
00000000
,
00001100
00000101
00000011
00000210
,
00001300
00000000
00000000
00000010
00000000
00000000
00001000
00000000
00000000
00000000
00000010
00000000
00000100
00000000
00001000
00000000
,
00010000
00000000
00000000
00100000
00000000
00000000
10000000
00000000
00000000
01000000
00000000
00000000
00100000
00000000
00001000
00000000
,
00010000
00000000
00000000
00000010
00000000
00000000
00000001
00000000
00000000
00000000
00000010
00000000
00000100
00000000
00001000
00000000
,
00010000
00000000
00000000
00100000
00000000
00000000
01000000
00000000
00000000
00010000
00000000
00000000
00100000
00000000
01000000
00000000
,
11000000
00000000
00000000
00000000
01010000
00000000
00000000
00000000
00010000
00000000
01000000
00000000
00010000
00100000
00000000
00000000
,
00011000
00000000
00000000
00000000
00011000
00000000
00000000
00000000
00001000
00000000
00000100
00000000
00000001
00000100
00000000
00000000
,
00000110
00000000
00000000
00000000
00000110
00000000
00000000
00000000
00000010
00000000
00001000
00000000
00000100
00000010
00000000
00000000
,
00000001
00000010
00001000
00010000
00001000
00100000
00010000
00000000
,
00010000
00100000
10000000
00100000
00001000
01000000
00010000
00100000
,
00001000
00010000
00001000
00000100
00000001
00000100
00001000
00100000
,
00010000
10000000
00010000
01000000
10000000
01000000
00001000
00010000
,
00001000
00000010
00001000
00010000
00001000
00000100
00000001
00000100
,
00000010
00000000
00000000
00010000
00000000
00000000
00021000
00000000
00000000
00000000
01030000
00000000
00100000
00000000
00010000
00000000
,
01000000
00000000
00000000
00100000
00000000
00000000
20100000
00000000
00000000
00000000
31000000
00000000
00100000
00000000
00001000
00000000
,
00010000
00000000
00000000
00001000
00000000
00000000
00012000
00000000
00000000
00000000
00003010
00000000
00000001
00000000
00000100
00000000
,
00000010
00000000
00000000
00001000
00000000
00000000
00002010
00000000
00000000
00000000
00003100
00000000
00010000
00000000
00001000
00000000
,
01000000
00000000
00100000
00000000
01000000
00000000
01000000
00000000
00010000
00100000
00010000
00000000
01000000
00000000
00100000
00000000
,
10000000
00000000
00000000
01000000
00000000
00000000
00100000
00000000
01100000
00000000
00000000
00000000
00011000
00000000
00000000
00000000
,
00010000
00000000
00000100
00000000
00001000
00000000
00001000
00000000
00000100
00000010
00000100
00000000
00000010
00000000
00000001
00000000
,
00000101
00000000
00000000
00000000
00000000
00000000
00000000
00000000
00000000
00000000
00000001
00000000
00001000
00000100
00001000
00000000
,
00000001
00000000
00000010
00000000
00001000
00000000
00020000
00000000
00000000
00130000
00000000
00000000
10000000
00000000
00010000
00000000
,
10000000
00000000
01000000
00000000
00010000
00000000
00002000
00000000
00000000
00003100
00000000
00000000
00000001
00000000
00001000
00000000
,
00000001
00000000
00000000
00000000
00000011
00000000
00000000
00000000
00000010
00000100
00000000
00000000
00001100
00000000
00000000
00000000
,
00000100
00000000
00000000
00000000
00011000
00000000
00000000
00000000
00001000
00100000
00000000
00100000
00010000
00000000
01000000
00000000
,
00010000
00000000
00100000
00000000
10000000
00000000
02000000
00000000
00000000
03010000
00000000
00000000
00100000
00000000
00010000
00000000
,
00001000
00000000
00000100
00000000
00000001
00000000
00000020
00000000
00000000
00001030
00000000
00000000
00000100
00000000
00001000
00000000
,
00000001
00000000
00000000
00000000
00001001
00000000
00000000
00000000
00001000
00000100
00000000
00000000
00011000
00000000
00000000
00000000
,
00100000
00000000
00000000
00000000
10010000
00000000
00000000
00000000
00010000
01000000
00000000
00000000
00001000
00000000
00100000
00000000
,
00010000
00000000
00000000
01000000
00000000
00000000
00010000
00000000
00000000
00100000
00000000
00000000
00001000
00000000
00010000
00000000
,
00000010
00000000
00000000
00000100
00000000
00000000
00001000
00000000
00000000
00000100
00000000
00000000
00000010
00000000
00010000
00000000
,
00001000
00000000
00000000
00100000
00000000
00000000
00010000
00000000
00000000
00100000
00000000
00000000
10000000
00000000
00100000
00000000
,
01000000
00000000
00000000
10000000
00000000
00000000
00010000
00000000
00000000
01000000
00000000
00000000
00010000
00000000
00100000
00000000
,
00002000
00000000
01003000
00100000
01000000
00001000
00020000
00000000
,
00030100
00000010
00000100
00010000
00002000
00000000
01003000
00100000
,
01000000
00001000
00100000
00001000
00010000
00001000
00100000
00000000
,
00002000
00000000
00000000
00003000
,
00010000
00000000
00000100
00010000
00000000
00000000
00000000
00001000
00000000
00000000
00100000
00000000
00010000
00000000
00100000
00000000
,
00001000
00000000
01000000
00001000
00000000
00000000
00000000
00100000
00000000
00000000
00001000
00000000
00010000
00000000
00000100
00000000
,
00000010
00000000
00000001
00000010
00000000
00000000
00000000
00000100
00000000
00000000
00010000
00000000
00001000
00000000
00010000
00000000
,
00100000
00000000
10000000
00100000
00000000
00000000
00000000
01000000
00000000
00000000
00100000
00000000
00010000
00000000
00001000
00000000
,
00010000
00000000
00000000
00100000
00000000
00000000
10000000
00000000
00010000
00100000
00010000
00000000
01000000
00000000
00100000
00000000
,
00010000
00000000
00000000
00001000
00000000
00000000
00000100
00000000
00000000
00000010
00000000
00000000
00000001
00000000
00000010
00000000
,
00000100
00000000
00000000
00000001
00000000
00000000
00000010
00000000
00000100
00001000
00000100
00000000
00000010
00000000
00000100
00000000
,
00001000
00000000
00000000
00010000
00000000
00000000
00100000
00000000
00000000
01000000
00000000
00000000
10000000
00000000
01000000
00000000
,
20020000
00000000
00000000
00000000
,
00000000
00000000
00000000
30030000
,
00010000
00100000
00000000
00010000
00100000
00000000
00001000
00010000
00000000
00001000
00010000
00000000
00000010
00000000
00001000
00000000
,
00000100
00000010
00000000
00000100
00000010
00000000
00000001
00000100
00000000
00000001
00000100
00000000
00000010
00000000
00001000
00000000
,
00000100
00010000
00000000
00000100
00010000
00000000
00001000
00010000
00000000
00001000
00010000
00000000
00001000
00000000
01000000
00000000
,
00100000
10000000
00000000
00100000
10000000
00000000
00010000
00100000
00000000
00010000
00100000
00000000
00001000
00000000
00001000
00000000
;

//---------------dance-single - ----------------
#NOTES:
     dance-single:
     :
     Beginner:
     2:
     0.169,0.201,0.047,0.019,0.000:
0000
0000
0000
0000
,
0000
0000
0000
0000
,
0010
0000
0000
0000
,
1000
1000
1000
1000
,
0001
0000
0001
0000
,
1000
0000
1000
0000
,
0010
0000
0010
0000
,
0100
0000
0100
0000
,
0001
0001
0000
0000
,
0010
0010
0000
0000
,
0100
0100
0000
0000
,
2000
0000
0000
0000
,
3100
0100
0100
0000
,
0100
0100
0100
0000
,
0010
0010
0010
0000
,
0001
1000
0001
1000
,
0001
0000
0100
0000
,
0001
0000
0100
0000
,
1000
0000
0100
0000
,
1000
0000
0100
0000
,
0010
0010
0010
0000
,
1000
0000
1000
0000
,
0001
0001
0001
0000
,
0010
0000
0000
0100
,
1100
0000
0000
1000
,
1001
0000
0000
0001
,
0100
0000
0010
0000
,
1000
0000
0001
0000
,
0101
0000
0000
0001
,
1001
0000
0000
1000
,
1000
0000
0010
0000
,
0100
0000
0001
0000
,
1000
0000
1000
0000
,
0001
0000
0001
0000
,
0010
0000
0010
0000
,
0100
0000
0000
0100
,
0100
1000
1000
0000
,
1000
1000
1000
0000
,
0001
1000
1000
1000
,
0002
0000
0000
0000
,
0013
0000
0100
0000
,
0010
0000
0100
1000
,
0100
0000
0010
0000
,
0100
0000
0010
0001
,
1000
0000
1000
0000
,
0001
0001
0001
0000
,
0010
0000
0010
0000
,
0100
0100
0100
0000
,
1001
0000
0000
0000
,
0000
0000
0000
0000
,
0001
0001
0000
0010
,
0001
0001
0000
0001
,
1000
1000
0000
0010
,
1000
0000
1000
0000
0000
0000
1000
0001
;
