#TITLE:Saturn;
#SUBTITLE:"Pulsemix" Special;
#ARTIST:Mr.Saturn;
#TITLETRANSLIT:;
#SUBTITLETRANSLIT:;
#ARTISTTRANSLIT:;
#CREDIT:;
#BANNER:Saturn (Pulsemix Special).png;
#BACKGROUND:Saturn (Pulsemix Special)-bg.png;
#LYRICSPATH:;
#CDTITLE:;
#MUSIC:Saturn (Pulsemix Special).ogg;
#OFFSET:-0.117;
#SAMPLESTART:26.398;
#SAMPLELENGTH:15.000;
#SELECTABLE:YES;
#BPMS:0.000=155.000,132.000=77.500,148.000=155.000;
#STOPS:;
#BGCHANGES:;

//---------------dance-single - ----------------
#NOTES:
     dance-single:
     :
     Challenge:
     10:
     0.682,0.733,0.106,0.460,0.535: // measure 1
0000
0000
0000
0000
,  // measure 2
0000
0000
0000
0000
,  // measure 3
0000
0000
0000
0000
,  // measure 4
0001
1000
0000
0000
0010
0000
0000
0000
,  // measure 5
0100
0000
0000
0000
0000
0000
0000
0000
0010
0000
0000
0000
1000
0100
1000
0000
,  // measure 6
0100
1000
0000
0000
0010
0000
0000
0000
,  // measure 7
0100
0000
0010
0000
,  // measure 8
0100
0001
0000
0000
0010
0000
0000
0001
,  // measure 9
0101
0000
0000
1010
0000
0000
1000
0000
0010
1000
0010
1000
0001
0000
0001
0000
,  // measure 10
0020
0000
0000
0031
0000
0000
0100
0000
0020
0000
0000
1030
0000
0000
0100
0000
,  // measure 11
0002
0000
0000
0103
0000
0000
1000
0000
0002
0000
0000
0013
0000
0000
0100
0000
,  // measure 12
2000
0000
0000
3010
0000
0000
0100
0000
0002
0000
0000
0013
0000
0000
1000
0000
,  // measure 13
0020
0000
0000
0130
0000
0000
0010
0000
0001
0000
1000
0000
0001
0010
0001
0000
,  // measure 14
0010
0000
0000
0100
1000
0000
0100
0000
0010
0000
0000
0100
0001
0000
0100
0000
,  // measure 15
0010
0000
0000
0001
0100
0000
1000
0000
0100
0000
0000
0010
1000
0000
0100
0000
,  // measure 16
0001
0000
0000
0100
0010
0000
0001
0000
1000
0000
0000
0001
0100
0000
1000
0000
,  // measure 17
0100
0001
0100
0001
0100
0000
0010
0000
1000
0001
1000
0001
0000
0000
0010
0000
,  // measure 18
0100
0000
1000
0100
1000
0000
0100
0010
0100
0000
0010
0001
0010
0000
0001
0000
,  // measure 19
0000
0000
0001
0100
0001
0000
1000
0100
1000
0000
0001
0010
0001
0000
0010
0000
,  // measure 20
0000
0000
0100
1000
0100
0000
0010
0100
0010
0000
0001
1000
0001
0000
0010
0000
,  // measure 21
0000
0000
0100
1000
0000
0000
0100
0010
0000
0000
0001
0010
0001
0000
1000
0000
,  // measure 22
0000
0000
0001
0010
0001
0000
0010
0100
0010
0000
0100
1000
0100
0000
1000
0000
,  // measure 23
0000
0000
0001
0100
0001
0000
1000
0100
1000
0000
0001
0010
0001
0000
0010
0000
,  // measure 24
0000
0000
0100
1000
0100
0000
1000
0001
1000
0000
0001
0100
0001
0000
0010
0000
,  // measure 25
0001
0000
0100
0000
1000
0000
0000
0000
0100
0001
0100
0001
0100
0000
0010
0000
,  // measure 26
1000
0100
2000
0010
0000
3001
0200
0010
,  // measure 27
0000
0301
2000
0100
0000
3010
0002
0010
,  // measure 28
0000
1003
0200
0001
0000
0310
2000
0100
,  // measure 29
0000
3001
0020
0100
0000
0031
0200
0001
,  // measure 30
0000
0000
0310
1000
0020
0000
1000
0000
0000
0000
1030
0100
2000
0000
0100
0000
,  // measure 31
0000
0000
3001
0010
0002
0000
0010
0000
0000
0000
1003
0100
2000
0000
0100
0000
,  // measure 32
0000
0000
3001
1000
0002
0000
1000
0000
0000
0000
0103
0001
0100
0000
0010
0000
,  // measure 33
1000
0000
0100
0000
0010
0000
0100
0000
1000
0010
1000
0000
0002
0000
0100
0000
,  // measure 34
0103
2010
3100
0012
,  // measure 35
0103
2010
3100
0012
,  // measure 36
0103
0020
1000
0000
0230
0000
0001
0000
,  // measure 37
0301
0000
2000
0000
0010
0000
0000
0000
3100
0000
0010
0000
0001
0010
0100
1000
,  // measure 38
0010
0000
0000
0100
0001
0000
0100
0000
0010
0000
0000
0100
1000
0000
0100
0000
,  // measure 39
0010
0000
0000
1000
0001
0000
0010
0000
0001
0000
0000
1000
0100
0000
0010
0000
,  // measure 40
0100
0000
0000
1000
0001
0000
0100
0000
0001
0000
0000
0001
1000
0000
0100
0000
,  // measure 41
2000
0000
0000
3010
0000
0000
0100
0000
0002
0000
0000
0013
0100
0000
0010
0000
,  // measure 42
0001
0000
0000
0001
0010
0000
1000
0000
0010
0000
0000
0010
0100
0000
1000
0000
,  // measure 43
0001
0000
0000
0100
0001
0000
0010
0000
0100
0000
0000
1000
0100
0000
0010
0000
,  // measure 44
1000
0000
0000
0010
0001
0000
0100
0000
1000
0000
0000
0100
0001
0000
0010
0000
,  // measure 45
0100
0000
1000
0100
1000
0000
0001
1000
0010
0100
0010
0100
0010
0000
1000
0000
,  // measure 46
1200
0000
0000
0310
0000
0000
0001
0000
0200
0000
0001
0000
0310
1000
0100
0010
,  // measure 47
0002
0000
0000
0013
0000
0000
0100
0000
2000
0000
0010
0000
3100
0010
0001
1000
,  // measure 48
0002
0000
0000
0103
0000
0000
0010
0000
2000
0000
0100
0000
3001
0010
0100
1000
,  // measure 49
0200
0000
0000
0310
0000
0000
0001
0100
0020
0000
0000
1030
0100
0010
0000
0010
,  // measure 50
0200
0000
0000
1300
0000
0000
0010
0000
0200
0000
0000
0310
1000
0100
0010
0001
,  // measure 51
2000
0000
0000
3100
0000
0000
0010
0000
0021
0000
0000
0001
0000
0000
0130
1000
,  // measure 52
0002
0000
0000
0103
0000
0000
0010
0000
2010
0000
0000
0010
0000
0000
3100
1000
,  // measure 53
0100
0000
0010
0000
0001
1000
0001
1000
0001
0010
0000
0001
0100
0001
0100
0000
,  // measure 54
0020
1030
2100
3001
,  // measure 55
0100
0010
1000
0100
0020
0000
0031
0000
,  // measure 56
0201
0310
1002
0103
,  // measure 57
0010
0000
1000
0000
0100
0000
1000
0001
1000
0000
0010
0000
0100
0001
0100
0001
,  // measure 58
1000
0100
0001
0100
1000
0100
0010
0001
,  // measure 59
1000
0100
0001
0100
1000
0010
0100
0000
,  // measure 60
0001
0100
1000
0100
0001
0010
0100
1000
,  // measure 61
0001
0000
0100
0000
1000
0000
0100
0000
0001
0000
0100
0000
0010
0000
1000
0100
,  // measure 62
1000
0100
0000
0010
0000
0001
0000
0100
0001
0000
1000
0000
0001
0000
1000
0000
,  // measure 63
0010
1000
0000
0100
0000
0001
0000
0100
0020
0000
0001
0000
0001
0000
0031
0000
,  // measure 64
0100
0010
0000
1000
0000
0010
0000
0100
0001
0000
0010
0000
0100
0000
1000
0000
,  // measure 65
0001
0100
0000
1000
0000
0100
0000
0001
1000
0000
0100
0000
0020
0000
0002
0000
,  // measure 66
0000
0003
0000
0000
,  // measure 67
0000
0000
0000
0030
0000
0000
0000
0000
;

//---------------dance-double - ----------------
#NOTES:
     dance-double:
     :
     Challenge:
     10:
     0.730,0.673,0.097,0.601,0.495:
00000000
00000000
00000000
00000000
,
00000000
00000000
00000000
00000000
,
00000000
00000000
00000000
00000000
,
10000000
00100000
00000000
00000000
00001000
00000000
00000000
00000000
,
10000000
00000000
00000000
00000000
00000000
00000000
00000000
00000000
00001000
00000000
00000000
00000000
00100000
01000000
00100000
00000000
,
20000000
00000000
00000000
30100000
00000000
00000000
00010000
00000000
00002000
00000000
00000000
00013000
00000000
00000000
00100000
00000000
,
20000000
00000000
00000000
30100000
00000000
00000000
00010000
00000000
00002000
00000000
00000000
00013000
00000000
00000000
00100000
00000000
,
10000000
10000000
00100000
00000000
00011000
00000000
00001000
00000100
,
00000010
00000000
00000000
00001000
00000000
00000000
00000100
00000000
00000010
00000001
00000010
00000001
00000000
00000000
00000100
00000000
,
00000002
00000000
00000000
00000023
00000000
00000000
00000130
00000000
00020000
00000000
00000000
00030020
00000000
00000000
00000130
00000000
,
00002000
00000000
00000000
00023000
00000000
00000000
00130000
00000000
20000000
00000000
00000000
32000000
00000000
00000000
03100000
00000000
,
00002000
00000000
00000000
02003000
00000000
00000000
03010000
00000000
00200000
00000000
00000000
00320000
00000000
00000000
01030000
00000000
,
20000000
00000000
00000000
32000000
00000000
00000000
03010000
00000000
00100000
00000000
00001000
00000000
00010000
00001000
00010000
00000000
,
00000100
00000000
00000000
00001000
00000100
00000000
00000020
00000000
00000001
00000000
00000030
00000001
00000100
00000000
00000020
00000000
,
00001000
00000000
00000030
00001000
00000100
00000000
00020000
00000000
00001000
00000000
00030000
00001000
00100000
00000000
02000000
00000000
,
00100000
00000000
00000000
03100000
00001000
00000000
00010000
00000000
00001000
00000000
00100000
00000000
00010000
00000000
01000000
00000000
,
00100000
10000000
00100000
10000000
00100000
00000000
01000000
00000000
00010000
00100000
00001000
00010000
00000000
00000000
00010000
00000000
,
01000000
00000000
10000000
01000000
10000000
00000000
01000000
00100000
01000000
00000000
00100000
00010000
00100000
00000000
00002000
00000000
,
00000000
00000000
00003010
00000001
00000010
00000000
00000001
00000100
00000001
00000000
00000100
00001000
00000100
00000000
00000020
00000000
,
00000000
00000000
00010030
00001000
00010000
00000000
01000000
00100000
01000000
00000000
10000000
00010000
10000000
00000000
00200000
00000000
,
00300000
02010000
00000000
03002000
00000000
00023000
00000000
00030200
,
00000000
00000000
00000310
00000001
00000010
00000000
00000100
00000010
00000100
00000000
00001000
00000100
00001000
00000000
00000020
00000000
,
00000000
00000000
00010030
00001000
00010000
00000000
00000100
00000010
00000100
00000000
00010000
00001000
00010000
00000000
02000000
00000000
,
00000000
00000000
13000000
01000000
10000000
00000000
00100000
01000000
00100000
00000000
00010000
00100000
00010000
00000000
00001000
00000000
,
00010000
00000000
00100000
00000000
01000000
00000000
00000000
00000000
00001000
00010000
00001000
00010000
00000000
00000000
00000100
00000000
,
00001000
00000010
00020000
00000010
00000000
00030100
00002000
00000100
,
00000000
00003001
00000200
00001000
00000000
00000301
00000020
00001000
,
00000000
00000130
00002000
00000010
00000000
00003001
00000200
00000010
,
00000000
00000301
00000020
00000001
00000000
00000130
00000001
00000100
,
00001000
00000010
00001000
00000010
00010000
00000100
00010000
00000100
,
00100000
00010000
00100000
00010000
01000000
00100000
01000000
00100000
,
10000000
00000000
01000000
00000000
10000000
00000000
01000000
00000000
00010000
00000000
01000000
00100000
01000000
00000000
10000000
00000000
,
00010000
00000000
01000000
00000000
00001000
00000000
01000000
00000000
00010000
00100000
00010000
00100000
00000000
00000000
00001000
00000000
,
00020010
00031000
00020100
00031000
,
01020000
00000000
00000000
00000000
00000000
00000000
00000000
00000000
00031000
00000000
00000000
00000000
00000000
00000000
00000000
00000000
00120000
00000000
00000000
00000000
00000000
00000000
00000000
00000000
00031000
00000000
00010000
00000000
00000000
00100000
00000000
00000000
,
10000000
00000000
00000000
00000000
02000000
00000000
00000000
00000000
00100000
00000000
00000000
00000000
00000000
00000000
10000000
00000000
13000000
00000000
00000000
00010000
00000000
00000000
00100000
00000000
00001000
00000000
00000000
00000000
00010000
00000000
00000100
00000000
,
00001000
00000000
00000000
00000010
00000000
00000000
00010000
00000000
00001000
00000000
00000000
00000000
00000010
00000000
00000100
00000000
00001000
00000000
00000001
00000000
00000100
00000000
00000010
00000000
00001000
00000000
00000000
00000000
00000001
00000000
00000000
00000000
,
00001000
00000000
00000000
00001000
00000100
00000000
00010000
00000000
00002000
00000000
00003000
00000010
00000100
00000000
00010000
00000000
,
00002000
00000000
00003000
01000000
00010000
00000000
00100000
00000000
00020000
00000000
00030000
01000000
10000000
00000000
01000000
00000000
,
00200000
00000000
00300000
10000000
00010000
00000000
00100000
00000000
00020000
00000000
00030000
00000010
00000100
00000000
00001000
00000000
,
00000200
00000000
00000000
00001300
00000000
00000000
00000100
00000000
00000020
00000000
00000000
00000031
00000100
00000000
00000010
00000000
,
00002000
00000000
00003000
00000100
00010000
00000000
00001000
00000000
00000020
00000000
00000030
00001000
00010000
00000000
01000000
00000000
,
00200000
00000000
00300000
00010000
00100000
00000000
00001000
00000000
02000000
00000000
03000000
00010000
00100000
00000000
10000000
00000000
,
00200000
00000000
00300000
01000000
10000000
00000000
00100000
00000000
02000000
00000000
03000000
00010000
00100000
00000000
10000000
00000000
,
00100000
00000000
00001000
00000000
00010000
00000000
00000010
00000000
00001000
00000100
00001000
00000100
00000010
00000000
00000001
00000000
,
00000100
00000000
00000010
00000000
00010000
00000000
00000100
00000000
00000010
00000000
00001000
00000000
00010000
00001000
01000000
00001000
,
00020000
00000000
00130000
00000000
10000000
00000000
00100000
00000000
01000000
00000000
00010000
00000000
00100000
00001000
00010000
00001000
,
00200000
00000000
00301000
00000000
00010000
00000000
00000100
00000000
00000010
00000000
00000001
00000000
00001000
00000100
00000010
00000100
,
00020000
00000000
00000000
00030010
00000000
00000000
00010000
00001000
00010000
00000000
00000100
00000000
00001000
00000010
00000000
00000010
,
00010000
00000000
00001000
00000000
00100000
00000000
01000000
00000000
10000000
00000000
00100000
00000000
01000000
00001000
00010000
00001000
,
00200000
00000000
00301000
00000000
00010000
00000000
00000100
00000000
00000010
00000000
00000001
00000000
00000010
00000000
00000100
00010000
,
00000200
00000000
00001300
00000000
00000010
00000000
00010000
00000000
00002000
00000000
00013000
00000000
00100000
00000000
10000000
01000000
,
10000000
00000000
00100000
00000000
01000000
00010000
00000000
00100000
00001000
00000000
00010000
00000000
00000100
00001000
00000100
00000000
,
00000010
00000001
00000100
00001000
00010000
00001000
00000100
00000001
,
00000010
00000001
00000100
00001000
00010000
00000000
00010100
00000000
,
00012000
00013000
01000000
10000000
00100000
10000000
01000000
00010000
,
00001000
00000000
00010000
00000000
01000000
00000000
10000000
00010000
10000000
00000000
01000000
00000000
00100000
00001000
00010000
00001000
,
00100000
00010000
01000000
00010000
00100000
00000000
02010000
00000000
,
03001000
00010000
00000100
00010000
00000010
00000000
00000100
00000100
,
00000100
00000001
00001000
00000100
00000010
00000000
00002100
00000000
,
00003010
00010000
00001000
00100000
00010000
01000000
01000000
01000000
,
00010000
00100000
00000000
10000000
00000000
00100000
00000000
00001000
00010000
00000000
00000100
00000000
00001000
00000000
00000100
00000000
,
00000010
00000001
00000000
00000010
00000000
00001000
00000000
00010000
00002000
00000000
00000010
00000000
00000010
00000000
00003010
00000000
,
00000100
00010000
00000000
00001000
00000000
00100000
00000000
00010000
01000000
00000000
10000000
00000000
01000000
00000000
00010000
10000000
,
00010000
00100000
00000000
00001000
00000000
00010000
00000000
00000010
00000100
00000000
00000001
00000000
00000012
00000000
00000010
00000000
,
00000003
00020000
00000000
00000000
,
00000000
00030000
00000000
00000000
;
