#TITLE:SKA SKA NO. 4;
#ARTIST:亜熱帯マジ-SKA爆弾;
#TITLETRANSLIT:;
#SUBTITLETRANSLIT:;
#ARTISTTRANSLIT:Anettai Maji-SKA Bakudan;
#CREDIT:;
#BANNER:Ska Ska No.4.png;
#BACKGROUND:Ska Ska No.4-bg.png;
#LYRICSPATH:;
#CDTITLE:;
#MUSIC:Ska Ska No.4.ogg;
#OFFSET:-1.140;
#SAMPLESTART:18.060;
#SAMPLELENGTH:10.700;
#SELECTABLE:YES;
#DISPLAYBPM:180.000;
#BPMS:0.000=100.000,3.000=98.000,3.500=94.000,4.000=90.000,4.500=84.000,5.000=78.000,5.500=54.000,6.000=52.600,7.500=180.000;
#STOPS:;
#BGCHANGES:;

//---------------dance-single - ----------------
#NOTES:
     dance-single:
     :
     Medium:
     5:
     0.430,0.445,0.184,0.046,0.000:
0000
0000
0000
0000
,
0000
0000
0000
0000
,
0000
0000
0000
0000
,
0000
0000
0000
0000
,
0000
0000
0000
0000
,
0000
0000
0000
0000
,
0000
1000
0000
1000
0000
1000
0000
0010
,
0000
0101
0000
0001
0000
0001
0000
0010
,
0000
1100
0000
1000
0000
1000
0000
1000
,
0000
0011
0000
0001
0000
0001
0000
0001
,
0000
1010
0000
1000
0000
0001
0100
0001
,
0000
1000
0000
0001
0000
1000
0000
0100
,
0000
0010
0000
0100
0000
0010
0100
0010
,
0000
0001
0000
1000
0000
0010
0000
0100
,
0000
0001
0000
1000
0000
0100
1000
0010
,
0000
1000
0000
0001
0000
0100
0000
0001
,
0000
1000
0000
0100
0000
0010
0100
0010
,
0000
0100
0000
1000
0000
0001
0100
0001
,
0010
0100
1000
0010
0000
0100
0000
0001
,
0000
0001
0010
0001
0000
1000
0000
0010
,
0000
1000
0010
1000
0000
0100
0000
0100
,
0000
0010
0001
0100
0000
1000
0000
0100
,
0000
0010
1000
0100
0000
0001
0000
0100
,
0000
1000
0010
0100
0000
0001
0000
0010
,
0000
0100
1000
0010
0000
0100
0000
0001
,
0000
0010
0001
0100
0000
0010
0000
1000
,
0001
0001
0100
0010
,
1000
1000
0001
1000
,
0100
0100
0010
0001
,
1000
0000
1000
0000
0010
1000
0001
1000
,
0000
0100
0010
0000
0001
0000
1000
0000
,
0100
0000
0010
0000
0001
1000
0000
1000
,
0001
0100
0010
1000
,
0001
0000
0010
0000
1000
0010
1000
0000
,
0010
0001
0100
1000
,
0100
0010
1000
0100
,
0001
0001
0100
1000
,
0100
0000
0100
0000
1000
0000
0010
0100
,
0001
1000
0001
0010
,
0100
1000
0010
1000
,
0010
0000
0100
0000
0001
0000
1000
0100
,
1000
0000
0001
0100
0001
0000
1000
0001
,
1000
0010
0000
0000
1000
0010
0000
0000
,
0101
0000
0001
0000
0010
0000
0100
1000
,
0100
0010
0001
0100
,
0101
0000
0010
0000
1000
0100
0000
0010
,
0000
0001
0000
0010
0000
0100
0000
1000
,
0100
0000
1000
0000
0001
0100
0001
0000
,
0010
0100
1000
1010
,
0010
0000
0100
0000
0001
1000
0000
0001
,
0000
1000
0100
0000
0010
0000
0001
0100
,
0001
0000
1000
0000
0010
0100
0000
0001
,
0000
0100
0010
0000
1000
0100
1000
0000
,
0010
0000
0100
0000
0001
0010
0000
0100
,
0000
1000
0000
0100
0000
0010
0001
0000
,
0100
0000
0010
0000
1000
0100
0000
0001
,
0000
0100
1000
0000
0001
0100
0001
0000
,
0010
0000
0001
0000
1000
0100
0000
0100
,
1000
0000
0001
0100
0000
0100
0001
0000
,
1000
1200
0000
0001
,
0000
1000
0000
0001
,
0010
1000
0010
0301
,
0100
0000
1100
0000
1000
0001
1000
0000
,
0001
0101
0010
1010
,
1000
1100
0010
0011
,
0100
1100
1000
1010
,
0100
0101
0001
1000
,
0100
0210
0000
1300
,
0001
0000
0100
0010
0000
0010
0100
0000
,
0001
0000
0010
0100
0000
0100
0010
0000
,
0001
0010
0100
1000
,
0010
2010
0000
3001
,
0010
0000
0100
1000
0100
0000
0000
2002
,
0000
0000
0000
0000
0000
0000
0000
3003
,
0000
0000
0000
1001
0000
0000
0000
0000
;

//---------------dance-single - ----------------
#NOTES:
     dance-single:
     :
     Easy:
     3:
     0.273,0.308,0.055,0.212,0.000:
0000
0000
0000
0000
,
0000
0000
0000
0000
,
0000
0000
0000
0000
,
0000
0000
0000
0000
,
0000
0000
0000
0000
,
0000
0000
0000
0000
,
1000
0000
1000
0000
,
0100
0000
0100
0000
,
0010
0000
0010
0000
,
0001
0000
0001
0000
,
0100
0010
1000
0000
,
0001
0100
1000
0000
,
0001
0010
1000
0000
,
0100
0010
0001
0000
,
1000
0000
1000
0000
,
0010
0000
0010
0000
,
0100
0000
0100
0000
,
0001
0000
0001
0000
,
0010
0100
1000
0000
,
0010
0100
0001
0000
,
0100
0001
0010
0000
,
0100
1000
0010
0000
,
0100
0010
1000
0000
,
0100
0010
0001
0000
,
0001
0100
0001
0000
,
1000
0100
1000
0000
,
0020
0000
0230
0000
,
0301
0010
0100
1000
,
0020
0000
0230
0000
,
0301
1000
0001
0000
,
0010
0000
0100
0100
,
1000
0000
0010
0100
,
0001
0000
1000
0100
,
0100
0000
1000
0000
,
0002
0000
0203
0000
,
0310
1000
0100
0010
,
0002
0000
2003
0000
,
3100
0010
0001
0100
,
0010
0000
1000
0000
,
0100
0000
0001
0100
,
0100
0000
1000
0010
,
0100
0001
0100
0001
,
0101
0000
1010
0000
,
1100
0000
1000
0000
,
0010
0000
0100
0000
,
0002
0010
2003
0010
,
3001
0100
0010
0000
,
1000
0000
0001
0000
,
0100
0000
0010
0000
,
2000
0100
3002
0100
,
1003
0100
1000
0000
,
0001
0000
1000
0000
,
0100
0000
0010
0000
,
0002
1000
2003
0001
,
3001
0010
0100
0000
,
1000
0000
0100
0000
,
0001
0000
0100
0000
,
2000
0000
3001
0000
,
1000
0100
0010
0001
,
1002
0000
0000
0100
,
0203
0000
0000
0010
,
0320
0000
0000
1000
,
2030
0000
0000
0001
,
3001
0100
0000
0010
,
0000
0001
0000
0010
,
1000
0010
0000
0100
,
0001
0100
0000
0001
,
0001
0000
0100
0000
,
0010
0000
1000
0000
,
0100
0010
0001
0100
,
0010
0100
0001
1000
,
0100
0000
2000
0000
,
3002
0000
0000
0000
0003
0000
0000
2002
,
0000
0000
0000
0000
0000
0000
0000
3003
,
0000
0000
0000
1001
0000
0000
0000
0000
;

//---------------dance-single - ----------------
#NOTES:
     dance-single:
     :
     Hard:
     7:
     0.535,0.513,0.147,0.184,0.000:
0000
0000
0000
0000
,
0000
0000
0000
0000
,
0000
0000
0000
0000
,
0000
0000
0000
0000
,
0000
0000
0000
0000
,
0000
0000
0000
0000
,
1000
0100
0001
0100
0000
1000
0001
1000
,
0000
0100
0010
0100
0000
1000
0001
1000
,
0010
0100
0001
0100
0000
0001
0010
0001
,
0000
0100
1000
0100
0000
0010
1000
0010
,
0100
0102
0010
1003
,
0001
0010
1000
0020
0000
0130
1000
0000
,
0001
0100
0001
0020
0000
0130
1000
0000
,
0010
0100
0001
0100
0000
0010
1000
0000
,
0001
0120
0001
1030
,
0001
0100
1000
0200
0000
0310
1000
0000
,
0001
0010
0100
0020
0000
0031
1000
0000
,
0001
0100
0001
0000
1000
0100
1000
0000
,
0010
0102
0010
1003
,
0100
0010
0100
2000
0000
3010
0100
0000
,
0001
1000
0100
2000
0000
3001
0010
0000
,
0100
1000
0100
0010
0000
0001
0100
0000
,
0010
2001
0100
3010
,
0100
0001
1000
0001
0000
0010
0100
0000
,
1000
0010
1000
0001
0000
0010
0100
0000
,
1000
0000
0011
0000
0011
0000
0010
0001
,
0000
1000
0100
1000
0000
0001
0100
1000
,
0000
0100
0010
0100
0000
0001
0010
1000
,
0000
0010
0100
0010
0000
0001
0100
1000
,
0100
0010
0000
1000
0000
0001
0010
0000
,
0100
1000
0100
0010
0000
0001
0100
0001
,
0000
1000
0100
1000
0000
0001
0100
0001
,
0010
0100
1000
0100
,
0010
0001
0010
0000
0100
1000
0100
0000
,
0010
0000
0001
1000
0000
0100
0010
0100
,
0000
1000
0010
0001
0000
0010
0100
0010
,
0000
1000
0100
0001
0000
0100
0010
0100
,
0000
0010
0001
0010
0000
0100
1000
0100
,
0010
0000
0100
1000
0001
0000
0001
0100
,
0000
1000
0100
0010
0000
1000
0100
1000
,
0000
0001
0010
0100
0010
0000
0001
0100
,
1000
0100
1000
0100
0001
0100
0001
0000
,
1000
1000
0000
0000
0001
0001
0000
0000
,
2100
0000
0010
0000
3001
0010
0100
0010
,
0000
0001
0100
0000
1000
0100
0010
0100
,
0001
0000
1010
0000
1000
0100
0010
0100
,
0000
1000
0001
1000
0010
0000
0100
0000
,
0001
0000
1001
0000
1000
0100
0010
0100
,
0000
1000
0002
0000
0103
0010
1000
0010
,
0200
0000
1000
0000
0301
0010
0001
0100
,
0000
0010
1000
0000
0001
0010
0001
1000
,
0001
0000
1000
0000
0010
0100
0010
1000
,
0000
0001
0020
0000
0031
1000
0001
0000
,
0100
0000
0010
0000
1000
0100
1000
0002
,
0000
0100
0000
1003
0000
0100
0010
0001
,
0010
0000
0100
1000
0001
1000
0000
0001
,
0000
0001
0020
0000
0031
1000
0010
1000
,
0100
0000
0010
0001
0010
0100
1000
0100
,
0010
0000
0001
0000
1000
0100
1000
0001
,
0100
0201
0000
0010
,
0000
1000
0000
0010
,
0000
0001
0000
0010
,
0301
0000
0011
0000
0010
0100
1000
0100
,
0010
0000
0012
0000
0103
0000
0010
1000
,
0010
0000
0100
0001
0000
0001
0100
0000
,
0001
0010
0001
1000
0000
1000
0001
0000
,
0100
0010
1000
0000
0001
0000
0010
0000
,
0100
0000
2100
0000
3010
0000
0100
0001
,
0100
0000
0010
1000
0000
1000
0010
0000
,
1000
0100
1000
0001
0000
0001
1000
0000
,
0010
0100
0001
0000
1000
0000
0100
0000
,
0010
0012
0000
1003
,
0010
0000
0100
0001
0100
0010
0000
1001
,
0000
0000
0000
0000
,
0000
0000
0000
0011
0000
0000
0000
0000
;

//---------------dance-double - ----------------
#NOTES:
     dance-double:
     :
     Hard:
     7:
     0.541,0.650,0.138,0.294,0.000:
00000000
00000000
00000000
00000000
,
00000000
00000000
00000000
00000000
,
00000000
00000000
00000000
00000000
,
00000000
00000000
00000000
00000000
,
00000000
00000000
00000000
00000000
,
00000000
00000000
00000000
00000000
,
10000000
01000000
00100000
01000000
00000000
00100000
00001000
00100000
,
00000000
00001000
00010000
00001000
00000000
00010000
00000010
00010000
,
00000000
00000010
00000100
00000010
00000000
00000100
00000001
00000100
,
00000000
00000010
00001000
00000010
00000000
00001000
00000100
00010000
,
00000100
00000210
00001000
00010300
,
01000000
00100000
00010000
00100000
00000000
01000000
10000000
00000000
,
00010000
01000000
00010000
00200000
00000000
00301000
00010000
00000000
,
00100000
01000000
00100000
00000000
00001000
00000000
00000010
00000000
,
00000100
00000201
00001000
00000310
,
00010000
00000100
00010000
00001000
00000000
01000000
00010000
00000000
,
10000000
01000000
10000000
00020000
00000000
01030000
00010000
00000000
,
00100000
00001000
00010000
00000100
,
00010000
00001020
00000001
00000130
,
00000001
00001000
00000001
00000100
00000000
00000010
00001000
00000000
,
00000100
00001000
00000100
00000010
00000000
00000100
00001000
00000000
,
01000000
00100000
01000000
00000000
10000000
00000000
00010000
00000000
,
01000000
01002000
00010000
00103000
,
01000000
10000000
01000000
00100000
00000000
00001000
00010000
00000000
,
00000100
00001000
00000100
00000010
00000000
00000001
00001000
00000000
,
00000010
00000000
00000100
00000000
00000101
00000000
00000001
00001000
,
00000001
00000010
00000000
00001000
00000000
00100000
00000000
10000000
,
00000000
00100000
00000000
00001000
00000000
00000010
00000000
00000001
,
00000000
00000100
00000010
00000100
00000000
00000010
00001000
00000010
,
00000000
00010000
00001000
00010000
00000000
01000000
10000000
00000000
,
00100000
01000000
00010000
01000000
00000000
00001000
00010000
00001000
,
00000000
00000100
00001000
00000100
00000000
00001000
00010000
00001000
,
00000000
01000000
00010000
00100000
00000000
00001000
00010000
00000100
,
00000000
00001000
00000010
00000100
00000001
00000100
00000010
00000000
,
00001000
00000100
00000000
00001000
00000000
01000000
00000000
00010000
,
00000000
00000010
00000000
00001000
00000000
00100000
00000000
10000000
,
00000000
00010000
01000000
00010000
00000000
10000000
01000000
10000000
,
00000000
00010000
00100000
00001000
00000000
00010000
00000100
00001000
,
00000100
00000000
00000010
00000001
00000020
00000000
00000130
00001000
,
00000000
00000001
00000100
00000002
00000000
00001003
00000100
00001000
,
00000000
00000100
00010000
00001000
00010000
00000000
00010000
00100000
,
10000000
01000000
00010000
00001000
,
00000010
00000010
00000000
00000000
00000100
00000100
00000000
00000000
,
00021000
00000000
00031000
00000000
00100000
00010000
00100000
01000000
,
00000000
10000000
00010000
00000000
01000000
00010000
01000000
00000000
,
00001000
00000000
00000100
00000000
00000001
00000100
00000010
00000100
,
00000000
00000010
00001000
00000010
00000000
00001000
00000100
00010000
,
00001000
00000000
01000000
00000000
00100000
10000000
00100000
01000000
,
00000000
00001000
00200000
00000000
00310000
10000000
00010000
00100000
,
00002000
00000000
00023000
00000000
00031000
00010000
00000100
00001000
,
00000000
00000010
00001000
00000000
00000100
00010000
00000100
00001000
,
00000100
00000000
00000010
00000001
00000010
00000200
00000000
00010300
,
00001000
00010000
00001000
00000000
01000000
00010000
01000000
00000000
,
00002000
00000000
00203000
00000000
00310000
10000000
00010000
00200000
,
00000000
00302000
00000000
00023000
00000000
00030100
00001000
00000100
,
00000010
00000000
00000100
00001000
00000100
00000010
00000000
00000002
,
00000000
00000103
00000010
00000000
00001000
00000100
00001000
00000010
,
00020000
00000000
00031000
00000000
00100000
00020000
00000000
01030000
,
00200000
00000000
10300000
02000000
00000000
03100000
00001000
00010000
,
00011000
00001000
00000010
00000001
,
00000100
00001000
00010000
00100000
,
10000000
01000000
00010000
00001000
,
00000010
00000000
00000100
00000000
00010000
00001000
00010000
00000100
,
00001000
00000020
00001030
00000201
,
00000301
00001000
00000200
00001000
00000300
00000010
00000210
00000000
,
00001300
00000100
00020000
00001000
00030000
00001000
02001000
00000000
,
03010000
10000000
00020000
00000000
10030000
01000000
00100000
00000000
,
00001000
00012000
00003100
00000001
,
00001000
00000100
00000010
00000100
00000000
00010000
00001000
00000000
,
01000000
00010000
01000000
00100000
00000000
10000000
00010000
00000000
,
00100000
01000000
00100000
00000000
00010000
00000000
01000000
00000000
,
00001000
00012000
00003010
00000001
,
00001100
00000000
00000100
00010000
00001000
01000000
00000000
10010000
,
00000000
00000000
00000000
00000000
,
00000000
00000000
00000000
00001001
00000000
00000000
00000000
00000000
;

//---------------dance-double - ----------------
#NOTES:
     dance-double:
     :
     Medium:
     5:
     0.428,0.445,0.184,0.101,0.000: // measure 1
00000000
00000000
00000000
00000000
,  // measure 2
00000000
00000000
00000000
00000000
,  // measure 3
00000000
00000000
00000000
00000000
,  // measure 4
00000000
00000000
00000000
00000000
,  // measure 5
00000000
00000000
00000000
00000000
,  // measure 6
00000000
00000000
00000000
00000000
,  // measure 7
00000000
10000000
00000000
01000000
00000000
00100000
00000000
00012000
,  // measure 8
00000000
00013000
00000000
00000100
00000000
00000010
00000000
00002001
,  // measure 9
00000000
00003010
00000000
00000101
00000000
00000010
00000000
00010100
,  // measure 10
00000000
00001000
00000000
00101000
00000000
00010000
00000000
01000000
,  // measure 11
00100000
20000000
00010000
31000000
,  // measure 12
00100000
00000000
00000000
00001000
00000000
00000000
00010000
00000000
,  // measure 13
00001000
00000000
00000000
00000010
00000000
00000001
00000000
00000100
,  // measure 14
00000001
00000010
00000100
00010000
,  // measure 15
00001000
02010000
00000000
03100000
,  // measure 16
01000000
00000000
00000000
01000000
00000000
00000000
00100000
00000000
,  // measure 17
01000000
00000000
00001000
00010000
00000000
00001000
00000000
00001000
,  // measure 18
00010000
00000000
00000010
00000000
00000100
00000000
00000001
00000010
,  // measure 19
00000001
00002001
00000000
00003100
,  // measure 20
00010000
00000000
00000000
01000000
00000000
00000000
00100000
00000000
,  // measure 21
00001000
00000000
00000000
01000000
00000000
00010000
00000000
00010000
,  // measure 22
00100000
01000000
10000000
01000000
,  // measure 23
00100000
00012000
00000000
00013000
,  // measure 24
00000010
00000000
00000000
00000100
00000000
00000000
00001000
00000000
,  // measure 25
00000100
00000000
00000000
00000001
00000000
00001000
00000000
00001000
,  // measure 26
00000100
00000000
00010000
00000000
00001000
01000000
00000000
01000000
,  // measure 27
00010000
01000000
00000000
00010000
00000000
00100000
00000000
01000000
,  // measure 28
00000000
00100000
00000000
00001000
00000000
00010000
00000000
00000100
,  // measure 29
00001000
00000001
00001000
00000000
00000010
00000100
00000000
00000001
,  // measure 30
00000000
00000100
00000000
00010000
00000000
00000100
00000010
00000000
,  // measure 31
00001000
00000000
00000100
00000000
00010000
00000000
00001000
00100000
,  // measure 32
00000000
00100000
00001000
00000000
01000000
00010000
01000000
00000000
,  // measure 33
00100000
10000000
01000000
00100000
,  // measure 34
00010000
01000000
00000000
01000000
00010000
00000000
00100000
00000000
,  // measure 35
00000000
10000000
00000000
00100000
00000000
00001000
00000000
00000010
,  // measure 36
00000000
00000001
00000000
00000100
00000000
00001000
00000000
00010000
,  // measure 37
00000000
00000100
00000000
00001000
00000100
00000000
00000100
00010000
,  // measure 38
00000000
00001000
00000000
00100000
00010000
00000000
00010000
00100000
,  // measure 39
00000000
00001000
00010000
00001000
00010000
00000000
00100000
01000000
,  // measure 40
00000000
00001000
00000000
00010000
00000000
00000100
00000010
00000100
,  // measure 41
00000000
00010000
00001000
00000000
00000010
00000000
00000100
00010000
,  // measure 42
00000000
00001000
00010000
00001000
00100000
00000000
01000000
00000000
,  // measure 43
11000000
01000000
00000000
00000000
00100000
00010000
00000000
00000000
,  // measure 44
00201000
00000000
00010000
00000000
01300000
00100000
00000000
00001000
,  // measure 45
00000000
00010000
00001000
00000000
00000010
00000000
00000100
00001000
,  // measure 46
00000100
00000000
00000010
00000000
00000001
00000100
00000000
00000010
,  // measure 47
00000000
00010000
00000000
00001000
00000000
00000010
00000100
00000000
,  // measure 48
00010000
00000000
00001000
00000000
01000000
00010000
01000000
00000000
,  // measure 49
00010000
00100000
10000000
00100000
,  // measure 50
00001000
00010000
00001000
00000000
00000100
00000000
00000001
00001000
,  // measure 51
00000000
00001000
00000001
00000000
00000010
00000000
00000100
00000000
,  // measure 52
00010000
00000000
00011000
00000000
00001000
00010000
00001000
00000000
,  // measure 53
00100000
10000000
00100000
01000000
,  // measure 54
10000000
00000000
00010000
00000000
00100000
00001000
00000000
00010000
,  // measure 55
00000000
00000010
00000000
00000100
00000000
00001000
00000100
00000000
,  // measure 56
00000001
00000000
00000010
00000000
00000100
00010000
00000000
00001000
,  // measure 57
00000000
00010000
00000100
00000000
00000010
00000000
00000100
00000000
,  // measure 58
00010000
00000000
00001000
00000000
01000000
00001000
00000000
00010000
,  // measure 59
00001000
00000000
01000000
00001000
00000000
00010000
00001000
00000000
,  // measure 60
00100000
10000000
00100000
00010000
,  // measure 61
00001000
00000100
00000001
00000100
,  // measure 62
00001000
00000010
00000001
00000010
,  // measure 63
00001000
00000000
00001100
00000000
00001000
00000001
00001000
00000000
,  // measure 64
00000100
00011000
01000000
00011000
,  // measure 65
00100000
00011000
00000010
00011000
,  // measure 66
00001000
00100000
00010000
00100000
,  // measure 67
01000000
10000000
01000000
00000000
00100000
00010000
00100000
00000000
,  // measure 68
00001000
00012000
00003100
00000001
,  // measure 69
00000010
00000000
00000100
00001000
00000000
00001000
00000100
00000000
,  // measure 70
00010000
00000000
00001000
01000000
00000000
00010000
00000000
01000000
,  // measure 71
00010000
00000000
00100000
00000000
01000000
10000000
01000000
00000000
,  // measure 72
00100000
00210000
00000000
00301000
,  // measure 73
00000100
00000000
00000001
00000000
00000010
00000100
00000000
00022000
,  // measure 74
00000000
00000000
00000000
00000000
00000000
00000000
00000000
00033000
,  // measure 75
00000000
00000000
00000000
10010000
00000000
00000000
00000000
00000000
;

//---------------dance-double - Copied from----------------
#NOTES:
     dance-double:
     Copied from:
     Easy:
     3:
     0.297,0.308,0.083,0.000,0.000:
00000000
00000000
00000000
00000000
,
00000000
00000000
00000000
00000000
,
00000000
00000000
00000000
00000000
,
00000000
00000000
00000000
00000000
,
00000000
00000000
00000000
00000000
,
00000000
00000000
00000000
00000000
,
00000000
10000000
00000000
01000000
00000000
00100000
00000000
00000000
,
00000000
00010000
00000000
01000000
00000000
00010000
00000000
00000000
,
00000000
00100000
00000000
00001000
00000000
00100000
00000000
00000000
,
00000000
00001000
00000000
00010000
00000000
00001000
00000000
00000000
,
00000000
00000100
00000000
00000010
00000000
00001000
00000000
00000100
,
00000000
00000010
00000000
00000001
00000000
00000100
00000000
00000000
,
00000000
00001000
00000000
00010000
00000000
00001000
00000000
00100000
,
00000000
01000000
00000000
00100000
00000000
00010000
00000000
00000000
,
00000000
01000000
00000000
00010000
00000000
01000000
00000000
00001000
,
00000000
00100000
00000000
00010000
00000000
00100000
00000000
00000000
,
00000000
01000000
00000000
00100000
00000000
00001000
00000000
00010000
,
00000000
00000100
00000000
00001000
00000000
00000100
00000000
00000000
,
00000000
00000010
00000000
00000001
00000000
00000100
00000000
00001000
,
00000000
00000100
00000000
00000001
00000000
00000010
00000000
00000100
,
00000000
00010000
00000000
00001000
00000000
00100000
00000000
00010000
,
00000000
01000000
00000000
10000000
00000000
01000000
00000000
00010000
,
00000000
10000000
00000000
01000000
00000000
00100000
00000000
00010000
,
00000000
00000000
00000000
00100000
00000000
00001000
00000000
00010000
,
00000000
00000000
00000000
00000100
00000000
00001000
00000000
00000100
,
00000000
00000000
00000000
00000010
00000000
00000001
00000000
00000000
,
00000010
00000100
00000010
00000000
,
00000100
00001000
00000100
00010000
,
00001000
00000000
00010000
00000000
,
01000000
00100000
01000000
10000000
,
00100000
00000000
01000000
01000000
,
00001000
00000000
00100000
01000000
,
00010000
00000000
00001000
00000010
,
00000010
00000000
00000100
00001000
,
00000001
00000100
00001000
00000100
,
00000010
00001000
00000100
00010000
,
00001000
00000000
00100000
00000000
,
00001000
00000000
01000000
00100000
,
10000000
01000000
01000000
00100000
,
00100000
00001000
00001000
00010000
,
00000100
00001000
00000100
00000000
,
00000010
00000001
00000100
00000010
,
00001010
00000000
00011000
00000000
,
00110000
00010000
01000000
00000000
,
00100000
10000000
01000000
00000000
,
01000000
00100000
00001000
00100000
,
01000000
10000000
00010000
00000000
,
01000000
00001000
00010000
00000100
,
00000010
00000100
00001000
00001000
,
00000010
00000000
00000100
00000000
,
00000001
00000100
00001000
00000100
,
00000010
00010000
00001000
00000000
,
00010000
00000000
00001000
00001000
,
00010000
00010000
01000000
10000000
,
00010000
00100000
01000000
00000000
,
00100000
00000000
00001000
00000000
,
00010000
00000000
00001000
00000000
,
00000100
00000010
00000010
00010000
,
00010000
00001000
00001000
00100000
,
00110000
00000000
00000000
00010000
,
00100000
00000000
00000000
00001000
,
00010000
00000000
00000000
00000010
,
00001000
00000100
00000011
00000011
,
00000000
00000001
00000000
00000100
,
00000000
00010000
00000000
01000000
,
00100000
01000000
00010000
00100000
,
00001000
00010000
01000000
01000000
,
00100000
00001000
00000000
00010000
,
00000000
00000100
00000000
00000010
,
00000100
00010000
00000000
00001000
,
01000000
00010000
00100000
01000000
,
10000000
10100000
00000000
00100000
,
01000000
00000000
00001000
00000000
00010000
00000000
00000000
00011000
,
00000000
00000000
00000000
00000000
,
00000000
00000000
00000000
00000110
00000000
00000000
00000000
00000000
;

//---------------dance-single - ----------------
#NOTES:
     dance-single:
     :
     Beginner:
     1:
     0.116,0.137,0.028,0.000,0.000:
0000
0000
0000
0000
,
0000
0000
0000
0000
,
0000
0000
0000
0000
,
0000
0000
0000
0000
,
0000
0000
0000
0000
,
0000
0000
0000
0000
0000
0000
0000
1000
,
0000
0000
0000
0000
0000
0000
0000
0001
,
0000
0000
0000
0000
0000
0000
0000
1000
,
0000
0000
0000
0000
0000
0000
0000
0001
,
0000
0000
0000
0001
0000
0000
0000
0001
,
0000
0000
0000
0000
0000
0000
0000
0010
,
0000
0000
0000
0000
0000
0000
0000
0100
,
0000
0000
0000
0100
0000
0000
0000
0100
,
0000
0000
0000
0000
0000
0000
0000
0010
,
0000
0000
0000
0000
0000
0000
0000
0001
,
0000
0000
0000
0000
0000
0000
0000
1000
,
0000
0000
0000
1000
0000
0000
0000
1000
,
0000
0000
0000
0000
0000
0000
0000
0010
,
0000
0000
0000
0000
0000
0000
0000
0100
,
0000
0000
0000
0000
0000
0000
0000
0010
,
0000
0000
0000
0010
0000
0000
0000
0010
,
0000
0000
0000
0000
0000
0000
0000
1000
,
0000
0000
0000
0000
0000
0000
0000
0100
,
0000
0000
0000
0000
0000
0000
0000
0010
,
0000
0000
0000
0010
0000
0000
0000
0010
,
0000
0000
0000
0000
0000
0000
0000
0001
,
0000
0000
0000
0000
0000
0000
0000
0100
,
0000
0000
0000
0000
0000
0000
0000
1000
,
0000
0000
0000
0000
0000
0000
0000
0100
,
0000
0000
0000
0100
0000
0000
0000
0001
,
0000
0000
0000
0000
0000
0000
0000
0010
,
0000
0000
0000
0000
0000
0000
0000
1000
,
0000
0000
0000
0000
0000
0000
0000
0010
,
0000
0000
0000
0010
0000
0000
0000
0001
,
0000
0000
0000
0000
0000
0000
0000
0100
,
0000
0000
0000
0000
0000
0000
0000
0010
,
0000
0000
0000
0000
0000
0000
0000
1000
,
0000
0000
0000
0000
0000
0000
0000
0001
,
0000
0000
0000
0001
0000
0000
0000
0010
,
0000
0000
0000
0000
0000
0000
0000
0100
,
0000
0000
0000
0100
0000
0000
0000
1000
,
0000
0000
0000
0000
0000
0000
0000
1001
,
0000
0000
0000
0000
0000
0000
0000
0001
,
0000
0000
0000
0000
0000
0000
0000
0100
,
0000
0000
0000
0000
0000
0000
0000
1000
,
0000
0000
0000
0000
0000
0000
0000
0010
,
0000
0000
0000
0000
0000
0000
0000
0001
,
0000
0000
0000
0001
0000
0000
0000
0001
,
0000
0000
0000
0000
0000
0000
0000
1000
,
0000
0000
0000
1000
0000
0000
0000
1000
,
0000
0000
0000
0000
0000
0000
0000
0001
,
0000
0000
0000
0000
0000
0000
0000
0010
,
0000
0000
0000
0000
0000
0000
0000
1000
,
0000
0000
0000
0000
0000
0000
0000
0100
,
0000
0000
0000
0000
0000
0000
0000
0001
,
0000
0000
0000
1000
0000
0000
0000
0001
,
0000
0000
0000
0000
0000
0000
0000
1000
,
0000
0000
0000
0001
0000
0000
0000
0001
,
0000
0000
0000
0001
0000
0000
0000
1000
,
0000
0000
0000
0000
0000
0000
0000
0010
,
0000
0000
0000
0000
0000
0000
0000
0100
,
0000
0000
0000
0000
0000
0000
0000
0010
,
0000
0000
0000
0000
0000
0000
0000
1000
,
0000
0000
0000
0001
0000
0000
0000
1000
,
0000
0000
0000
0000
0000
0000
0000
0010
,
0000
0000
0000
0000
0000
0000
0000
0100
,
0000
0000
0000
0000
0000
0000
0000
0001
,
0000
0000
0000
1000
0000
0000
0000
0001
,
0000
0000
0000
0000
0000
0000
0000
0010
,
0000
0000
0000
0000
0000
0000
0000
0100
,
0000
0000
0000
0000
0000
0000
0000
1000
,
0000
0000
0000
1000
0000
0000
0000
0000
,
0000
0000
0000
1001
,
0000
0000
0000
0000
,
0000
0110
0000
0000
;
