#TITLE:Penguin;
#SUBTITLE:;
#ARTIST:nakatek;
#TITLETRANSLIT:;
#SUBTITLETRANSLIT:;
#ARTISTTRANSLIT:;
#CREDIT:;
#BANNER:penguin.png;
#BACKGROUND:penguin-bg.png;
#LYRICSPATH:;
#CDTITLE:;
#MUSIC:Penguin.ogg;
#OFFSET:-1.240;
#SAMPLESTART:17.975;
#SAMPLELENGTH:13.380;
#SELECTABLE:YES;
#BPMS:0.000=71.500,8.000=143.000,104.000=71.500,112.000=143.160,192.000=143.000;
#STOPS:;
#BGCHANGES:;

//---------------dance-single - ----------------
#NOTES:
     dance-single:
     :
     Medium:
     5:
     0.423,0.563,0.105,0.441,0.042:
0000
0000
0000
0000
,
0000
0000
0000
0000
,
0010
0000
1000
0000
0001
0010
0000
0000
,
0001
0000
0100
0000
1000
0000
0100
0010
,
0100
0000
0001
0000
0010
0100
0000
0000
,
0010
0000
0001
0000
0100
0000
0010
1000
,
0020
0100
2030
0100
,
3002
0010
0203
0001
,
0310
0100
0010
0000
1000
0000
0000
0001
,
0010
0100
0010
0001
,
2000
3020
0032
0023
,
0130
0000
0001
0010
0001
0000
1100
0000
,
1000
0000
0000
0010
0000
0000
1000
0000
0001
0000
0000
0000
0010
0000
0100
0000
,
0010
0001
0100
0101
,
0001
0000
0000
0010
0000
0000
0010
0000
0001
0000
0000
0100
0000
0000
0100
0000
,
0001
0000
0000
1000
0000
0000
1000
0000
0010
0000
0000
0000
1000
0000
0000
0000
,
0002
0000
0013
0000
2100
0000
3010
0100
,
0020
1030
1200
0320
,
0032
0013
0000
0010
0000
0001
0000
0001
,
0000
0100
0000
0100
0000
0020
0000
1030
,
1000
0100
0000
0100
0000
0010
0000
0010
,
0001
1000
0001
0000
2000
0000
0020
0000
,
3030
0010
0000
1000
0000
0100
0000
0010
,
0001
0010
0002
0000
0103
0000
0010
1000
,
1010
1100
0110
0011
,
0001
0010
0010
0000
0001
0000
0100
0000
,
0010
0000
0000
1000
0100
0000
0020
0000
0031
0000
0000
0000
0001
0100
0020
0000
,
1030
0000
0000
1000
0001
0000
0020
0000
0130
0000
1000
0010
1000
0000
0001
0000
,
0010
0000
0001
1000
1000
0000
0001
0000
,
0100
0010
0100
0001
0001
0000
1000
0000
,
0100
0010
0200
0000
2000
0000
3300
0100
,
1000
0000
0010
0100
0010
0000
0100
0000
,
0001
0010
0002
0000
0203
0000
0310
1000
,
0020
0230
0302
0013
,
0100
0000
0100
1000
0000
0001
0000
1000
,
0000
0010
0000
0100
0000
0001
0010
0000
,
0002
0000
1003
0000
0200
0000
0310
0001
,
0020
0031
0200
0310
,
2000
0000
3100
0000
0020
0000
0031
0100
,
0002
0000
0023
0230
,
1300
0010
1000
0010
1000
0000
0001
0010
,
0001
0100
0010
1000
,
0001
0000
0100
0000
0010
0010
1000
1000
,
0001
0010
0001
1000
,
1020
0030
0210
0300
,
0020
1030
0000
0100
0000
0010
0000
0001
,
0000
0010
0000
0100
0000
1000
0001
0000
,
0001
0010
0000
0100
0000
0010
0000
0001
,
0100
0000
0010
0000
1000
0000
0100
0010
,
0002
0000
0000
0000
,
2000
0000
0000
0000
,
3003
0000
0000
0000
;

//---------------dance-single - ----------------
#NOTES:
     dance-single:
     :
     Easy:
     2:
     0.248,0.294,0.084,0.158,0.000:
0000
0000
0000
0000
,
0000
0000
0000
0000
,
0001
0001
0001
0000
,
1000
0100
0010
0001
,
1000
1000
1000
0000
,
0001
0011
0110
1100
,
2000
0000
3200
0000
,
0320
0000
0230
0000
,
1300
1000
1000
0000
,
0001
0100
0010
1010
,
1000
0100
1000
0100
,
0010
0001
0010
0001
,
0100
0000
0010
0000
,
0100
0001
0001
0001
,
0010
0001
0010
0001
,
1000
0100
1000
0100
,
2000
0000
3020
0000
,
0230
0000
0301
0010
,
0011
0000
0000
0001
0000
0010
0000
0010
,
0000
0100
0000
0100
0000
0020
0000
0000
,
0000
0031
0000
0001
0000
0100
0000
0100
,
0000
0010
0000
0010
,
1000
1000
1000
0000
,
0100
0010
0001
0001
,
0001
0000
0100
0000
,
0010
0010
0010
0010
,
1000
0100
1000
0001
,
0010
0000
0100
0000
1000
0000
0001
0001
,
0001
0010
0010
0000
,
0001
0100
0100
0000
,
0010
0000
0010
0000
,
1000
1000
0001
0001
,
0100
0100
1000
0000
,
0100
0100
0100
0000
,
0010
0000
0000
1000
0000
0000
0000
0010
,
0000
0000
0000
0100
0000
0000
0001
0000
,
0020
0000
0100
0000
,
0032
0000
0010
0103
,
0200
0000
0320
0000
,
1030
0000
1000
0100
,
0010
0001
0001
0001
,
0010
0000
0100
0000
,
1000
0000
0100
0000
,
0020
0000
0000
0000
,
0031
0000
0100
0000
,
0001
0000
0000
1000
,
1001
0000
0000
0010
,
0110
0000
0000
0100
,
0001
0010
0100
1000
,
2002
0000
0000
0000
,
0003
0000
0000
0000
0000
0000
0000
0000
0000
0000
0000
0000
0000
0000
0000
0000
0000
0000
0000
0000
0000
0000
0000
3000
;

//---------------dance-double - ----------------
#NOTES:
     dance-double:
     :
     Hard:
     8:
     0.513,0.697,0.210,0.284,0.047:
00000000
00000000
00000000
00000000
,
00000000
00000000
00000000
00000000
,
00100000
10000000
01000000
00100000
00001000
00010000
00000000
00000100
,
00001000
00000010
00001000
00000000
00000100
00000010
00000001
00001000
,
00000001
00000010
00000100
00001000
00000010
00010000
00000000
00010000
,
00000100
00000010
00000001
00000010
00000100
00010000
00001000
01000000
,
00020000
00100000
02030000
10000000
,
03200000
10000000
02300000
03001000
,
00010000
00000010
00010000
00000100
00001000
00000000
00000000
00001000
,
00000100
00000000
00000010
00000001
00000010
00000000
00001100
00000000
,
00001000
00000100
00000001
00000100
00001000
00000000
00000010
00000100
,
00001000
00000000
00010000
00100000
01000000
00000000
01010000
00000000
,
00010000
10000000
01000000
10000000
00100000
00000000
01000000
00010000
,
00100000
00000000
00001000
00010000
00000010
00000000
00001000
00000000
,
00000001
00000010
00001000
00000010
00000100
00000000
00001000
00000010
,
00010000
00000000
00000100
00001000
00000100
00000000
00010100
00000000
,
00002000
01003000
00020000
10030000
,
00200000
10300000
02000000
23000000
,
31000000
11000000
00000000
01000000
00000000
00110000
00000000
00010000
,
00000000
01001000
00000000
00001000
00000000
00021000
00000000
00030100
,
00001000
00001100
00000000
00000100
00000000
00000011
00000000
00000001
,
00000100
00000010
00001000
00000100
00000020
00000000
00000031
00000000
,
00000011
00000001
00000000
00000100
00000000
00001000
00000000
00010000
,
00100000
01000000
00100000
10000000
02000000
00000000
13000000
01000000
,
10000000
00100000
01000000
00010000
00100000
00001000
00010000
00000100
,
00002000
00000000
00000010
00000000
00003100
00000010
00000001
00000010
,
00000100
00001000
00000100
00010000
00001000
00000000
00100000
00010000
00100000
01000000
00100000
00010000
01000000
00000000
00100000
00000000
,
10000000
01000000
00100000
00010000
00200000
00000000
00000000
00301000
00010000
00000000
00000100
00001000
00000100
00000000
00000010
00000000
,
00000001
00000100
00001000
00000100
00000010
00000000
00001000
00000100
,
00000010
00000001
00000100
00001000
00001000
00000000
00010000
00000000
,
00100000
01000000
00100000
10000000
00020000
00000000
10030000
01000000
,
10000000
00000000
00100000
01000000
01010000
00000000
00110000
00000000
,
00010000
00100000
01000000
00100000
00002000
00000000
00013000
00000100
,
00001000
00000010
00000100
00000010
00002000
00000000
00003100
00000000
,
00000021
00000000
00000130
00001000
00000000
00000010
00000000
00010000
,
00000000
00000100
00000000
00010000
00000000
00100000
10000000
00000000
,
00010000
00100000
01000000
00000000
00210000
00000000
01300000
00000000
,
10000000
00100000
01000000
00000000
02010000
00000000
03002000
00000000
,
00013000
00000100
00001000
00000100
00000020
00000000
00000031
00000100
,
00000020
00000000
00001030
00000100
00000002
00000000
00000203
00000000
,
00001300
00000010
00000100
00000001
00000001
00000000
00000010
00000100
,
00001000
00000100
00010000
00000100
00001000
00000100
00000010
00000100
,
00010000
00001000
00100000
00001000
00010000
01000000
00100000
00010000
,
10000000
01000000
00100000
00010000
01000000
00100000
00010000
00001000
,
00010000
01000000
00100000
00001000
00010000
00000100
00000010
00000001
,
00001000
00000100
00000000
00000011
00000000
00000110
00000000
00001100
,
00000000
00000100
00000000
00010000
00000000
00001000
00100000
00010000
,
00100000
00001000
00000000
00110000
00000000
01100000
00000000
01000000
,
10000000
00100000
10000000
01000000
00010000
01000000
00100000
00001000
,
00020000
00000000
00000000
00000000
,
00000020
00000000
00000000
00000000
,
00030030
00000000
00000000
00000000
;

//---------------dance-double - ----------------
#NOTES:
     dance-double:
     :
     Medium:
     5:
     0.423,0.482,0.189,0.368,0.016:
00000000
00000000
00000000
00000000
,
00000000
00000000
00000000
00000000
,
10000000
00000000
00010000
00100000
00000000
00110000
00000000
00100000
,
00010000
00000000
00001000
00000000
00000100
00000000
00000010
00000001
,
00000010
00000000
00000100
00001000
00000000
00001100
00000000
00001000
,
00000100
00010000
00001000
01000000
,
00020000
00100000
02030000
10000000
,
03200000
01000000
20300000
01000000
,
30010000
00100000
00010000
00000000
01000000
00000000
00000000
01000000
,
00010000
00000000
00100000
01000000
00100000
00000000
00001000
00000000
,
00010000
00000100
00001000
00000010
,
00000100
00000000
00000001
00000000
00000010
00000100
00000010
00000000
,
00000001
00000010
00001000
00000010
,
00000100
00000000
00010000
00001000
00010000
00000000
01000000
00000000
,
00100000
00010000
00100000
00000000
01000000
00000000
10000000
00000000
,
10200000
00000000
00000000
01300000
00010000
00000000
00110000
00000000
,
00200000
00000000
00310000
00100000
00020000
00000000
00130000
00010000
,
00200000
00010000
00302000
00003200
,
00000310
00001000
00000000
00000100
00000000
00000011
00000000
00000011
,
00000000
00000100
00000000
00010000
00000000
00011000
00000000
00001000
,
00001000
00010000
00000000
01000000
00000000
10010000
00000000
10010000
,
00010000
01000000
00100000
10000000
,
11000000
00000000
01000000
00000000
00110000
00000000
00010000
00100000
,
00002000
00000000
00023000
00000000
00030100
00000000
00000010
00000001
,
00000010
00000100
00001000
00010000
,
00200000
00000000
01000000
00000000
00310000
01000000
00010000
00000000
,
10000000
00000000
00000000
10000000
01000000
00000000
00100000
00000000
00001000
00000000
00000000
00000000
00010000
00001000
00010000
00000000
,
01000000
00000000
00100000
00000000
00001000
00000000
00010000
00000000
00000100
00000000
00000010
00000001
00000010
00000000
00000100
00000000
,
00002000
00000000
00003001
00000100
00000001
00000000
00000010
00000000
,
00000200
00000000
00010300
00001000
00020000
00000000
01030000
00000000
,
00100000
00010000
00100000
00000000
02000000
00000000
13000000
00010000
,
10000000
00010000
01010000
01010000
,
00020000
00000000
00230000
00000000
02300000
00000000
03100000
00010000
,
00200000
00302000
00023000
00030200
,
00000310
00000000
00000001
00000100
00000000
00010000
00000000
00000100
,
00000000
00000010
00000000
00001000
00000000
00000100
00010000
00000000
,
00021000
00000000
00230000
00000000
,
20300000
00000000
00000000
00000000
32000000
00000000
03100000
00010000
,
00200000
00000000
01000000
00000000
00320000
00000000
01030000
00001000
,
00010000
00000000
00000100
00001000
00000100
00000000
00000010
00000000
,
00000001
00000010
00000001
00000000
00000001
00000000
00000100
00000000
,
00000010
00002010
00003100
00020100
,
00031000
00000000
00210000
00000000
01300000
10000000
01000000
10000000
,
01000000
00000000
00100000
00000000
00010000
01000000
00010000
00000000
,
00100000
00000000
00001000
00000000
00000010
00000100
00000010
00000000
,
00000001
00000100
00000000
00001000
00000000
00010000
00000000
00001000
,
00000000
00000100
00000000
00000010
00000000
00010000
00001000
00000000
,
00100000
00010000
00000000
00100000
00000000
01000000
00000000
10000000
,
00100000
00000000
10100000
00000000
01000000
00010000
01000000
00000000
,
20000000
00000000
30000000
00000000
,
00002000
00000000
00003000
00000000
,
00000001
00000000
00000000
00000000
;

//---------------dance-double - ----------------
#NOTES:
     dance-double:
     :
     Easy:
     4:
     0.312,0.402,0.126,0.242,0.000: // measure 1
00000000
00000000
00000000
00000000
,  // measure 2
00000000
00000000
00000000
00000000
,  // measure 3
10000000
01000000
00100000
00000000
,  // measure 4
00010000
01000000
10000000
01000000
,  // measure 5
00001000
00010000
00000100
00000000
,  // measure 6
00000100
00001000
00000010
00000001
,  // measure 7
00000200
00000000
00000320
00000000
,  // measure 8
00002030
00000000
00003200
00010300
,  // measure 9
00001000
00010000
00011000
00000000
,  // measure 10
00001000
00100000
00010000
01000000
,  // measure 11
00100000
10000000
01000000
00100000
,  // measure 12
00010000
00000000
00100000
00101000
,  // measure 13
00001000
00000100
00000001
00000000
,  // measure 14
00000001
00000100
00000010
00001000
,  // measure 15
00000100
00010000
00000010
00001000
,  // measure 16
00000100
00000000
00000100
00010100
,  // measure 17
00020000
00000000
00230000
00000000
,  // measure 18
20300000
00000000
31000000
00100000
,  // measure 19
00110000
00000000
00000000
00100000
00000000
01000000
00000000
01000000
,  // measure 20
00000000
10000000
00000000
10000000
00000000
00020000
00000000
00000000
,  // measure 21
00000000
00130000
00000000
00100000
00000000
00001000
00000000
00000000
,  // measure 22
00010100
00000100
00001000
00000001
,  // measure 23
00000001
00000011
00000001
00000101
,  // measure 24
00000100
00000010
00001000
00000000
,  // measure 25
00000100
00010000
00001000
00010000
,  // measure 26
00000020
00001000
00000130
00000100
,  // measure 27
00000001
00000001
00000001
00000000
00001000
00000100
00010000
00001000
,  // measure 28
00100000
00100000
00100000
00000000
01000000
10000000
00010000
00010000
,  // measure 29
01000000
00100000
10000000
00100000
,  // measure 30
01000000
00010000
00100000
00100000
,  // measure 31
00010000
10000000
00010000
00000000
,  // measure 32
00100000
01000000
10000000
01000000
,  // measure 33
00200000
00302000
00203000
00300000
,  // measure 34
00002000
00023000
00031000
00000010
,  // measure 35
00000001
00000000
00000000
00000100
00000000
00001000
00000000
00000100
,  // measure 36
00000000
00000010
00000000
00001000
00000000
00000000
00001100
00000000
,  // measure 37
00000200
00000010
00020300
00001000
,  // measure 38
00030020
00000100
00020030
00031000
,  // measure 39
00100000
00010000
00210000
00000000
,  // measure 40
01300000
10000000
00100000
01000000
,  // measure 41
01010000
00010000
00010000
00000000
,  // measure 42
00100000
01000000
10000000
01000000
,  // measure 43
00100000
00001000
00010000
00000100
,  // measure 44
00002000
00000100
00000010
00003100
,  // measure 45
00020000
00001000
00000100
00031000
,  // measure 46
00010000
00000000
01000000
10000000
,  // measure 47
10010000
00000000
00100000
01000000
,  // measure 48
01010000
00000000
00010000
00100000
,  // measure 49
00001000
00000100
00000001
00000100
,  // measure 50
00000020
00000000
00000000
00000000
,  // measure 51
00002000
00000000
00000000
00000000
,  // measure 52
00003030
00000000
00000000
00000000
;

//---------------dance-single - ----------------
#NOTES:
     dance-single:
     :
     Beginner:
     1:
     0.149,0.184,0.053,0.032,0.000:
0000
0000
0000
0000
,
0000
0000
0000
0000
,
1000
1000
0000
0000
,
0001
0001
0001
0000
,
0010
0010
0000
0000
,
0100
0000
0100
0000
,
1000
0000
0010
0000
,
1000
0000
0010
0000
,
0100
0100
0100
0000
,
0001
0000
0000
1000
,
1001
0000
0001
0000
,
0001
0000
0000
0100
,
0100
0000
0100
0000
,
0100
0000
0010
0000
,
1001
0000
1000
0000
,
1000
0000
0000
0001
,
0001
0000
0100
0000
,
0010
0000
1000
0000
,
0001
0000
0000
0000
,
0010
0000
0000
0010
,
0110
0000
0100
0000
,
0100
0000
1000
0000
,
0001
0001
0001
0000
,
0100
0000
0100
0000
,
0010
0000
1000
0000
,
1010
0000
0000
0000
,
0010
0000
1000
0000
,
0010
0010
0100
0000
,
0001
0000
0001
0000
,
0010
0000
0010
0000
,
0001
0000
0001
0000
,
0100
0100
0100
0000
,
0020
0000
0030
0000
,
2000
0000
3000
0000
,
0001
0000
0001
0000
,
1000
0000
1000
0000
,
0010
0000
0010
0000
,
0100
0000
0100
0000
,
0001
0000
0000
0000
,
1000
0000
0001
0001
,
1001
0000
0000
0000
,
0010
0000
0000
0000
,
0100
0000
0000
0000
,
0001
0000
0001
0000
,
1000
0000
1000
0000
,
0100
0000
0000
0000
,
0100
0000
0000
0000
,
0100
0000
0000
0000
,
0010
0010
0010
0000
,
0002
0000
0000
0000
,
0003
0000
0000
0000
;

//---------------dance-single - ----------------
#NOTES:
     dance-single:
     :
     Hard:
     7:
     0.504,0.750,0.137,0.357,0.047:
0000
0000
0000
0000
,
0000
0000
0000
0000
,
1000
0100
0010
0001
0100
0010
0000
0010
,
1000
0100
0001
0000
0001
0100
1000
0010
,
1000
0100
0010
0001
0100
0010
0000
0010
,
1000
0100
0010
0100
0001
0100
0010
0100
,
2000
0100
3020
1000
,
0230
1000
0302
0010
,
1003
0100
0001
0100
0020
0000
0031
0100
,
0101
0000
0001
0010
0100
0000
0011
0000
,
0001
0100
1000
0100
0002
0000
0013
0100
,
2000
0000
3001
0100
0020
0000
1030
0000
,
0010
1000
0001
1000
0020
0000
0130
0001
,
1000
0000
0100
0010
0001
0000
0010
0000
,
0100
1000
0100
0010
0002
0000
0103
0001
,
2000
0000
3100
0010
0100
0000
1100
0000
,
2000
0010
3200
1000
,
0320
1000
0032
0103
,
1010
1000
0000
0100
0000
0001
0000
0100
,
0000
1000
0000
0010
0000
0002
0000
0013
,
0100
0001
0000
0010
0000
1000
0000
0010
,
0100
1000
0100
0010
0002
0000
0100
0000
,
0013
0001
1000
0001
0010
0100
0001
0100
,
1000
0010
0100
0001
0020
0000
0031
0100
,
1000
0100
0010
1000
0100
1000
0010
0100
,
0002
0000
0010
0000
0103
1000
0100
0010
,
1000
0100
0010
0001
0100
0000
0010
0100
0010
1000
0100
0010
0001
0000
0110
0000
,
1000
0100
0001
0100
0010
0000
0001
0100
0101
0000
0100
0010
1000
0000
0100
0000
,
0010
0001
0100
1000
1000
0000
0100
0010
,
1000
0010
0100
0001
0002
0000
0023
0000
,
0130
1000
0001
1000
0020
0000
0130
0001
,
1000
0000
0100
0010
0011
0000
0110
0000
,
0100
1000
0100
0001
0200
0000
0310
0001
,
1000
0010
1000
0001
2000
0000
3100
0000
,
0012
0000
0103
0010
0000
0010
0000
1000
,
0000
1000
0000
0100
0000
0010
0001
0000
,
0021
1000
0230
1000
,
0320
0000
0001
0000
0230
0000
1000
1300
,
0010
0100
0010
1000
0002
0000
0013
0100
,
1100
0000
0100
0010
0001
0000
0100
0000
,
1010
0010
1000
0100
0100
0000
0010
0001
,
1000
0010
1000
0100
0010
0001
1000
0001
,
0010
0100
0001
0100
1000
0010
0100
0001
,
0010
0100
1000
0100
,
0020
0000
0000
0000
0032
0000
0000
0003
,
1001
0001
0000
0100
0000
0010
0000
0100
,
0000
0001
0000
0010
0000
0100
1000
0100
,
0010
0001
0000
0100
0000
0010
0000
1000
,
0100
0010
0100
1000
0010
0100
0010
1000
,
0002
0000
0000
0000
,
2000
0000
0000
0000
,
3003
0000
0000
0000
;

//---------------dance-solo - Copied from----------------
#NOTES:
     dance-solo:
     Copied from:
     Challenge:
     9:
     0.614,0.781,0.263,0.378,0.163:
000000
000000
000000
000000
,
000000
000000
000000
000000
,
100000
010000
001000
000100
010000
001000
000000
001000
,
100000
010000
001000
000000
010000
100000
001000
020000
,
030100
010000
001000
100000
010000
001000
000000
001000
,
000100
100000
001000
010000
000100
100000
001000
010000
,
000200
001000
020300
100000
,
032000
000100
203000
000100
,
310000
000100
010000
001000
000100
000000
100000
010000
,
110000
000000
000000
000000
010000
000000
001000
000000
000100
000000
000000
000000
000100
100000
000000
000000
,
001000
010000
000100
010000
002000
000000
103000
010000
,
000200
000000
000000
000000
010300
000000
001000
000000
000200
000000
000000
000000
001300
010000
000000
000000
,
100000
000000
000000
010000
100000
000000
000100
000000
100000
010000
000000
000000
100000
000000
010000
000000
,
001000
000000
000100
010000
001000
100000
100100
000000
,
000100
000000
000000
001000
000100
000000
100000
000000
000100
001000
000000
000000
000100
000000
001000
000000
,
010000
000000
000000
010000
100000
000000
001000
000000
010000
000000
000100
000000
001000
000000
000100
000000
,
210000
000000
301000
010000
021000
000000
030100
001000
,
002100
000000
000000
000000
003100
000000
100000
000000
000100
000000
001000
000000
000100
100000
000100
000000
,
110000
100000
000000
001000
000000
010000
000000
000100
,
000000
001000
000000
010000
000000
100000
000000
001100
,
001100
001000
000000
000100
000000
010000
000000
001000
,
200000
310000
000200
010300
002000
013000
100000
000000
,
110000
010000
001000
010000
100000
000100
010000
000100
,
100000
001000
010000
000100
002000
000000
003100
010000
,
002000
103000
020000
130000
002000
013000
000200
001300
,
100100
100000
010000
000100
010000
001000
000100
100000
,
000100
010000
001000
100000
100000
000000
010000
001000
010000
100000
000100
010000
010000
000100
010100
000000
,
000100
001000
010000
100000
110000
000000
010000
001000
001000
000000
000100
010000
001000
000000
100000
000000
,
000100
001000
000100
100000
110000
000000
010000
001000
,
000100
001000
010000
100000
100000
001000
011000
000000
,
010000
000100
001000
000100
200000
000000
310000
001000
,
001200
000000
010300
001000
101000
000000
010100
000000
,
000100
001000
100000
001000
002000
000000
013000
100000
,
010000
001000
000100
100000
010000
000000
001000
000000
,
001200
000000
010300
001000
000000
101000
000000
010100
,
000000
001100
000000
110000
000000
010000
100000
000100
,
020100
030100
100000
010000
200000
000000
300100
010000
,
002000
103000
001000
010000
000200
000000
001300
001000
,
021000
130000
010000
001000
000200
010000
010300
001000
,
102000
000000
103000
010000
002000
000000
003200
000000
,
002300
013000
100000
010000
010000
000000
001000
000100
,
010000
100000
010000
001000
010000
000100
010000
001000
,
100000
010000
100000
000100
100000
001000
100000
000100
,
100000
010000
001000
000100
010000
001000
100000
010000
,
001000
010000
100000
001000
010000
000100
001000
010000
,
100000
000000
000100
000000
010000
000000
100000
010000
000000
000100
000000
100000
010000
000000
000100
000000
,
010000
000000
001000
000000
000100
000000
010000
001000
000000
100000
000000
010000
001000
000000
000100
000000
,
100000
000000
010000
000000
000100
000000
010000
001000
000000
000100
000000
010000
001000
000000
100000
000000
,
000100
001000
000100
000000
100000
000000
100000
000000
001000
010000
001000
000000
100000
010000
100000
000100
,
002000
000000
000000
000000
000000
003100
010000
100000
,
020000
000000
000000
000000
000000
031000
100000
000100
,
002000
003000
000000
000000
;
