#TITLE:NOT GONNA GET US;
#SUBTITLE:;
#ARTIST:t.A.T.u.;
#TITLETRANSLIT:;
#SUBTITLETRANSLIT:;
#ARTISTTRANSLIT:;
#CREDIT:;
#BANNER:Not Gonna Get Us.png;
#BACKGROUND:Not Gonna Get Us-bg.png;
#LYRICSPATH:;
#CDTITLE:;
#MUSIC:Not Gonna Get Us.ogg;
#OFFSET:-0.212;
#SAMPLESTART:34.996;
#SAMPLELENGTH:12.000;
#SELECTABLE:YES;
#BPMS:0.000=130.000,68.000=135.000,68.500=140.000,69.000=145.000,69.500=150.000,70.000=160.000,70.500=170.000,71.000=180.000,71.500=190.000,72.000=200.000,72.500=220.000,73.000=240.000,73.500=260.000,74.000=280.001,74.500=300.001,75.000=340.001,75.500=380.001,76.000=420.000,76.500=460.000,77.000=488.000,86.000=130.003,118.000=65.001,134.000=130.003;
#STOPS:;
#BGCHANGES:;

//---------------dance-single - ----------------
#NOTES:
     dance-single:
     :
     Medium:
     5:
     0.320,0.366,0.026,0.149,0.000:
0000
0000
0000
0000
,
0000
0000
0000
0000
,
0000
0000
0000
0000
,
1100
0000
1000
0000
0000
0001
0010
0000
,
0001
0000
0010
0000
0000
0100
1000
0000
,
0010
0000
0001
0000
0000
0010
1000
0000
,
0001
0000
0010
0000
0000
0001
1000
0000
,
0001
0010
0001
1000
,
0010
0100
0001
1000
,
0100
1000
0010
0100
,
0002
0000
0000
1003
,
0100
0000
1000
0010
1000
0000
0010
0000
,
1000
0100
0010
0001
,
0100
0000
0001
0010
0001
0000
1000
0000
,
0001
0000
0100
0010
0100
0000
0001
0000
,
1000
0100
0010
0001
,
1000
0000
0010
1000
0010
0000
0100
0000
,
2002
0000
0000
0000
,
3003
0000
0000
0000
,
0000
0000
0000
0000
,
0000
0000
0000
0000
,
0000
0000
0000
0000
0001
0000
1000
0100
,
1000
0100
1000
0000
0010
0000
0100
0000
,
0001
0000
1000
0000
0010
0000
0100
0001
,
0100
0001
0100
0000
0001
0000
0010
0100
,
0010
0100
0010
0000
0001
0000
0100
0000
,
0010
0000
1000
0000
0100
0000
0010
1000
,
0010
1000
0010
0000
0001
0000
0100
0000
,
0010
1000
2001
0001
,
0001
0000
3001
0000
0001
0001
0010
0000
,
0001
1000
1000
0000
0010
1000
1000
0000
,
0100
0010
0010
0000
0100
1000
1000
0000
,
0010
0001
0001
0000
0010
0100
0100
0000
,
0001
1000
2000
3000
1000
0000
0100
0010
,
0100
0000
0000
0000
1000
0000
0001
0010
,
0001
0000
0000
0000
0100
0000
0001
0010
,
0001
0000
0000
0000
1000
0000
0100
0010
,
0100
0000
2000
0010
,
3020
0100
0230
0001
,
0302
0023
0230
1300
,
2000
0000
0001
0000
3001
0000
1000
0001
,
1000
0001
0000
0000
0001
0000
0010
0000
,
0100
1000
0100
0000
0010
0000
0001
1000
,
0001
1000
0000
0010
1000
0000
0010
0100
,
0010
0000
0100
0000
0100
0000
0001
0010
,
0001
0000
1000
0000
0100
0000
0010
0001
,
0010
0000
0100
0000
0100
0000
1000
0010
,
1000
0010
0000
1000
0100
0000
0010
0001
,
0010
0100
1000
0001
,
1000
0001
0000
1000
0100
0000
1000
0000
,
0100
0010
0002
0100
,
0100
0000
0103
0010
0100
0000
0001
0000
,
0001
0000
0010
0100
0010
0000
0100
0000
,
0100
0000
1000
0010
1000
0000
0010
0000
,
0100
0002
0010
0010
,
0010
0010
2003
0010
,
0010
0010
3010
1000
,
0001
0000
0100
0002
2000
0000
0000
0000
,
0000
0000
0000
0000
,
0000
0000
3003
0000
;

//---------------dance-single - ----------------
#NOTES:
     dance-single:
     :
     Easy:
     3:
     0.227,0.287,0.018,0.053,0.000:
0000
0000
0000
0000
,
0000
0000
0000
0000
,
0000
0000
0000
0000
,
1000
0010
0000
0100
,
0010
1000
0000
0100
,
0010
0001
0000
1000
,
0001
1000
0000
0010
,
0001
0010
1000
0100
,
0010
0001
1000
0010
,
1000
0100
0010
0001
,
2002
0000
0000
3003
,
1000
0010
0100
0000
,
0001
1000
0100
0010
,
0001
1000
0010
0000
,
0010
1000
0001
0000
,
0010
0001
1000
0010
,
0100
0001
1000
0000
,
0200
0000
0000
0000
,
0000
0000
0000
0000
,
0000
0000
0000
0000
,
0000
0000
0000
0000
,
0000
0000
0000
1300
,
1000
0000
0001
0010
,
0100
1000
0010
0010
,
0010
0000
0100
0100
,
0100
0000
0001
1000
,
0010
0100
0001
0001
,
0001
0000
1000
0100
,
1000
0010
0100
0100
,
0100
0000
0001
0010
,
0001
1000
0010
0000
0000
0010
1000
0000
,
0000
1000
0001
0000
0100
0010
1000
0000
,
0000
0001
0010
0000
0010
0001
1000
0000
,
0001
1000
0001
0000
1000
0000
0100
0000
,
0010
0000
0100
1000
,
0100
0000
0010
0001
,
0010
0000
0001
0100
,
0001
0000
1000
0000
,
0010
0010
0100
0000
,
0001
0001
0010
0000
,
0100
0100
1000
0001
,
1000
0000
0001
1000
,
0001
0001
1000
0001
,
1000
0001
0001
0010
,
0100
1000
0001
0010
,
0100
1000
1000
0001
,
1000
1000
0001
1000
,
0001
1000
1000
0010
,
0100
0001
0010
0100
,
0010
0001
1000
1000
,
0100
0020
0000
0000
0000
0000
0000
0000
,
0000
0030
0000
0000
0001
0000
0001
0000
,
0001
0000
0100
0100
,
0100
0000
0010
1000
,
0010
0000
0100
0001
,
0010
0100
1000
0010
,
1000
0000
0001
1000
,
1000
0001
2002
0000
,
0000
0000
0000
0000
,
0000
0000
3003
0000
;

//---------------dance-single - ----------------
#NOTES:
     dance-single:
     :
     Hard:
     7:
     0.439,0.549,0.264,0.184,0.206:
0000
0000
0000
0000
,
0000
0000
0000
0000
,
0000
0000
0000
0000
,
2001
0000
0000
0000
3100
0000
0000
0000
1000
0000
0001
0000
0000
0100
0000
0000
,
0001
0000
0000
0000
0010
0000
0000
0000
0100
0000
1000
0000
0000
0001
0000
0000
,
0201
0000
0000
0000
0310
0000
0000
0000
1000
0000
0100
0000
0000
1000
0000
0000
,
0001
0000
0000
0000
0100
0000
0001
0000
0010
0000
0001
0000
0000
0010
0000
0000
,
1100
0000
0100
0000
1000
0000
0000
0000
0010
0000
1000
0000
0000
0010
0000
0000
,
0100
0000
0001
0000
0100
0000
0000
0000
0001
0000
0010
0000
0000
0100
0000
0000
,
1100
0000
1000
0000
0100
0000
0000
0000
0000
0000
1001
0000
0000
0101
0000
0000
,
2002
0000
0000
0000
0000
0000
0000
3003
,
0001
0000
0001
0100
0010
1000
0100
0000
,
1100
0000
0000
0000
1000
0000
0000
0010
0000
0000
0100
0000
0000
0001
0000
0000
,
0011
0000
0010
0001
0010
0100
1000
0000
,
1010
0000
0010
0100
0001
0100
0010
0000
,
1010
0000
0000
0000
0010
0000
0000
1000
0000
0000
0100
0000
0000
0001
0000
0000
,
0101
0000
0100
0010
0001
1000
0100
0000
,
2002
0000
0000
0000
,
0000
0000
0000
0000
,
0000
0000
0000
0000
,
0000
0000
3003
0000
,
0000
0000
0000
0000
0000
0000
0000
0000
1001
0000
1000
0000
0000
0100
0000
0000
,
1000
0000
0000
0010
0000
0000
0100
0000
0001
0000
0010
0000
0000
0001
0000
0000
,
0100
0000
0000
0010
0000
0000
1000
0000
0100
0000
1000
0000
0000
0001
0000
0000
,
0010
0000
0000
0001
0000
0000
0100
0000
0010
0000
1000
0000
0000
0100
0000
0000
,
0001
0000
0000
0100
0000
0000
0010
0000
0001
0000
1000
0000
0000
0010
0000
0000
,
1000
0000
0000
0001
0000
0000
0010
0000
0100
0000
0001
0000
0000
0100
0000
0000
,
1000
0000
0000
0001
0000
0000
0010
0000
0001
0000
1000
0000
0100
0000
0000
0000
,
0010
0001
0100
0010
2020
0000
0000
0000
,
0000
0000
0000
0000
3030
0000
0000
0000
0010
0000
1000
0100
0000
0010
0000
0001
,
0100
0000
0001
0010
0000
0100
0000
1000
0010
0000
0100
0001
0000
0010
0000
0100
,
1000
0000
0010
1000
0000
0100
0000
0010
0001
0000
0100
0010
0000
1000
0000
0010
,
0100
0000
0001
0010
0000
1000
0000
0010
0001
0000
1000
0100
0000
0010
0000
0100
,
1000
0000
1000
0000
0001
0100
0002
0000
1003
0000
0000
0000
1000
0000
0100
0000
,
0001
0100
0010
0000
0011
0000
0001
0100
,
1000
0100
0010
0000
1010
0000
0010
1000
,
0100
1000
0010
0000
0101
0000
0100
0001
,
0010
0100
1000
0000
0012
0000
1000
0000
,
0103
0010
1000
0010
0200
0000
1000
0000
,
0301
0000
0010
0000
0100
0000
1000
0000
0020
0000
0000
0000
0130
0000
0000
0001
,
0000
0000
0010
0000
0000
0100
0000
0000
2002
0000
0000
0000
0000
0000
0000
0000
,
0000
0000
3003
0000
0011
0000
0001
1000
,
0010
1000
0000
1100
0000
0000
0100
0010
,
0001
1000
0000
1000
0010
0100
0001
0100
,
0010
0100
0001
0000
1000
0100
0010
0100
,
1000
0100
0010
0000
1001
0000
1000
0001
,
0010
0001
0000
0101
0000
0000
0001
1000
,
0100
1000
0000
0010
1000
0100
0001
0100
,
1000
0100
0010
0000
0002
0000
0203
0000
,
0310
2000
0000
3001
1001
0000
0110
0000
,
0101
0020
0000
0000
1000
0000
0100
0000
,
1000
0000
0130
0001
1001
0000
0001
0010
,
0100
1000
0010
0100
1000
0100
0010
0100
,
1000
0100
0010
1000
1010
0000
1000
0100
,
0010
0001
0100
0010
0001
0010
0100
0010
,
0001
0010
1000
0100
0020
0000
0100
0000
,
0000
0000
0100
0000
0031
0010
0100
1000
,
0100
0010
0001
1000
2002
0000
0000
0000
,
0000
0000
0000
0000
,
0000
0000
3003
0000
;

//---------------dance-double - ----------------
#NOTES:
     dance-double:
     :
     Easy:
     3:
     0.271,0.314,0.123,0.202,0.000:
00000000
00000000
00000000
00000000
,
00000000
00000000
00000000
00000000
,
00000000
00000000
00000000
00000000
,
21000000
30100000
00000000
01000000
,
00010000
00100000
00000000
00001000
,
00021000
00030100
00000000
00000010
,
00000001
00000010
00000000
00000100
,
00001200
00010300
00010000
00001000
,
00001000
00100000
00100000
00010000
,
02010000
03100000
10000000
01000000
,
20020000
00000000
00000000
30030000
,
00010000
00100000
00001000
00000000
,
00010000
00001000
00000010
00000100
,
00010000
00001000
00000010
00000000
,
00000001
00000100
00001000
00000000
,
00000010
00010000
00001000
00000100
,
00000010
00010000
00001000
00100000
,
02000000
00000000
00000000
00000000
,
00000000
00000000
00000000
00000000
,
00000000
00000000
00000000
00000000
,
00000000
00000000
00000000
00000000
,
00000000
00000000
00000000
03100000
,
00011000
00000000
00001000
00000100
,
00000001
00000100
00000010
00001000
,
00001010
00000000
00000100
00010000
,
00011000
00000000
00001000
01000000
,
00010000
01000000
00100000
10000000
,
10100000
00000000
10000000
00010000
,
00100000
00001000
00020000
00230000
,
02300000
00000000
03001000
00100000
,
00001000
00010000
00001000
00000000
00000000
00000010
00000001
00000000
,
00000100
00000010
00000100
00000000
00000010
00000000
00001000
00000000
,
00000100
00010000
00000100
00000000
00010000
00000000
00100000
00000000
,
10000000
01000000
10000000
00000000
00010000
00000000
00100000
00000000
,
00011000
00000000
00001000
00000100
,
00011000
00000000
00001000
00000010
,
00000001
00000010
00000100
00010000
,
00011000
00000000
00002000
00000000
,
00103000
01000000
20000000
00000000
,
30100000
01000000
00002000
00000000
,
00103000
00010000
00000020
00000000
,
00000001
00000000
00000130
00010000
,
00001000
00010000
00000010
00010000
,
00001000
00100000
00020000
01000000
,
01000000
01030000
00020000
00100000
,
00100000
00130000
01000000
00100000
,
00010000
00100000
00001000
00100000
,
00010000
00000010
00000200
00001000
,
00001000
00001300
00000200
00000010
,
00000310
00000000
00000021
00000100
,
00000230
00000000
00001300
00000010
,
00001000
00000100
00010000
00010000
,
00010000
00001000
00010000
00001000
,
00010000
01000000
10000000
10000000
,
10000000
00010000
10000000
00010000
,
10000000
01000000
00200000
00001000
,
00000000
00301000
00010000
00000100
,
00000010
00000100
00022000
00000000
,
00000000
00000000
00000000
00000000
,
00000000
00000000
00033000
00000000
;

//---------------dance-double - ----------------
#NOTES:
     dance-double:
     :
     Medium:
     5:
     0.345,0.366,0.088,0.246,0.004:
00000000
00000000
00000000
00000000
,
00000000
00000000
00000000
00000000
,
00000000
00000000
00000000
00000000
,
12000000
00000000
03100000
00000000
00000000
00100000
01000000
00000000
,
00100000
00000000
00001000
00000000
00000000
00010000
00001000
00000000
,
00001200
00000000
00000301
00000000
00000000
00001000
00000100
00000000
,
00000010
00000000
00001000
00000000
00000000
00010000
00001000
00000000
,
02001000
00000000
03100000
00000000
10000000
01000000
10000000
00000000
,
00010000
00000000
00100000
00000000
00001000
00010000
00001000
00000000
,
00000100
00000001
00000100
00000010
,
00000210
00000000
00000000
00000000
,
00000310
00000000
00001000
00000100
00001000
00000000
00000100
00000000
,
00000001
00000100
00010000
00001000
,
00100000
00000000
00010000
01000000
00010000
00000000
00100000
00000000
,
11000000
00000000
01000000
00100000
01000000
00000000
00100000
00000000
,
00001000
01000000
00010000
01000000
,
00001000
00000000
00010000
00001000
00010000
00000000
00000100
00000000
,
00000022
00000000
00000000
00000000
,
00000033
00000000
00000000
00000000
,
00000000
00000000
00000000
00000000
,
00000000
00000000
00000000
00000000
,
00000000
00000000
00000000
00000000
00000001
00000000
00001000
00000100
,
00000000
00000100
00001000
00000000
00000010
00000000
00010000
00001000
,
00000000
00001000
00010000
00000000
01000000
00000000
10000000
01000000
,
00000000
01000000
10000000
00000000
00100000
00000000
01000000
00010000
,
00000000
00010000
01000000
00000000
10100000
00000000
10000000
01000000
,
00000000
00100000
00010000
00000000
00100000
00000000
00001000
00010000
,
00000000
00000100
00001000
00000000
00000100
00000000
00000010
00000001
,
00000010
00000001
00001000
00000000
00000200
00000000
00001000
00000000
,
00020000
00000000
00000300
00000000
00001000
00001000
00031000
00000000
,
00010000
00100000
10000000
00000000
10000000
01000000
00010000
00000000
,
00001000
00000010
00000100
00000000
00001000
00000001
00000001
00000000
,
00000100
00000010
00010000
00000000
00000100
00001000
00000100
00000000
,
00000010
00000000
00000001
00000000
00001000
00000100
00001000
00000000
00000010
00000000
00000000
00000000
00010000
00000000
00000000
00000000
,
00001000
00000000
00100000
00010000
00100000
00000000
00001000
00000000
,
00010000
00000000
00000010
00001000
00000010
00000000
00000100
00000000
,
00001000
00000000
00010000
00001000
00010000
00000000
01000000
00000000
,
00100000
00010000
00100000
00000000
21000000
00000000
00100000
00000000
,
30020000
00100000
00032000
00000100
,
00003002
00000100
00002003
00000100
,
00023000
00000000
00100000
00000000
20030000
00000000
30010000
00100000
,
00010000
00100000
00000000
00000000
21000000
00000000
00100000
00000000
,
00010000
00000000
30100000
02000000
00000000
00000000
03010000
00100000
,
00010000
00000000
00100000
00001000
00020000
00000000
00000010
00000000
,
00001000
00000000
00030100
00001000
00000200
00000000
00000010
00000000
,
00000001
00000000
00001300
00000100
00002000
00000000
00000001
00000000
,
00000010
00000000
00003100
00020000
00000000
00000000
00000100
00000000
,
00001000
00000000
00030100
00010000
00002000
00000000
00100000
00000000
,
00010000
00000000
01003000
00000000
00010000
00000000
10000000
01000000
,
10000000
01000000
00000000
00000000
00100000
00000000
00001000
00000000
,
00100000
00020000
00000000
00000000
01000000
00000000
10000000
00000000
,
01030000
00000000
00010000
00100000
00002000
00000000
00010000
00000000
,
00000010
00010000
00003010
00000100
,
00001000
00000000
00000100
00010000
00002000
00000000
00000100
00000000
,
00010000
00000100
00013000
00100000
,
10000000
00000000
01000000
00100000
00020000
00000000
01000000
00000000
,
00000000
00000000
01000000
00000000
10030000
01000000
10000000
00000000
,
00010000
01000000
00010000
00000000
02002000
00000000
00000000
00000000
,
00000000
00000000
00000000
00000000
,
00000000
00000000
03003000
00000000
;

//---------------dance-double - ----------------
#NOTES:
     dance-double:
     :
     Hard:
     7:
     0.453,0.627,0.228,0.272,0.193:
00000000
00000000
00000000
00000000
,
00000000
00000000
00000000
00000000
,
00000000
00000000
00000000
00000000
,
00100000
00000000
10000000
00000000
01000000
00000000
00000000
00000000
00100000
00000000
00001000
00000000
00000000
00001000
00000000
00000000
,
00001000
00000000
00010000
00000000
00000100
00000000
00000000
00000000
00001000
00000000
00000001
00000000
00000000
00000001
00000000
00000000
,
00000011
00000000
00000001
00000000
00000100
00000000
00000000
00000000
00000010
00000000
00010000
00000000
00000000
00010000
00000000
00000000
,
00010000
00000000
00001000
00000000
01000000
00000000
00000000
00000000
00100000
00000000
10000000
00000000
00000000
01000000
00000000
00000000
,
00110000
00010000
02000000
00000000
03100000
10000000
02000000
00000000
,
03010000
00000000
00001000
00000000
00020000
00000000
00000000
00000000
01030000
00000000
00100000
00000000
00000000
00001000
00000000
00000000
,
00010000
00001000
00000200
00000000
00000301
00000100
00001000
00000000
,
00020200
00000000
00000000
00030300
,
00001100
00000000
00000000
00000000
00000100
00000000
00000000
00000010
00000000
00000000
00000001
00000000
00000000
00000010
00000000
00000000
,
00010100
00000000
00000000
00000000
00001000
00000000
00000000
00100000
00000000
00000000
00010000
00000000
00000000
00100000
00000000
00000000
,
00011000
00000000
00000000
00000000
00001000
00000000
00000000
01000000
00000000
00000000
00010000
00000000
00000000
01000000
00000000
00000000
,
01001000
00000000
00000000
00000000
01000000
00000000
00000000
00010000
00000000
00000000
10000000
00000000
00000000
00010000
00000000
00000000
,
01010000
00000000
00000000
00000000
01000000
00000000
00000000
00100000
00000000
00000000
10000000
00000000
00000000
00100000
00000000
00000000
,
01100000
00000000
00000000
00000000
00100000
00000000
00000000
10000000
00000000
00000000
01000000
00000000
00000000
00100000
00000000
00000000
,
00022000
00000000
00000000
00000000
,
00000000
00000000
00000000
00000000
,
00000000
00000000
00000000
00000000
,
00000000
00000000
00030000
00000000
,
00013000
00000000
00000000
00000000
00000010
00000000
00000100
00000001
,
00000010
00000000
00000100
00000000
00000000
00010100
00000000
00000000
00002000
00000000
00000000
00000000
00103000
00000000
00000000
00010000
,
00000000
00000000
00001000
00000000
00000000
00010000
00000000
00000000
00110000
00000000
00000000
00000000
00010000
00000000
01000000
00000000
,
00100000
00000000
10000000
00000000
00000000
01000000
00000000
00000000
00110000
00000000
00000000
00000000
00010000
00000000
01000000
00000000
,
00001000
00000000
00010000
00000000
00000000
00010100
00000000
00000000
00000200
00000000
00000000
00000000
00001300
00000000
00000000
00000001
,
00000000
00000000
00000010
00000000
00000000
00000100
00000000
00000000
00001001
00000000
00000000
00000000
00001000
00000000
00000010
00000000
,
00010000
00000000
00001000
00000000
00000000
00110000
00000000
00000000
00020000
00000000
00000000
00000000
01030000
00000000
00000000
00100000
,
00000000
00000000
10000000
00000000
00000000
00100000
00000000
00000000
01010000
00000000
00000000
00000000
00010000
00000000
00100000
00000000
,
00001000
00000000
00200000
00000000
00000000
00000000
00000000
00000000
01300000
00000000
10000000
00100000
10000000
00000000
00010000
00000000
,
00010000
00000000
00100000
00001000
00100000
00000000
00010000
00000000
00001000
00000000
00000100
00000010
00000100
00000000
00010000
00000000
,
00001000
00000000
00000010
00000100
00000010
00000000
00000001
00000000
00000001
00000000
00001000
00000010
00001000
00000000
00000100
00000000
,
00010000
00000000
00000010
00001000
00000010
00000100
00000001
00000000
00000010
00000000
00000100
00001000
00000100
00000000
00010000
00001000
,
00100000
00000000
00010000
00100000
01000000
10000000
00020000
00000000
01030000
00000000
00000000
00000000
10100000
00000000
00000000
00100000
,
10000000
00000000
01000000
00000000
10000000
00000000
00000000
00000000
00010000
00000000
00000000
00000000
00110000
00000000
00000000
00100000
,
00001000
00000000
00010000
00000000
00001000
00000000
00000000
00000000
00000100
00000000
00000000
00000000
00000110
00000000
00000000
00000010
,
00000100
00000000
00000001
00000000
00000100
00000000
00000000
00000000
00000001
00000000
00000000
00000000
00000011
00000000
00000000
00000010
,
00000100
00000000
00001000
00000000
00000000
00000100
00000000
00000000
00020100
00000000
00000000
00000000
01000000
00000000
00000000
00000000
,
00031000
00100000
00001000
00100000
00002000
00000000
00000010
00000000
,
00013000
00000010
00010000
00000010
00020000
00000000
00100000
00000000
,
00031000
00000000
00010000
00000000
00000000
01000000
00000000
00000000
22000000
00000000
00000000
00000000
03000000
00000000
00000000
00000000
,
30000000
00000000
00000000
00000000
11000000
00000000
01000000
00100000
,
00010000
01000000
00001000
00010000
00000000
00010000
00001000
00000100
,
00000010
00000100
00001000
00010000
00000200
00000000
00000320
00000000
,
00000130
00010000
00001000
00000000
00000020
00000000
00000230
00000000
,
00001300
00000100
00000010
00000100
00010000
00000000
00001000
00100000
,
00001000
00010000
00000010
00001000
00000000
00000100
00010000
00001000
,
00100000
00010000
01000000
00010000
00200000
00000000
01300000
10000000
,
00100000
01000000
00000000
01000000
00002000
00000000
00023000
00000000
,
00001000
00001000
00000000
00030010
00001000
00000000
00000100
00000010
,
00000001
00002000
00000100
00000000
00000000
00000000
00000010
00000000
,
00000000
00000000
00003100
00010000
00002000
00000000
00103000
00010000
,
01000000
00100000
10000000
00100000
01000000
00100000
10000000
00100000
,
01000000
00010000
00100000
00001000
00020000
00000000
00030100
00001000
,
00000100
00000010
00000001
00000010
00000100
00000010
00000001
00000010
,
00000100
00000010
00010200
00001000
,
00000001
00000000
00001000
00000000
00010300
00001000
00010000
00100000
,
00010000
00001000
01000000
00010000
00220000
00000000
00000000
00000000
,
00000000
00000000
00000000
00000000
,
00000000
00000000
00330000
00000000
;

//---------------dance-double - Copied from----------------
#NOTES:
     dance-double:
     Copied from:
     Challenge:
     1:
     0.115,0.523,0.167,0.070,0.053:
00000000
00000000
00000000
00000000
,
00000000
00000000
00000000
00000000
,
00000000
00000000
00000000
00000000
,
00100000
00000000
10000000
00000000
01000000
00000000
00000000
00000000
00100000
00000000
00001000
00000000
00000000
00001000
00000000
00000000
,
00001000
00000000
00010000
00000000
00000100
00000000
00000000
00000000
00001000
00000000
00000001
00000000
00000000
00000001
00000000
00000000
,
00000011
00000000
00000001
00000000
00000100
00000000
00000000
00000000
00000010
00000000
00010000
00000000
00000000
00010000
00000000
00000000
,
00010000
00000000
00001000
00000000
01000000
00000000
00000000
00000000
00100000
00000000
10000000
00000000
00000000
01000000
00000000
00000000
,
00110000
00010000
02000000
00000000
03100000
10000000
02000000
00000000
,
03010000
00001000
00020000
00000000
01030000
00100000
00001000
00000000
,
00001010
00001000
00000200
00000000
00000301
00000100
00001000
00000000
,
00020200
00000000
00000000
00030300
,
00001000
00000000
00000000
00000000
00000010
00000000
00000000
00001010
00000000
00000000
00001001
00000000
00000000
00001100
00000000
00000000
,
00000200
00000000
00000000
00000000
00010300
00000000
00000000
00011000
00000000
00000000
00010100
00000000
00000000
00010010
00000000
00000000
,
00001100
00000000
00000000
00000000
00010000
00000000
00000000
00011000
00000000
00000000
00101000
00000000
00000000
01001000
00000000
00000000
,
00110000
00000000
00000000
00000000
00010000
00000000
00000000
01010000
00000000
00000000
10010000
00000000
00000000
00110000
00000000
00000000
,
02000000
03000000
00000000
00000000
,
00000000
00000000
00000000
00000000
,
00000000
00000000
00000000
00000000
,
00000000
00000000
00000000
00000000
,
00000000
00000000
00000000
00000000
,
00000000
00000000
00000000
00000000
,
00000000
00000000
00000000
00000000
,
00000000
00000000
00000000
00000000
,
00000000
00000000
00000000
00000000
,
00000000
00000000
00000000
00000000
,
00000000
00000000
00000000
00000000
,
00000000
00000000
00000000
00000000
,
00000000
00000000
00000000
00000000
,
00000000
00000000
00000000
00000000
,
00000000
00000000
00000000
00000000
,
00000000
00000000
00000000
00000000
,
00000000
00000000
00000000
00000000
,
00000000
00000000
00000000
00000000
,
00000000
00000000
00000000
00000000
,
00000000
00000000
00000000
00000000
,
00000000
00000000
00000000
00000000
,
00000000
00000000
00000000
00000000
,
00000000
00000000
00000000
00000000
,
00000000
00000000
00000000
00000000
,
00000000
00000000
00000000
00000000
,
00000000
00000000
00000000
00000000
,
00000000
00000000
00000000
00000000
,
00000000
00000000
00000000
00000000
,
00000000
00000000
00000000
00000000
,
00000000
00000000
00000000
00000000
,
00000000
00000000
00000000
00000000
,
00000000
00000000
00000000
00000000
,
00000000
00000000
00000000
00000000
,
00000000
00000000
00000000
00000000
,
00000000
00000000
00000000
00000000
,
00000000
00000000
00000000
00000000
,
00000000
00000000
00000000
00000000
,
00000000
00000000
00000000
00000000
,
00000000
00000000
00000000
00000000
,
00000000
00000000
00000000
00000000
,
00000000
00000000
00000000
00000000
,
00000000
00000000
00000000
00000000
,
00000000
00000000
00000000
00000000
,
00000000
00000000
00000000
00000000
,
00000000
00000000
00110000
00000000
;

//---------------dance-single - ----------------
#NOTES:
     dance-single:
     :
     Beginner:
     1:
     0.099,0.152,0.053,0.018,0.000:
0000
0000
0000
0000
,
0000
0000
0000
0000
,
0000
0000
0000
0000
,
1010
0000
0000
0000
,
1000
0000
0000
0000
,
0101
0000
0000
0000
,
0001
0000
0000
0000
,
1000
0000
1000
0000
,
0001
0000
0001
0000
,
0010
0000
0000
0000
,
0200
0000
0300
0000
,
0010
0000
0000
0000
,
0011
0000
0000
0000
,
0001
0000
0000
0000
,
1001
0000
0000
0000
,
1000
0000
0000
0000
,
1010
0000
0000
0000
,
0000
0000
0000
0000
,
0000
0000
0000
0000
,
0000
0000
0000
0000
,
0000
0000
0000
0000
,
0000
0000
0000
0000
,
1000
0000
0000
0000
,
0100
0000
1000
0000
,
1000
0000
0001
0000
,
0001
0000
0000
0000
,
0100
0000
0010
0000
,
0010
0000
1000
0000
,
0000
0000
0100
0000
,
0000
0000
0010
0000
,
0010
0000
0001
0000
,
0001
0000
1000
0000
,
1000
1000
0001
0000
,
0010
0010
0010
0000
,
0000
0000
0100
0000
,
0000
0000
1000
0000
,
0000
0000
0001
0000
,
0000
0000
0100
0100
,
0000
0000
0010
0010
,
0000
0000
0100
0000
,
0001
0000
1000
0000
,
0000
0000
0100
0000
,
0100
0000
1000
0000
,
0000
0000
0001
0000
,
0001
0000
0100
0000
,
0000
0000
0010
0000
,
0010
0000
1000
0000
,
0000
0000
0001
0000
,
0001
0000
0010
0000
,
0000
0000
0100
0000
,
0000
0000
0010
0000
,
0000
0000
0100
0000
,
0100
0000
0100
0000
,
0000
0000
1000
0000
,
1000
0000
1000
0000
,
0000
0000
0020
0000
,
0030
0000
0100
0000
,
0000
0000
1001
0000
;
