#TITLE:Mahna Mahna;
#SUBTITLE:;
#ARTIST:CAKE;
#TITLETRANSLIT:;
#SUBTITLETRANSLIT:;
#ARTISTTRANSLIT:;
#CREDIT:;
#BANNER:Mahna Mahna.png;
#BACKGROUND:Mahna Mahna-bg.png;
#LYRICSPATH:;
#CDTITLE:;
#MUSIC:Mahna Mahna.ogg;
#OFFSET:-0.822;
#SAMPLESTART:29.600;
#SAMPLELENGTH:12.000;
#SELECTABLE:YES;
#DISPLAYBPM:180.000;
#BPMS:0.000=180.000,231.500=175.660,236.000=180.000;
#STOPS:;
#BGCHANGES:;

//---------------dance-single - ----------------
#NOTES:
     dance-single:
     :
     Hard:
     8:
     0.530,0.622,0.225,0.294,0.000:
0000
0000
0000
0000
,
0000
0000
0000
0000
,
0000
0000
0000
0000
,
0000
0000
0000
0000
,
0000
0000
0000
0000
,
0000
0000
0000
0000
,
0000
0000
0000
0000
,
1000
0000
0001
0000
0010
0010
0000
0001
,
0000
0000
1000
0000
,
0101
0000
0100
0000
0010
0000
1000
0100
,
1000
0001
0001
0000
0010
0000
0001
0000
,
1001
0000
0010
0000
0100
0000
1000
0100
,
1000
0001
0001
0000
0100
0000
0010
0000
,
1001
0000
0001
0000
0010
0000
0100
1000
,
0100
0010
0000
0001
0100
0010
0000
1000
,
0100
0010
0000
0001
1000
0010
1000
0100
,
0010
0000
0001
0000
1000
0010
0000
1001
,
0000
0000
0000
0000
,
0001
0000
0000
0100
0000
0000
0010
0000
,
1000
0000
0000
0100
0000
0000
0010
0000
,
0001
0000
0000
0100
0000
0000
0010
0000
,
1000
0001
0000
0001
1000
0000
0100
0000
,
0012
0000
1003
0000
0010
0000
0100
0001
,
0100
0010
0010
0000
1000
0000
0100
0000
,
0011
0000
0001
0000
1000
0000
0001
0010
,
0001
0100
0100
0000
0010
0000
1000
0000
,
1010
0000
1000
0000
0001
0000
0010
0001
,
0010
0100
0000
1000
0010
0100
0000
0001
,
0010
0100
0000
1000
0010
1000
0100
0010
,
0001
0000
1000
0000
0010
0100
0000
1001
,
0000
0000
0000
0000
,
0002
0100
0000
0100
,
0000
0010
0000
0010
,
2003
0100
0000
0100
,
3001
0000
0100
0000
0010
1000
0100
0010
,
0001
0000
1000
0000
0010
0000
1000
0100
,
1000
0001
0001
0000
1000
0001
0010
0001
,
1000
0000
0010
0000
0100
0002
0000
1000
,
0000
0010
0013
0000
0100
1000
0001
0010
,
0001
0000
0100
0000
0010
0000
1000
0100
,
1000
0001
0000
0100
0001
1000
0000
0100
,
1000
0001
0000
0100
0001
0010
0100
1000
,
0001
0000
0100
0000
0010
1000
0000
1001
,
0000
0000
0000
0000
,
1000
0000
0001
0100
0002
0000
1003
0100
,
2000
0000
3001
0100
0002
0000
1003
0100
,
2000
0000
3010
0000
0100
0000
0001
0010
,
0001
0000
1000
0010
1000
0000
0001
0000
,
0010
0000
0100
1000
0100
0020
0000
0032
,
0000
1000
0000
0103
0001
1000
0100
0000
,
0011
0000
2100
0000
3010
0000
1000
0100
,
0010
0001
0001
0000
0100
0001
0010
0001
,
1000
0000
0010
0000
0100
0002
0000
1000
,
0000
0010
0013
0000
0001
1000
0100
0010
,
0001
0000
1000
0000
2010
0000
3001
0010
,
0100
1000
0000
0010
0100
0001
0000
0010
,
0100
1000
0000
0010
0100
0001
0100
0000
,
1010
0000
1001
0000
0001
0010
0000
1001
,
0000
0000
0000
0000
,
2100
0000
0001
0000
3010
0000
1000
0002
,
0000
0010
0000
1000
1003
0000
0010
0000
,
0102
0000
1000
0000
0013
0000
0100
2000
,
0000
0001
0000
0010
3010
0000
1000
0000
,
0102
0000
1000
0000
0013
0000
0001
2000
,
0000
0100
0000
0001
3001
0000
0100
0000
,
0001
0000
0010
0000
1000
0010
0000
0001
,
0000
1000
0000
0010
0000
0001
0000
0010
,
1000
0001
0000
0010
0000
0100
0000
0010
,
0000
0001
1000
0100
1000
0000
0010
0000
,
0102
0000
1000
0000
0013
0000
0001
2000
,
0000
0010
0000
0100
3100
0000
0010
0000
,
0012
0000
1000
0000
0103
0000
0010
2000
,
0000
0001
0000
0100
3100
0000
0010
0000
,
0001
1000
0100
0000
1000
0001
0010
0100
,
0000
0100
0000
0100
0000
0000
0000
0000
,
1100
0000
2000
0000
3002
0000
0000
1003
,
0100
0010
0010
0000
0001
1000
0100
1000
,
0001
0000
0010
0000
0001
2000
0000
0010
,
0000
0100
3100
0000
0010
0000
0001
0000
,
1001
0000
0002
0000
2003
0000
0000
3001
,
0010
0200
0000
1300
0010
0200
0000
0301
,
0010
0200
0000
1300
0010
0200
0000
0301
,
0010
0200
0000
1300
0010
0200
0000
0301
,
1001
0000
0011
0000
0001
1000
0000
0110
,
0000
0100
0001
1000
1001
0000
0000
0000
;

//---------------dance-single - ----------------
#NOTES:
     dance-single:
     :
     Beginner:
     1:
     0.125,0.183,0.009,0.000,0.000:
0000
0000
0000
0000
,
0000
0000
0000
0000
,
0000
0000
0000
0000
,
0000
0000
0000
0000
,
0000
0000
0000
0000
,
0000
0000
0000
0000
,
0000
0000
0000
0000
,
0000
0000
0000
0000
,
0000
0000
0000
0000
,
0001
0000
0000
0000
,
1000
0000
0000
0000
,
0001
0000
0001
0000
,
0001
0000
0000
0000
,
0010
0000
0000
0000
,
0100
0000
0000
0000
,
0010
0000
0000
0000
,
0001
0000
0001
0000
,
0001
0000
0000
0000
,
1000
0000
0000
0000
,
0010
0000
0000
0000
,
0100
0000
0000
0000
,
0001
0000
0000
0000
,
1000
0000
0000
0000
,
0100
0000
0000
0000
,
1000
0000
1000
0000
,
1000
0000
0000
0000
,
0001
0000
0000
0000
,
0100
0000
0000
0000
,
0001
0000
0000
0000
,
0010
0000
0010
0000
,
0010
0000
0000
0000
,
0000
0001
0000
0001
,
0000
0001
0000
0000
,
0000
1000
0000
1000
,
0000
1000
0000
0000
,
0010
0000
0000
0000
,
0010
0000
0000
0000
,
0100
0000
0100
0000
,
0100
0000
0000
0000
,
0001
0000
0000
0000
,
1000
0000
0000
0000
,
0001
0000
0000
0000
,
0010
0000
0010
0000
,
0010
0000
0000
0000
,
0100
0000
0100
0000
,
0100
0000
0000
0000
,
0010
0000
0000
0000
,
0001
0000
0000
0000
,
1000
0000
0001
0000
,
1000
0000
0001
0000
,
1000
0000
0000
0000
,
0010
0000
0000
0000
,
1000
0000
1000
0000
,
1000
0000
0000
0000
,
0001
0000
0000
0000
,
0010
0000
0000
0000
,
0001
0000
0000
0000
,
1000
0000
1000
0000
,
1000
0000
0000
0000
,
0100
0000
0100
0000
,
0010
0000
0010
0000
,
0100
0000
0000
0000
,
0100
0000
0000
0000
,
1000
0000
1000
0000
,
0001
0000
0001
0000
,
1000
0000
0000
0000
,
0010
0000
0000
0000
,
0100
0000
0100
0000
,
0100
0000
0000
0000
,
0001
0000
0001
0000
,
0001
0000
0000
0000
,
1000
0000
1000
0000
,
1000
0000
0000
0000
,
0100
0000
0000
0000
,
0000
0000
0000
0000
,
1001
0000
0000
0000
,
0001
0000
0000
0000
,
1000
0000
1000
0000
,
1000
0000
0000
0000
,
0010
0000
0000
0000
,
0100
0000
0100
0000
,
0100
0000
0000
0000
,
0001
0000
0001
0000
,
0001
0000
1000
0000
,
0001
0000
0001
0000
;

//---------------dance-single - ----------------
#NOTES:
     dance-single:
     :
     Easy:
     3:
     0.338,0.366,0.087,0.182,0.000:
0000
0000
0000
0000
,
0000
0000
0000
0000
,
0000
0000
0000
0000
,
0000
0000
0000
0000
,
0000
0000
0000
0000
,
0000
0000
0000
0000
,
0000
0000
0000
0000
,
0000
0000
0000
0000
,
0000
0000
0000
0000
,
1000
0100
0020
0000
,
0031
0000
0100
0001
,
1000
0000
0100
0000
2000
0000
0000
3001
,
0000
0000
0001
0100
,
0001
0010
0200
0000
,
1300
0000
0001
0000
,
0010
0001
1000
0010
,
1000
0000
0001
0000
0100
0010
0000
0110
,
0000
0000
0000
0000
,
0020
0000
0000
1000
0000
0000
1030
0000
,
0002
0000
0000
2000
0000
0000
3003
0000
,
0002
0000
0000
0010
0000
0000
1003
0000
,
0200
0000
0000
0020
0000
0000
0330
0000
,
0110
0100
2000
0000
,
3010
0000
0100
0001
,
1000
0000
0100
0000
2000
0000
0000
3001
,
0000
0000
0001
0100
,
0010
0100
0002
0000
,
1003
0000
0100
0000
,
1000
0010
0100
0001
,
0010
0000
0100
0000
1000
0001
0000
1001
,
0000
0000
0000
0000
,
0001
0100
0000
1000
,
0000
0100
0000
0001
,
1000
0100
0000
0001
,
0000
0100
1000
0010
,
0110
0100
0002
0000
,
1003
0100
1000
0010
,
0100
0000
0001
0000
0020
0000
0000
0130
,
0000
0000
0010
0001
,
1000
0010
0200
0000
,
0301
0000
1000
0000
,
0001
0010
0100
1000
,
0100
0000
0010
0000
0001
1000
0000
1001
,
0000
0000
0000
0000
,
0001
0001
1000
1000
,
0001
0001
1000
1000
,
0100
0100
0010
0010
,
0100
0100
0010
0010
,
0001
0000
0100
0000
1000
0000
0000
0100
,
0000
0001
1000
0100
,
0110
0100
2000
0000
,
3010
0100
0001
1000
,
0100
0000
1000
0000
0020
0000
0000
0130
,
0000
0000
0001
1000
,
0100
1000
0020
0000
,
0130
0000
0001
0000
,
1000
0100
0010
0001
,
0010
0000
0100
0000
1000
0001
0000
1001
,
0000
0000
0000
0000
,
0001
0100
0010
0100
,
0001
0010
0100
0010
,
0001
0100
0010
0000
,
1001
0000
0001
0001
,
1000
0100
0010
0100
,
1000
0010
0100
0010
,
1000
0000
0001
0000
1000
0001
0000
0001
,
0000
1000
0000
0100
0000
1000
0000
0001
,
0000
0010
0000
0100
0000
1000
0000
0100
,
0000
0010
0010
0001
,
1000
0010
0100
0000
,
0001
0010
1000
0010
,
0001
0100
0010
1000
,
0100
0010
0100
1000
,
0001
0000
0100
0000
0001
1000
0000
0010
,
0000
0010
0000
0110
0000
0000
0000
0000
,
0100
0001
0020
0000
,
0130
1000
0010
1000
,
0001
0000
0010
0000
0200
0000
0000
0310
,
0000
0001
0100
0010
,
1000
0100
0020
0000
,
0031
0000
1000
0000
,
0010
0000
0100
0000
,
0001
0010
0100
1000
,
0010
0000
0100
0000
0001
1000
0000
1001
,
0000
0100
0100
0000
;

//---------------dance-single - ----------------
#NOTES:
     dance-single:
     :
     Medium:
     6:
     0.427,0.476,0.182,0.208,0.000:
0000
0000
0000
0000
,
0000
0000
0000
0000
,
0000
0000
0000
0000
,
0000
0000
0000
0000
,
0000
0000
0000
0000
,
0000
0000
0000
0000
,
0000
0000
0000
0000
,
0000
0000
0000
0000
,
0000
0000
0000
0000
0000
0100
1000
0000
,
1001
0000
0001
0000
0100
0000
0000
0010
,
1000
0010
0000
0000
0000
1000
0001
0000
,
0011
0000
0010
0000
0100
1000
0000
0010
,
0000
0000
0000
0000
0000
1000
0100
0000
,
1100
0000
1000
0000
0001
0000
0000
0010
,
0100
0010
0000
0001
1000
0001
0000
0100
,
0010
0000
0000
1000
0100
0000
0020
0000
,
0130
0000
1000
0000
0001
1000
0000
1001
,
0000
0000
0000
0000
,
0001
0000
0000
0100
0000
0000
0001
0000
,
0001
0000
0000
1000
0000
0000
0100
0000
,
1000
0000
0000
0010
0000
0000
1000
0000
,
1000
0000
0000
0001
0000
0000
1000
0000
,
1010
0000
0010
0000
0100
0000
0000
0001
,
1000
0001
0000
0000
0010
0000
0001
0000
,
1001
0000
1000
0000
0100
0010
0000
0001
,
0000
0000
0000
0000
0000
0001
1000
0000
,
1010
0000
0010
0000
1000
0000
0000
0001
,
0010
0001
0000
1000
0010
1000
0000
0001
,
0010
0000
0000
0001
1000
0000
0020
0000
,
0130
0000
0001
0000
0100
0010
0000
0110
,
0000
0000
0000
0000
,
0010
1000
0100
0010
,
0001
1000
1000
0000
,
0001
0010
0010
0000
,
0001
0100
0010
1000
,
1100
0000
1000
0000
0001
0000
0000
0010
,
0001
0010
0000
0000
0100
1000
0100
0000
,
1000
0000
0001
0000
0100
0001
0000
0010
,
0000
0000
0000
0000
0001
1000
0001
0000
,
0100
0000
0010
0000
1000
0000
0000
0001
,
0010
0001
0000
1000
0010
1000
0000
0001
,
0010
0000
0000
0010
0001
0000
2000
0000
,
3010
0000
0100
0000
0001
1000
0000
1001
,
0000
2000
3200
0320
,
0032
0000
0003
1000
0001
0000
0000
1000
,
0001
0002
0023
0230
,
2300
0000
3001
0100
0000
0000
0000
0001
,
1000
2000
3200
0320
,
0032
0000
0003
1000
0010
1000
0000
0010
,
0000
0010
0000
0100
0000
0100
0000
0001
,
1000
0000
1100
0000
1000
0000
0000
0001
,
0100
0001
0000
1000
0100
0000
1000
0000
,
0001
0000
0100
0000
0010
1000
0000
0001
,
0000
0000
0010
0000
0001
1000
0001
0000
,
0100
0000
0010
0000
2000
0000
0000
3001
,
1000
0000
0000
0010
0100
0000
0000
0001
,
1000
0000
0000
0001
0010
0000
0100
0000
,
1000
0000
0001
0000
0010
0100
0000
0110
,
0000
0000
0000
0000
,
0020
0000
0230
0000
,
1300
0001
0101
0001
,
0020
0000
0230
0000
,
1300
0001
1000
0000
0010
0000
0100
0000
,
0002
0000
2003
0000
,
3010
1000
0100
0010
,
0001
0000
1000
0000
0100
0010
0000
0110
,
0000
0100
0000
1000
0000
0001
0000
0010
,
0000
0001
0000
1000
0000
0100
0000
0010
,
0000
0001
1000
0000
0010
0000
1000
0000
,
0001
0100
0001
0000
0010
0000
0000
0100
,
0000
0100
0000
0100
1000
0000
0010
0000
,
1000
0000
0001
0000
0010
0001
0000
1000
,
0000
0001
0000
1000
0010
0000
1000
0000
,
0100
0000
0010
0000
0100
1000
0000
1001
,
0000
1001
0000
1001
0000
0000
0000
0000
,
0002
0000
0103
0000
0101
0000
0000
0001
,
1000
0001
0000
0000
0010
0000
0100
0000
,
1000
0000
0001
0000
0010
0100
0000
1000
,
0000
0001
0100
0010
,
2000
0000
3100
0000
1100
0000
0000
1000
,
0001
1000
0000
0001
1000
0001
0000
0010
,
0100
0000
0000
0100
0010
0000
0000
0001
,
1000
0001
0000
1000
0001
1000
0000
0001
,
0100
0000
0010
0000
1000
0100
0000
1100
,
0000
1000
0001
0000
1001
0000
0000
0000
;

//---------------dance-double - Copied from----------------
#NOTES:
     dance-double:
     Copied from:
     Beginner:
     1:
     0.126,0.183,0.017,0.000,0.000:
00000000
00000000
00000000
00000000
,
00000000
00000000
00000000
00000000
,
00000000
00000000
00000000
00000000
,
00000000
00000000
00000000
00000000
,
00000000
00000000
00000000
00000000
,
00000000
00000000
00000000
00000000
,
00000000
00000000
00000000
00000000
,
00000000
00000000
00000000
00000000
,
00000000
00000000
00000000
00000000
,
00010000
00000000
00000000
00000000
,
10000000
00000000
00000000
00000000
,
00010000
00000000
00010000
00000000
,
00010000
00000000
00000000
00000000
,
00100000
00000000
00000000
00000000
,
01000000
00000000
00000000
00000000
,
00100000
00000000
00000000
00000000
,
00010000
00000000
00010000
00000000
,
00010000
00000000
00000000
00000000
,
10000000
00000000
00000000
00000000
,
00100000
00000000
00000000
00000000
,
01000000
00000000
00000000
00000000
,
00010000
00000000
00000000
00000000
,
10000000
00000000
00000000
00000000
,
01000000
00000000
00000000
00000000
,
10000000
00000000
10000000
00000000
,
10000000
00000000
00000000
00000000
,
00010000
00000000
00000000
00000000
,
01000000
00000000
00000000
00000000
,
00010000
00000000
00000000
00000000
,
00100000
00000000
00100000
00000000
,
00100000
00000000
00000000
00000000
,
00000000
00010000
00000000
00010000
,
00000000
00010000
00000000
00000000
,
00000000
10000000
00000000
10000000
,
00000000
10000000
00000000
00000000
,
00100000
00000000
00000000
00000000
,
00100000
00000000
00000000
00000000
,
01000000
00000000
01000000
00000000
,
01000000
00000000
00000000
00000000
,
00010000
00000000
00000000
00000000
,
10000000
00000000
00000000
00000000
,
00010000
00000000
00000000
00000000
,
00100000
00000000
00100000
00000000
,
00100000
00000000
00000000
00000000
,
01000000
00000000
01000000
00000000
,
01000000
00000000
00000000
00000000
,
00100000
00000000
00000000
00000000
,
00010000
00000000
00000000
00000000
,
10000000
00000000
00010000
00000000
,
10000000
00000000
00010000
00000000
,
10000000
00000000
00000000
00000000
,
00100000
00000000
00000000
00000000
,
10000000
00000000
10000000
00000000
,
10000000
00000000
00000000
00000000
,
00010000
00000000
00000000
00000000
,
00100000
00000000
00000000
00000000
,
00010000
00000000
00000000
00000000
,
10000000
00000000
10000000
00000000
,
10000000
00000000
00000000
00000000
,
01000000
00000000
01000000
00000000
,
00100000
00000000
00100000
00000000
,
01000000
00000000
00000000
00000000
,
01000000
00000000
00000000
00000000
,
10000000
00000000
10000000
00000000
,
00010000
00000000
00010000
00000000
,
10000000
00000000
00000000
00000000
,
00100000
00000000
00000000
00000000
,
01000000
00000000
01000000
00000000
,
01000000
00000000
00000000
00000000
,
00010000
00000000
00010000
00000000
,
00010000
00000000
00000000
00000000
,
10000000
00000000
10000000
00000000
,
10000000
00000000
00000000
00000000
,
01000000
00000000
00000000
00000000
,
00000000
00000000
00000000
00000000
,
10010000
00000000
00000000
00000000
,
00010000
00000000
00000000
00000000
,
10000000
00000000
10000000
00000000
,
10000000
00000000
00000000
00000000
,
00100000
00000000
00000000
00000000
,
01000000
00000000
01000000
00000000
,
01000000
00000000
00000000
00000000
,
00010000
00000000
00010000
00000000
,
00010000
00000000
10000000
00000000
,
00010000
00000000
00011000
00000000
;

//---------------dance-double - ----------------
#NOTES:
     dance-double:
     :
     Hard:
     8:
     0.583,0.622,0.191,0.398,0.000:
00000000
00000000
00000000
00000000
,
00000000
00000000
00000000
00000000
,
00000000
00000000
00000000
00000000
,
00000000
00000000
00000000
00000000
,
00000000
00000000
00000000
00000000
,
00000000
00000000
00000000
00000000
,
00000000
00000000
00000000
00000000
,
00000001
00000000
00000001
00000000
00001000
00000010
00000000
00000010
,
00000000
00010000
01000000
10000000
,
20010000
00000000
00100000
00000000
31000000
00000000
00100000
00001000
,
00010000
00000100
00001000
00000000
00000010
00000100
00000001
00000000
,
00000012
00000000
00001000
00000000
00000103
00000010
00000000
00010000
,
00000000
00000010
00001000
00000000
00000100
00010000
00000100
00000000
,
00021000
00000000
00000100
00000000
00031000
00000000
01000000
00010000
,
00100000
01000000
00000000
10000000
01000000
00100000
00000000
00001000
,
00010000
00001000
00000000
00010000
00001000
00010000
00000100
00001000
,
00000010
00000000
00000100
00000000
00000001
00001000
00000000
00001001
,
00000000
00000001
00000010
00000100
00001000
00010000
00100000
01000000
,
10000000
00010000
00000000
00200000
00000000
00000000
00301000
00000000
,
00010000
00001000
00000000
00000020
00000000
00000000
00000031
00000000
,
00002000
00000000
00000000
00003020
00000000
00000000
00010030
00000000
,
00001000
00100000
00010000
00100000
00000000
00010000
10000000
00000000
,
21000000
00000000
00010000
00000000
30100000
00000000
01000000
00010000
,
00100000
01000000
00000000
00000000
00100000
00001000
00010000
00000000
,
00021000
00000000
00000010
00000000
00030100
00001000
00000000
00000001
,
00000000
00001000
00000010
00000000
00010000
00000100
00001000
00000000
,
00001002
00000000
00000100
00000000
00000013
00000000
00000100
00010000
,
00001000
00010000
00000000
00000100
00000010
00000100
00000000
00010000
,
00001000
00010000
00000000
01000000
00100000
01000000
10000000
00100000
,
10000000
00000000
00010000
00100000
00001000
00010000
00001000
00001000
,
00000000
00000000
00000000
00000000
,
00000010
00000000
00000001
00000100
00001000
00010000
00001000
00000100
,
00000001
00001000
00001000
00000000
,
00000100
00010000
00010000
00000000
,
00001000
00000000
00100000
00000000
00010000
00100000
00010000
00000000
,
20010000
00000000
30100000
00000000
02000000
00000000
03010000
00100000
,
00001000
00010000
00001000
00000000
00000010
00000100
00001000
00000000
,
00002010
00000000
00003002
00000000
00000013
00000100
00000000
00000110
,
00000000
00000010
00000001
00000000
00001000
00000010
00000100
00001000
,
00010000
00000000
00000100
00000000
00001200
00000000
00010300
00001000
,
00100000
00010000
00000000
01000000
00010000
00100000
00000000
00001000
,
00010000
00001000
00000000
00000100
00000010
00001000
00000100
00010000
,
00001000
00000000
00010000
00001000
01000000
00010000
00100000
00100000
,
00000000
02000000
23000000
30020000
,
00130000
00000000
00001000
00010000
00001000
00000000
00010000
00001000
,
00010000
00000020
00000230
00000302
,
00002003
00000000
00003100
00010000
00000100
00000000
00010000
00001000
,
00010000
00002000
02003000
03020000
,
00230000
00000000
01300000
10000000
01000000
00100000
00000000
00100000
,
00000000
00001000
00000000
00001000
00000000
00010000
00000100
00001000
,
00000010
00000000
00002010
00000000
00003001
00000000
00000010
00000100
,
00001000
00000100
00020000
00000000
00030010
00001000
00000100
00000010
,
00000100
00000000
00010000
00000000
00001000
01000000
00000000
00010000
,
00000000
00100000
00001000
00000000
00010000
01000000
10000000
01000000
,
00200000
00000000
00301000
00000000
00021000
00000000
00030010
00001000
,
00000100
00000010
00000000
00000001
00000100
00000010
00000000
00010000
,
00001000
00010000
00000000
01000000
00100000
01000000
10000000
00010000
,
00100000
00000000
01000000
00000000
00100000
00001000
00000000
00011000
,
00000000
00000000
00000000
00000000
,
00020000
00000000
01030000
00000000
10000000
01000000
00100000
00020000
,
00000000
00100000
00000000
01030000
00001000
00000000
00010000
00000000
,
00000200
00000000
00001300
00000000
00000001
00000100
00000010
00002000
,
00000000
00000100
00000000
00003010
00010000
00000000
00000100
00000000
,
00000120
00000000
00000031
00000000
00001000
00000010
00010000
00002000
,
00000000
00100000
00000000
01003000
00010000
00000000
00100000
00000000
,
01000000
00000000
10000000
00000000
00010000
01000000
00000000
01010000
,
00000000
00010000
00000000
00100000
00000000
00001000
00000000
00000010
,
00000100
00001000
00000100
00000010
00000000
00000001
00000000
00001000
,
00000000
00000010
00000100
00000010
00010000
00001000
00010000
00000000
,
00000100
00000000
00001000
00000010
00000100
00000001
00000010
00000000
,
00001000
00000000
00010000
00000000
01000000
00100000
01000000
10000000
,
00000000
00010000
00000000
00100000
00000000
00001000
00000000
00010000
,
00000000
00000100
00001000
00000010
00000100
00000001
00000010
00000000
,
00000010
00000100
00020000
00000000
00030010
00000100
00001000
00010000
,
00000000
01000000
00000000
01100000
00000000
01000000
00100000
00000000
,
00120000
00000000
10000000
00000000
01030000
00000000
00010000
00100000
,
00001000
00010000
00001000
00000000
00000010
00000100
00001000
00000000
,
00001002
00000000
00000100
00000000
00000013
00000100
00000000
00001000
,
00000000
00000100
00000010
00000000
00000001
00001000
00000001
00000000
,
00000021
00000000
00000100
00000000
00000031
00000000
00001000
00000010
,
00010000
00002000
00000000
00103000
00001000
00020000
00000000
00030100
,
00010000
00002000
00000000
01003000
00001000
00020000
00000000
00031000
,
00100000
00020000
00000000
01030000
00100000
20000000
00000000
31000000
,
00100000
00000000
00101000
00000000
00001000
00010000
00000000
00011000
,
00000000
00010000
00000100
00000010
00001000
00000000
00000000
00000000
;

//---------------dance-double - ----------------
#NOTES:
     dance-double:
     :
     Medium:
     6:
     0.406,0.439,0.139,0.043,0.000:
00000000
00000000
00000000
00000000
,
00000000
00000000
00000000
00000000
,
00000000
00000000
00000000
00000000
,
00000000
00000000
00000000
00000000
,
00000000
00000000
00000000
00000000
,
00000000
00000000
00000000
00000000
,
00000000
00000000
00000000
00000000
,
00000000
00000000
00000000
00000000
,
00000000
00000000
00000000
00000000
00000000
00010000
00100000
00000000
,
01100000
00000000
01000000
00000000
10000000
00000000
00000000
00010000
,
00100000
00010000
00000000
00000000
00100000
00000000
00001000
00000000
,
00011000
00000000
00010000
00000000
00000010
00000100
00000000
00000001
,
00000000
00000000
00000010
00000000
00000001
00001000
00000001
00000000
,
00000011
00000000
00000010
00000000
00000100
00000000
00000000
00010000
,
00001000
00010000
00000000
00001000
00010000
00001000
00000000
00100000
,
00010000
00000000
00000000
00100000
00001000
00000000
02000000
00000000
,
03010000
00000000
00100000
00000000
01000000
10000000
00000000
00010000
,
00000000
00000000
00000000
00000000
,
10000000
00000000
00000000
01000000
00000000
00000000
00010000
00000000
,
00001000
00010000
00000000
00010000
00000000
00000000
00000000
00000000
,
00001000
00000000
00000000
00000100
00000000
00000000
00000001
00000000
,
00001000
00000100
00000000
00000010
00000000
00000010
00000100
00000000
,
00001100
00000000
00001000
00000000
00000001
00000000
00000000
00000010
,
00000100
00000010
00000000
00000000
00000100
00000000
00010000
00000000
,
00011000
00000000
00001000
00000000
01000000
00010000
00000000
00100000
,
00000000
01000000
10000000
01000000
,
00100000
00000000
00001000
00000000
00011000
00000000
00000000
00001000
,
00010000
00001000
00000000
00010000
00000100
00000000
00000000
00000010
,
00000100
00000000
00000000
00010000
00001000
00000000
00100000
00000000
,
00010000
00000000
01000000
00000000
00100000
10000000
00000000
00010000
,
00000000
00000000
00000000
00000000
,
00010000
01000000
10000000
01000000
,
00010000
00100000
00100000
00000000
,
00001000
00010000
00010000
00000000
,
00001000
00000100
00000001
00000000
,
00001001
00000000
00000001
00000000
00000010
00000000
00000000
00000100
,
00001000
00000100
00000000
00000000
00000010
00000000
00000001
00000000
,
00001001
00000000
00001000
00000000
00000010
00010000
00000000
00001000
,
00000000
00010000
00001000
00100000
,
00110000
00000000
00010000
00000000
10000000
00000000
00000000
00100000
,
01000000
00100000
00000000
01000000
00001000
00000000
00000000
00010000
,
00001000
00000000
00000000
00000010
00000100
00000000
00020000
00000000
,
00031000
00000000
00000010
00000000
00000001
00001000
00000000
00000010
,
00000000
00000000
00000000
00000000
,
00001000
00000000
00000001
00000100
00000001
00000000
00001000
00000000
,
00001000
00000000
00000100
00010000
00000100
00000000
00010000
00000000
,
00010000
00000000
00001000
01000000
00001000
00000000
00100000
00000000
,
00100000
00000000
00010000
10000000
00010000
00000000
01000000
00000000
,
01000000
00000000
00100000
00000000
10000000
00010000
00000000
00100000
,
00000000
01000000
00000000
10000000
00010000
00000000
01000000
00000000
,
00001000
00000000
00100000
00000000
00110000
00000000
00000000
00100000
,
00001000
00100000
00000000
00000000
00001000
00000000
00010000
00000000
,
00000100
00000000
00000010
00000000
00000001
00001000
00000000
00000010
,
00000000
00001000
00000100
00000010
,
00000001
00000000
00001000
00000000
00001010
00000000
00000000
00001000
,
00000100
00001000
00000000
00000100
00010000
00000000
00000000
00001000
,
01000000
00000000
00000000
00001000
00010000
00000000
01000000
00000000
,
10000000
00000000
00100000
00000000
01000000
00010000
00000000
10010000
,
00000000
00000000
00000000
00000000
,
10000000
01000000
00100000
01000000
,
10000000
00010000
10000000
00000000
00200000
00000000
00000000
00000000
,
01300000
00001000
00010000
00000100
,
00000010
00000100
00000010
00000000
00000002
00000000
00000000
00000000
,
00001003
00000010
00001000
00000100
,
00010000
00001000
00010000
00000000
00100000
00000000
10000000
00000000
,
01000000
00000000
00100000
00000000
00010000
00100000
00000000
00001000
,
00000000
00100000
00000000
00010000
00000000
01000000
00000000
10000000
,
00000000
01000000
00000000
00010000
00000000
00100000
00000000
00001000
,
00000000
00010000
00001000
00000000
00000100
00000000
00000001
00000000
,
00001000
00000000
00000100
00000010
00000100
00000000
00000100
00001000
,
00000000
00000001
00000000
00001000
00000000
00000010
00000000
00010000
,
00000000
00001000
00000000
00100000
00000000
00010000
00000000
01000000
,
00000000
00100000
10000000
00000000
01000000
00100000
01000000
00000000
,
10000000
00000000
00010000
00000000
01000000
00100000
00000000
10100000
,
00000000
10100000
00000000
10000000
00000000
00000000
00000000
00000000
,
02000000
00000000
03100000
00000000
00110000
00000000
00000000
00010000
,
01000000
00010000
00000000
00000000
00100000
00000000
00001000
00000000
,
00010000
00000000
00000100
00000000
00001000
00000010
00000000
00000100
,
00000000
00000010
00001000
00000100
,
00000010
00000000
00000001
00000000
00001001
00000000
00000000
00000100
,
00010000
00000000
00000000
00001000
01000000
00000000
00000000
00001000
,
00010000
00000000
00000000
00010000
00000100
00000000
00000000
00000010
,
00000100
00000010
00000000
00000001
00001000
00000001
00000000
00001000
,
00000010
00000000
00010000
00000000
00001000
00100000
00000000
00010000
,
00000000
01000000
00100000
01000000
00100000
00000000
00000000
00000000
;

//---------------dance-double - ----------------
#NOTES:
     dance-double:
     :
     Easy:
     3:
     0.297,0.329,0.000,0.000,0.000:
00000000
00000000
00000000
00000000
,
00000000
00000000
00000000
00000000
,
00000000
00000000
00000000
00000000
,
00000000
00000000
00000000
00000000
,
00000000
00000000
00000000
00000000
,
00000000
00000000
00000000
00000000
,
00000000
00000000
00000000
00000000
,
00000000
00000000
00000000
00000000
,
00000000
00000000
00000000
00000000
,
10000000
01000000
00100000
00000000
,
00001000
00000000
00010000
00000000
,
00000100
00000010
00000001
00000000
,
00001000
00000000
00000010
00000000
,
00000100
00000001
00000010
00000000
,
00000100
00010000
00001000
00010000
,
00000100
00000010
00000001
00000010
,
00000100
00000000
00010000
00000000
00001000
00010000
00000000
00001000
,
00000000
00100000
01000000
10000000
,
00100000
00000000
00000000
01000000
00000000
00000000
00100000
00000000
,
00100000
00000000
00000000
10000000
00000000
00000000
00000000
00000000
,
00010000
00000000
00000000
00100000
00000000
00000000
00001000
00000000
,
00001000
00000000
00000000
00010000
00000000
00000000
00000000
00000000
,
00000100
00000010
00000001
00000000
,
00001000
00000000
00000010
00000000
,
00010000
00001000
00010000
00000000
,
01000000
00000000
10000000
00000000
,
00010000
01000000
00100000
00000000
,
10000000
01000000
00010000
01000000
,
10000000
00010000
00100000
00001000
,
00010000
00000000
00000100
00000000
00001000
00000100
00000000
00000010
,
00000000
00000000
00000000
00000000
,
00000001
00000100
00000010
00010000
,
00001000
00010000
00010000
00000000
,
00100000
01000000
00010000
00000000
,
00100000
01000000
10000000
01000000
,
00100000
00001000
00010000
00000000
,
00000010
00000000
00000100
00000000
,
00000001
00000010
00001000
00000000
,
00000010
00000000
00000100
00000000
,
00010000
00001000
00100000
00000000
,
00010000
01000000
10000000
01000000
,
00010000
00100000
00001000
00010000
,
00000100
00000000
00000010
00000000
00000001
00001000
00000000
00000100
,
00000000
00000000
00000000
00000000
,
00001000
00000100
00000001
00000100
,
00010000
00000010
00001000
00000010
,
00010000
01000000
10000000
01000000
,
00010000
00001000
00010000
00000010
,
00000100
00000001
00000010
00000000
,
00000001
00001000
00001000
00001000
,
00000010
00000100
00000001
00000000
,
00000010
00000000
00000100
00000000
,
00010000
00001000
00010000
00000000
,
01000000
00000000
10000000
00000000
,
00100000
01000000
00001000
00000000
,
00100000
00010000
01000000
00010000
,
00100000
00001000
00010000
00001000
,
00000100
00000000
00000001
00000000
00000010
00000000
00000000
00000010
,
00000000
00000000
00000000
00000000
,
00000001
00000100
00001000
00000100
,
00000001
00000010
00001000
00000010
,
00000001
00000100
00000010
00010000
,
00001000
00000000
00001000
00000000
,
00010000
01000000
10000000
01000000
,
00100000
00010000
01000000
00010000
,
00100000
00000000
00001000
00000000
00010000
00000000
00000000
00010000
,
00000000
00000010
00000000
00001000
00000000
00000010
00000000
00000100
,
00000000
00000001
00000000
00000010
00000000
00000100
00000000
00001000
,
00000000
00000100
00010000
00001000
,
00000000
01000000
00010000
00100000
,
01000000
10000000
01000000
00100000
,
00000000
00010000
00000000
00100000
00000000
00001000
00000000
00010000
,
00000000
00000010
00001000
00000100
,
00000010
00000000
00000001
00000000
00001000
00000000
00000000
00000010
,
00000000
00000010
00000000
00000010
00000000
00000000
00001000
00000000
,
00000001
00000010
00000100
00000000
,
00010000
00000000
00000010
00000000
,
00001000
00000000
00000100
00000000
00010000
00001000
00000000
00001000
,
00000000
00000000
01000000
00010000
,
00100000
01000000
10000000
00000000
,
00010000
00000000
00100000
00000000
,
00001000
00000000
00010000
00000000
,
00000100
00000000
00000010
00000000
,
00000001
00000000
00000100
00000000
00000010
00001000
00000000
00000010
,
00000000
00010000
00001000
00000000
00001000
00000000
00000000
00000000
;
